(Jpop) Ohsama - Kabutomushi Gaiden - 2005 (music The Beatles covered), FLAC (tracks+.cue) lossless

Статистика раздачи
Размер:  244.4 MB   |   Зарегистрирован:  8 лет 2 месяца   |   .torrent скачан:  1,039 раз
Сиды:  2
Автор
Сообщение

lukkon

Стаж: 10 лет 7 месяцев

Сообщений: 314

flag

lukkon · 08-Окт-10 23:14 (8 лет 2 месяца назад, ред. 10-Фев-16 19:20)

 

Ohsama / Kabutomushi Gaiden (music The Beatles covered) Жанр: Jpop
Страна-производитель диска: Japan
Год издания диска: 2005
Издатель (лейбл): Victor Entertainment
Номер по каталогу: VICL-61832
Страна: Japan
Аудио кодек: FLAC (*.flac)
Тип рипа: tracks+.cue
Битрейт аудио: lossless
Продолжительность: 00:36:00
Источник (релизер): lukkon
Наличие сканов в содержимом раздачи: да
Треклист:
01.Twist & Shout
02.Please Mr. Postman
03. Roll Over Beethoven
04. You Really Gotta Hold On Me
05.Dizzy Miss Lizzy
06. Mr. Moonlight
07. Lang Tall Sally
08. Boys
09. Money
10. Come Together
11. Hey Judу straight
12. カフ卜ムシキンヴ•乂ドし一
Для ознакомления.
Посмотреть:http://www.youtube.com/watch?v=ym7iHrn8vCw#t=68
Купить: http://www.cdjapan.co.jp/detailview.html?KEY=VICL-61832
Официальный сайт: http://www.osama.co.jp/
Лог создания рипа
Exact Audio Copy V0.99 prebeta 5 from 4. May 2009
EAC extraction logfile from 11. October 2010, 23:40
Osama / Kabuto Mushi Gaiden
Used drive : PIONEER DVD-RW DVR-218L Adapter: 1 ID: 0
Read mode : Secure
Utilize accurate stream : Yes
Defeat audio cache : Yes
Make use of C2 pointers : No
Read offset correction : 6
Overread into Lead-In and Lead-Out : No
Fill up missing offset samples with silence : Yes
Delete leading and trailing silent blocks : No
Null samples used in CRC calculations : Yes
Used interface : Installed external ASPI interface
Gap handling : Appended to previous track
Used output format : User Defined Encoder
Selected bitrate : 128 kBit/s
Quality : High
Add ID3 tag : No
Command line compressor : C:\Program Files\Exact Audio Copy\Flac\flac.exe
Additional command line options : -8 -V -T "ARTIST=%a" -T "TITLE=%t" -T "ALBUM=%g" -T "DATE=%y" -T "TRACKNUMBER=%n" -T "GENRE=%m" -T "COMMENT=%e" %s -o %d
TOC of the extracted CD
Track | Start | Length | Start sector | End sector
---------------------------------------------------------
1 | 0:00.00 | 2:34.43 | 0 | 11592
2 | 2:34.43 | 2:31.55 | 11593 | 22972
3 | 5:06.23 | 2:50.05 | 22973 | 35727
4 | 7:56.28 | 3:02.10 | 35728 | 49387
5 | 10:58.38 | 2:58.22 | 49388 | 62759
6 | 13:56.60 | 2:36.28 | 62760 | 74487
7 | 16:33.13 | 2:03.62 | 74488 | 83774
8 | 18:37.00 | 2:42.23 | 83775 | 95947
9 | 21:19.23 | 2:56.35 | 95948 | 109182
10 | 24:15.58 | 4:10.57 | 109183 | 127989
11 | 28:26.40 | 3:38.03 | 127990 | 144342
12 | 32:04.43 | 2:54.65 | 144343 | 157457
13 | 34:59.33 | 1:01.40 | 157458 | 162072
Track 1
Filename C:\СDJapan\Osama - Kabuto Mushi Gaiden'2005 VICL-61832\01.Osama - Track01.wav
Pre-gap length 0:00:02.00
Peak level 98.8 %
Track quality 100.0 %
Test CRC AEF55182
Copy CRC AEF55182
Track not present in AccurateRip database
Copy OK
Track 2
Filename C:\СDJapan\Osama - Kabuto Mushi Gaiden'2005 VICL-61832\02.Osama - Track02.wav
Pre-gap length 0:00:01.45
Peak level 95.5 %
Track quality 99.9 %
Test CRC 11CC53C6
Copy CRC 11CC53C6
Track not present in AccurateRip database
Copy OK
Track 3
Filename C:\СDJapan\Osama - Kabuto Mushi Gaiden'2005 VICL-61832\03.Osama - Track03.wav
Pre-gap length 0:00:01.45
Peak level 95.5 %
Track quality 100.0 %
Test CRC 6012DAA7
Copy CRC 6012DAA7
Track not present in AccurateRip database
Copy OK
Track 4
Filename C:\СDJapan\Osama - Kabuto Mushi Gaiden'2005 VICL-61832\04.Osama - Track04.wav
Pre-gap length 0:00:03.45
Peak level 95.5 %
Track quality 100.0 %
Test CRC 297EF7EF
Copy CRC 297EF7EF
Track not present in AccurateRip database
Copy OK
Track 5
Filename C:\СDJapan\Osama - Kabuto Mushi Gaiden'2005 VICL-61832\05.Osama - Track05.wav
Pre-gap length 0:00:01.45
Peak level 95.5 %
Track quality 99.9 %
Test CRC 276106EF
Copy CRC 276106EF
Track not present in AccurateRip database
Copy OK
Track 6
Filename C:\СDJapan\Osama - Kabuto Mushi Gaiden'2005 VICL-61832\06.Osama - Track06.wav
Pre-gap length 0:00:03.45
Peak level 95.5 %
Track quality 99.9 %
Test CRC FA9D7CEA
Copy CRC FA9D7CEA
Track not present in AccurateRip database
Copy OK
Track 7
Filename C:\СDJapan\Osama - Kabuto Mushi Gaiden'2005 VICL-61832\07.Osama - Track07.wav
Pre-gap length 0:00:02.45
Peak level 95.5 %
Track quality 100.0 %
Test CRC 7A6B0E87
Copy CRC 7A6B0E87
Track not present in AccurateRip database
Copy OK
Track 8
Filename C:\СDJapan\Osama - Kabuto Mushi Gaiden'2005 VICL-61832\08.Osama - Track08.wav
Pre-gap length 0:00:01.45
Peak level 95.5 %
Track quality 100.0 %
Test CRC 7FB5764F
Copy CRC 7FB5764F
Track not present in AccurateRip database
Copy OK
Track 9
Filename C:\СDJapan\Osama - Kabuto Mushi Gaiden'2005 VICL-61832\09.Osama - Track09.wav
Pre-gap length 0:00:01.45
Peak level 95.5 %
Track quality 100.0 %
Test CRC 8037348A
Copy CRC 8037348A
Track not present in AccurateRip database
Copy OK
Track 10
Filename C:\СDJapan\Osama - Kabuto Mushi Gaiden'2005 VICL-61832\10.Osama - Track10.wav
Pre-gap length 0:00:04.45
Peak level 95.5 %
Track quality 100.0 %
Test CRC ACAD0613
Copy CRC ACAD0613
Track not present in AccurateRip database
Copy OK
Track 11
Filename C:\СDJapan\Osama - Kabuto Mushi Gaiden'2005 VICL-61832\11.Osama - Track11.wav
Pre-gap length 0:00:02.45
Peak level 95.5 %
Track quality 100.0 %
Test CRC A2095B30
Copy CRC A2095B30
Track not present in AccurateRip database
Copy OK
Track 12
Filename C:\СDJapan\Osama - Kabuto Mushi Gaiden'2005 VICL-61832\12.Osama - Track12.wav
Pre-gap length 0:00:02.45
Peak level 95.5 %
Track quality 100.0 %
Test CRC 044A2644
Copy CRC 044A2644
Track not present in AccurateRip database
Copy OK
Track 13
Filename C:\СDJapan\Osama - Kabuto Mushi Gaiden'2005 VICL-61832\13.Osama - Track13.wav
Pre-gap length 0:00:00.45
Peak level 89.7 %
Track quality 100.0 %
Test CRC A2DBB575
Copy CRC A2DBB575
Track not present in AccurateRip database
Copy OK
None of the tracks are present in the AccurateRip database
No errors occurred
End of status report
Содержание индексной карты (.CUE)
REM GENRE Jpop
REM DATE 2005
REM DISCID B108700D
REM COMMENT "ExactAudioCopy v0.99pb5"
PERFORMER "Osama"
TITLE "Kabuto Mushi Gaiden"
FILE "01.Osama - Track01.wav" WAVE
TRACK 01 AUDIO
TITLE "Track01"
PERFORMER "Osama"
INDEX 01 00:00:00
TRACK 02 AUDIO
TITLE "Track02"
PERFORMER "Osama"
INDEX 00 02:33:09
FILE "02.Osama - Track02.wav" WAVE
INDEX 01 00:00:00
TRACK 03 AUDIO
TITLE "Track03"
PERFORMER "Osama"
INDEX 00 02:30:21
FILE "03.Osama - Track03.wav" WAVE
INDEX 01 00:00:00
TRACK 04 AUDIO
TITLE "Track04"
PERFORMER "Osama"
INDEX 00 02:46:46
FILE "04.Osama - Track04.wav" WAVE
INDEX 01 00:00:00
TRACK 05 AUDIO
TITLE "Track05"
PERFORMER "Osama"
INDEX 00 03:00:51
FILE "05.Osama - Track05.wav" WAVE
INDEX 01 00:00:00
TRACK 06 AUDIO
TITLE "Track06"
PERFORMER "Osama"
INDEX 00 02:54:63
FILE "06.Osama - Track06.wav" WAVE
INDEX 01 00:00:00
TRACK 07 AUDIO
TITLE "Track07"
PERFORMER "Osama"
INDEX 00 02:33:69
FILE "07.Osama - Track07.wav" WAVE
INDEX 01 00:00:00
TRACK 08 AUDIO
TITLE "Track08"
PERFORMER "Osama"
INDEX 00 02:02:28
FILE "08.Osama - Track08.wav" WAVE
INDEX 01 00:00:00
TRACK 09 AUDIO
TITLE "Track09"
PERFORMER "Osama"
INDEX 00 02:40:64
FILE "09.Osama - Track09.wav" WAVE
INDEX 01 00:00:00
TRACK 10 AUDIO
TITLE "Track10"
PERFORMER "Osama"
INDEX 00 02:52:01
FILE "10.Osama - Track10.wav" WAVE
INDEX 01 00:00:00
TRACK 11 AUDIO
TITLE "Track11"
PERFORMER "Osama"
INDEX 00 04:08:23
FILE "11.Osama - Track11.wav" WAVE
INDEX 01 00:00:00
TRACK 12 AUDIO
TITLE "Track12"
PERFORMER "Osama"
INDEX 00 03:35:44
FILE "12.Osama - Track12.wav" WAVE
INDEX 01 00:00:00
TRACK 13 AUDIO
TITLE "Track13"
PERFORMER "Osama"
INDEX 00 02:54:31
FILE "13.Osama - Track13.wav" WAVE
INDEX 01 00:00:00
Скриншот спектра частот
Состав
GUITAR&VOCAL 王様
BASS 六川正彦
BASS 永沼忠明(M1.M7.M10.M11)
DRUMS&PERCUSSION 三浦晃嗣
KEYBOARD&MACINTOSH 和田春比古
CHORUS王様
永沼忠明(M2.M4.M6.M8)
ぼお&ぢおぢ(Cover Soul) (M1.M9.M11)
Зарегистрирован:
  • 11-Окт-10 21:58
  • Скачан: 1,039 раз

Скачать .torrent

21 KB

Тип: обычная
Статус: проверено
Размер: 244.4 MB  ·  magnetC0197BDAAE1B11F0A7D789BBC3D444983FC96BA5
  • Свернуть поддиректории
  • Развернуть
  • Переключить
  • Увел./умен. окно
загружается...

lukkon

Стаж: 10 лет 7 месяцев

Сообщений: 314

flag

lukkon · 08-Окт-10 23:51 (спустя 36 мин., ред. 30-Июл-11 22:28)

Ohsama - Deep Purple Legend (王様 - 深紫伝説) находится здесь:
http://GOSTRACKER.XYZ/viewtopic.php?t=3016876
http://www.youtube.com/watch?v=wgrrQwLdME8

bruk67

VIP (Заслуженный)

Стаж: 10 лет 2 месяца

Сообщений: 8097

flag

bruk67 · 10-Окт-10 15:46 (спустя 1 день 15 часов)

lukkon писал(а):
Read offset correction : 0
Не выставлен оффсет
Для привода PIONEER DVD-RW DVR-218L, это значение +6
В раздаче два рипа, потрековый и образом, и оба в несжатых .WAV файлах.
Запрещается публикация несжатых образов дисков, а именно (но не ограничиваясь) - *.WAV, *NRG, *MDF/*.MDS.
Нужно удалить лишний рип и оставшийся конвертировать во FLAC.
В оформлении, оставьте нужный лог, другой удалите.
Дооформите, пожалйуста.

lukkon

Стаж: 10 лет 7 месяцев

Сообщений: 314

flag

lukkon · 10-Окт-10 21:54 (спустя 6 часов, ред. 10-Окт-10 21:54)

Куда вставлять -то этот +6
Другой CD вставляю вылазит

Вставляю нужный диск вылазят все песни со всеми цифрами.
Удалил всё из папки, всё равно ЕАС весь заполнен данными.

lukkon

Стаж: 10 лет 7 месяцев

Сообщений: 314

flag

lukkon · 12-Окт-10 05:27 (спустя 1 день 7 часов)

bruk67
Спасибо за помощь.
Image вышлю в ЛС, как файлообменник пережуёт.
Только не пойму, зачем создавать рипы именно в режиме Test&Copy, если потом перекодировать в FLAC. При тестировании в режиме сжатие получается готовый FLAC?

natork

Стаж: 9 лет 11 месяцев

Сообщений: 999

natork · 14-Авг-13 12:23 (спустя 2 года 10 месяцев)

Индексный файл cue и плей-лист m3u не соответствуют музыкальным файлам flac. Необходимо их править вручную в блокноте пока релизёр не соблаговолит сделать это в раздаче.

MINIKt

Стаж: 8 лет 9 месяцев

Сообщений: 252

flag

MINIKt · 10-Окт-13 16:31 (спустя 1 месяц 27 дней)

данное явления - это зеркало того, как японцы слышат песни The Beatles, когда мы исполняем их на русском
Чужим умом жизнь не проживёшь

natork

Стаж: 9 лет 11 месяцев

Сообщений: 999

natork · 11-Окт-13 00:02 (спустя 7 часов)

MINIKt писал(а):
61218680данное явления - это зеркало того...
какую траву куришь? я тоже такую хочу:)

guitar444

Стаж: 7 лет 4 месяца

Сообщений: 18

flag

guitar444 · 20-Мар-17 09:23 (спустя 3 года 5 месяцев)

супер)...записать бы сборник какой-нибудь вьетнамской группы "Ю.Антонов...лучшее"...было бы круто наверное)
 
All rights reserved © 2017-2018
Loading...
Error