[Футбол] Официальный фильм о Чемпионате Мира 2010 в 3Д / The Official 2010 FIFA World Cup Film in 3D [2010, документальный, футбол, Blu-Ray Disc 720p] BD3D

Статистика раздачи
Размер:  23.17 GB   |   Зарегистрирован:  7 лет 11 месяцев   |   .torrent скачан:  2,648 раз
Сиды:  1
Автор
Сообщение

gmouse

VIP (Заслуженный)

Стаж: 12 лет 3 месяца

Сообщений: 3747

flag

gmouse · 19-Ноя-10 09:05 (7 лет 11 месяцев назад, ред. 20-Ноя-10 12:36)

 

Официальный фильм о Чемпионате Мира 2010 в 3Д / The Official 2010 FIFA World Cup Film in 3D Год выпуска: 2010
Страна: сша
Жанр: документальный, футбол
Продолжительность: 01:04:29
Перевод: отсутствует
Русские субтитры: нет
Описание: Зрелищный обзор спортивных событий в формате Bluray3D. Вы окунётесь в события происходившие на Чемпионата Мира 2010 в Южной Африке, и переживете самые яркие момента так будто вы там побывали на самом деле.
Бонусы на диске:
пара рекламных роликов 3д фильмов в 1080p
Качество: Blu-Ray 3D
Формат: SIFF
Видео кодек: MVC
Аудио кодек: DTS-HDMA
Видео: MPEG4 Video (H264) 1280х720 59.94fps ~40 mbps (в сумме на оба ракурса).
Аудио1: English DTS-HDMA 48000Hz 6ch 2519kbps
Аудио2: Deutsch DTS-HDMA 48000Hz 6ch 2478kbps
Дополнительная информация: Просмотр рекомендован на специализированнном 3D оборудовании : 3D blu-ray player (ps3) + 3Dтелевизор, но также возможно просмотреть на любом оборудовании в 2д, или в 3д c простыми очками через CyberLink PowerDVD 10 или ArcSoft TotalMedia Theatre 3 + sim3d
В обычном режиме будет 2Д картинка, на любом плеере..
bdinfo
Disc Title: OFFICIAL_2010_FIFA_3D
Disc Size: 24 868 627 870 bytes
Protection: AACS
BD-Java: Yes
Extras: Blu-ray 3D
BDInfo: 0.5.6
Notes:
BDINFO HOME:
Cinema Squid
http://www.cinemasquid.com/blu-ray/tools/bdinfo
INCLUDES FORUMS REPORT FOR:
AVS Forum Blu-ray Audio and Video Specifications Thread
http://www.avsforum.com/avs-vb/showthread.php?t=1155731
********************
PLAYLIST: 00007.MPLS
********************
<--- BEGIN FORUMS PASTE --->
Код:
Total   Video
Title                                                           Codec   Length  Movie Size      Disc Size       Bitrate Bitrate Main Audio Track                          Secondary Audio Track
-----                                                           ------  ------- --------------  --------------  ------- ------- ------------------                        ---------------------
00007.MPLS                                                      AVC     1:04:29 14 581 487 616  24 868 627 870  30,14   23,34   DTS-HD Master 5.1 2519Kbps (48kHz/24-bit)
Код:
DISC INFO:
Disc Title:     OFFICIAL_2010_FIFA_3D
Disc Size:      24 868 627 870 bytes
Protection:     AACS
BD-Java:        Yes
Extras:         Blu-ray 3D
BDInfo:         0.5.6
PLAYLIST REPORT:
Name:                   00007.MPLS
Length:                 1:04:29 (h:m:s)
Size:                   14 581 487 616 bytes
Total Bitrate:          30,14 Mbps
VIDEO:
Codec                   Bitrate             Description
-----                   -------             -----------
MPEG-4 AVC Video        23336 kbps          720p / 59,940 fps / 16:9 / High Profile 4.1
AUDIO:
Codec                           Language        Bitrate         Description
-----                           --------        -------         -----------
DTS-HD Master Audio             English         2519 kbps       5.1 / 48 kHz / 2519 kbps / 24-bit (DTS Core: 5.1 / 48 kHz / 1509 kbps / 24-bit)
DTS-HD Master Audio             German          2478 kbps       5.1 / 48 kHz / 2478 kbps / 24-bit (DTS Core: 5.1 / 48 kHz / 1509 kbps / 24-bit)
SUBTITLES:
Codec                           Language        Bitrate         Description
-----                           --------        -------         -----------
Presentation Graphics           English         0,000 kbps
Presentation Graphics           German          1,385 kbps
FILES:
Name            Time In         Length          Size            Total Bitrate
----            -------         ------          ----            -------------
00114.M2TS      0:00:00.000     0:32:24.342     7 146 878 976   29 406
00117.M2TS      0:32:24.342     0:32:05.523     7 434 608 640   30 889
CHAPTERS:
Number          Time In         Length          Avg Video Rate  Max 1-Sec Rate  Max 1-Sec Time  Max 5-Sec Rate  Max 5-Sec Time  Max 10Sec Rate  Max 10Sec Time  Avg Frame Size  Max Frame Size  Max Frame Time
------          -------         ------          --------------  --------------  --------------  --------------  --------------  --------------  --------------  --------------  --------------  --------------
1               0:00:00.000     0:02:35.155     24 055 kbps     51 796 kbps     00:02:07.443    32 112 kbps     00:00:16.566    29 790 kbps     00:00:27.894    50 159 bytes    343 668 bytes   00:02:23.693
2               0:02:35.155     0:03:17.647     19 645 kbps     35 879 kbps     00:03:12.192    31 109 kbps     00:03:10.123    27 145 kbps     00:03:37.984    40 968 bytes    345 726 bytes   00:04:06.879
3               0:05:52.802     0:05:11.377     21 763 kbps     33 390 kbps     00:07:27.313    29 652 kbps     00:10:12.928    27 107 kbps     00:10:10.426    45 386 bytes    344 577 bytes   00:10:41.173
4               0:11:04.180     0:04:13.903     22 456 kbps     32 818 kbps     00:13:54.033    29 116 kbps     00:13:26.272    27 943 kbps     00:11:51.427    46 830 bytes    343 323 bytes   00:13:41.987
5               0:15:18.083     0:03:22.952     21 812 kbps     39 516 kbps     00:16:48.090    31 759 kbps     00:16:45.904    26 717 kbps     00:17:51.720    45 488 bytes    344 301 bytes   00:15:44.510
6               0:18:41.036     0:02:42.912     23 746 kbps     34 309 kbps     00:20:01.450    28 641 kbps     00:20:01.683    28 191 kbps     00:20:01.483    49 520 bytes    341 215 bytes   00:18:58.887
7               0:21:23.949     0:02:25.211     23 829 kbps     37 174 kbps     00:22:56.274    28 491 kbps     00:21:55.764    26 588 kbps     00:23:27.672    49 694 bytes    343 503 bytes   00:23:32.060
8               0:23:49.161     0:05:36.519     23 686 kbps     38 659 kbps     00:24:22.277    29 757 kbps     00:26:14.172    28 240 kbps     00:26:12.120    49 394 bytes    345 499 bytes   00:26:54.012
9               0:29:25.680     0:03:30.727     24 034 kbps     37 351 kbps     00:31:56.598    29 505 kbps     00:31:56.631    26 562 kbps     00:31:51.626    50 120 bytes    343 875 bytes   00:30:53.701
10              0:32:56.407     0:06:53.713     23 963 kbps     37 786 kbps     00:33:34.328    28 872 kbps     00:36:39.680    27 518 kbps     00:38:25.036    49 973 bytes    345 494 bytes   00:33:23.368
11              0:39:50.121     0:03:25.538     23 636 kbps     39 263 kbps     00:40:39.120    29 669 kbps     00:41:00.958    26 986 kbps     00:41:58.349    49 291 bytes    345 476 bytes   00:40:15.579
12              0:43:15.659     0:04:26.499     23 895 kbps     34 955 kbps     00:46:57.664    29 123 kbps     00:46:53.944    27 581 kbps     00:46:51.859    49 831 bytes    345 192 bytes   00:45:14.962
13              0:47:42.159     0:05:26.676     24 066 kbps     33 266 kbps     00:50:42.406    29 724 kbps     00:52:57.457    27 739 kbps     00:52:56.406    50 189 bytes    345 476 bytes   00:52:10.127
14              0:53:08.835     0:03:43.056     23 442 kbps     32 419 kbps     00:54:12.098    28 079 kbps     00:56:05.812    27 280 kbps     00:56:05.762    48 886 bytes    345 139 bytes   00:55:13.677
15              0:56:51.891     0:04:13.052     24 643 kbps     36 832 kbps     00:59:41.561    30 847 kbps     00:59:41.561    28 541 kbps     00:59:57.844    51 392 bytes    342 012 bytes   00:58:18.027
16              1:01:04.944     0:03:24.921     24 195 kbps     40 748 kbps     01:02:44.510    29 508 kbps     01:01:24.313    26 678 kbps     01:01:19.208    50 460 bytes    340 307 bytes   01:01:13.569
STREAM DIAGNOSTICS:
File            PID             Type            Codec           Language                Seconds                 Bitrate                 Bytes           Packets
----            ---             ----            -----           --------                --------------          --------------          -------------   -----
00114.M2TS      4113 (0x1011)   0x1B            AVC                                     1944,309                22 671                  5 509 838 306   30 012 844
00114.M2TS      4352 (0x1100)   0x86            DTS-HD MA       eng (English)           1944,309                2 494                   606 069 776     3 593 880
00114.M2TS      4353 (0x1101)   0x86            DTS-HD MA       deu (German)            1944,309                2 461                   598 071 312     3 548 807
00114.M2TS      4608 (0x1200)   0x90            PGS             eng (English)           1944,309                0                       0               0
00114.M2TS      4609 (0x1201)   0x90            PGS             deu (German)            1944,309                2                       450 768         2 675
00117.M2TS      4113 (0x1011)   0x1B            AVC                                     1925,490                24 010                  5 778 775 028   31 473 835
00117.M2TS      4352 (0x1100)   0x86            DTS-HD MA       eng (English)           1925,490                2 545                   612 598 436     3 621 027
00117.M2TS      4353 (0x1101)   0x86            DTS-HD MA       deu (German)            1925,490                2 495                   600 489 148     3 561 293
00117.M2TS      4608 (0x1200)   0x90            PGS             eng (English)           1925,490                0                       0               0
00117.M2TS      4609 (0x1201)   0x90            PGS             deu (German)            1925,490                1                       219 217         1 300
<---- END FORUMS PASTE ---->
QUICK SUMMARY:
Disc Title: OFFICIAL_2010_FIFA_3D
Disc Size: 24 868 627 870 bytes
Protection: AACS
BD-Java: Yes
Playlist: 00007.MPLS
Size: 14 581 487 616 bytes
Length: 1:04:29
Total Bitrate: 30,14 Mbps
Video: MPEG-4 AVC Video / 23336 kbps / 720p / 59,940 fps / 16:9 / High Profile 4.1
Audio: English / DTS-HD Master Audio / 5.1 / 48 kHz / 2519 kbps / 24-bit (DTS Core: 5.1 / 48 kHz / 1509 kbps / 24-bit)
Audio: German / DTS-HD Master Audio / 5.1 / 48 kHz / 2478 kbps / 24-bit (DTS Core: 5.1 / 48 kHz / 1509 kbps / 24-bit)
Subtitle: English / 0,000 kbps
Subtitle: German / 1,385 kbps
********************
PLAYLIST: 00009.MPLS
********************
<--- BEGIN FORUMS PASTE --->
Код:
Total   Video
Title                                                           Codec   Length  Movie Size      Disc Size       Bitrate Bitrate Main Audio Track                          Secondary Audio Track
-----                                                           ------  ------- --------------  --------------  ------- ------- ------------------                        ---------------------
00009.MPLS                                                      AVC     0:32:24 7 146 878 976   24 868 627 870  29,41   22,67   DTS-HD Master 5.1 2494Kbps (48kHz/24-bit)
Код:
DISC INFO:
Disc Title:     OFFICIAL_2010_FIFA_3D
Disc Size:      24 868 627 870 bytes
Protection:     AACS
BD-Java:        Yes
Extras:         Blu-ray 3D
BDInfo:         0.5.6
PLAYLIST REPORT:
Name:                   00009.MPLS
Length:                 0:32:24 (h:m:s)
Size:                   7 146 878 976 bytes
Total Bitrate:          29,41 Mbps
VIDEO:
Codec                   Bitrate             Description
-----                   -------             -----------
MPEG-4 AVC Video        22670 kbps          720p / 59,940 fps / 16:9 / High Profile 4.1
AUDIO:
Codec                           Language        Bitrate         Description
-----                           --------        -------         -----------
DTS-HD Master Audio             English         2494 kbps       5.1 / 48 kHz / 2494 kbps / 24-bit (DTS Core: 5.1 / 48 kHz / 1509 kbps / 24-bit)
DTS-HD Master Audio             German          2461 kbps       5.1 / 48 kHz / 2461 kbps / 24-bit (DTS Core: 5.1 / 48 kHz / 1509 kbps / 24-bit)
SUBTITLES:
Codec                           Language        Bitrate         Description
-----                           --------        -------         -----------
Presentation Graphics           English         0,000 kbps
Presentation Graphics           German          1,855 kbps
FILES:
Name            Time In         Length          Size            Total Bitrate
----            -------         ------          ----            -------------
00114.M2TS      0:00:00.000     0:32:24.342     7 146 878 976   29 406
CHAPTERS:
Number          Time In         Length          Avg Video Rate  Max 1-Sec Rate  Max 1-Sec Time  Max 5-Sec Rate  Max 5-Sec Time  Max 10Sec Rate  Max 10Sec Time  Avg Frame Size  Max Frame Size  Max Frame Time
------          -------         ------          --------------  --------------  --------------  --------------  --------------  --------------  --------------  --------------  --------------  --------------
1               0:00:00.000     0:32:24.342     22 670 kbps     51 796 kbps     00:02:07.443    32 112 kbps     00:00:16.566    29 790 kbps     00:00:27.894    47 277 bytes    345 726 bytes   00:04:06.879
STREAM DIAGNOSTICS:
File            PID             Type            Codec           Language                Seconds                 Bitrate                 Bytes           Packets
----            ---             ----            -----           --------                --------------          --------------          -------------   -----
00114.M2TS      4113 (0x1011)   0x1B            AVC                                     1944,309                22 671                  5 509 838 306   30 012 844
00114.M2TS      4352 (0x1100)   0x86            DTS-HD MA       eng (English)           1944,309                2 494                   606 069 776     3 593 880
00114.M2TS      4353 (0x1101)   0x86            DTS-HD MA       deu (German)            1944,309                2 461                   598 071 312     3 548 807
00114.M2TS      4608 (0x1200)   0x90            PGS             eng (English)           1944,309                0                       0               0
00114.M2TS      4609 (0x1201)   0x90            PGS             deu (German)            1944,309                2                       450 768         2 675
<---- END FORUMS PASTE ---->
QUICK SUMMARY:
Disc Title: OFFICIAL_2010_FIFA_3D
Disc Size: 24 868 627 870 bytes
Protection: AACS
BD-Java: Yes
Playlist: 00009.MPLS
Size: 7 146 878 976 bytes
Length: 0:32:24
Total Bitrate: 29,41 Mbps
Video: MPEG-4 AVC Video / 22670 kbps / 720p / 59,940 fps / 16:9 / High Profile 4.1
Audio: English / DTS-HD Master Audio / 5.1 / 48 kHz / 2494 kbps / 24-bit (DTS Core: 5.1 / 48 kHz / 1509 kbps / 24-bit)
Audio: German / DTS-HD Master Audio / 5.1 / 48 kHz / 2461 kbps / 24-bit (DTS Core: 5.1 / 48 kHz / 1509 kbps / 24-bit)
Subtitle: English / 0,000 kbps
Subtitle: German / 1,855 kbps
********************
PLAYLIST: 00010.MPLS
********************
<--- BEGIN FORUMS PASTE --->
Код:
Total   Video
Title                                                           Codec   Length  Movie Size      Disc Size       Bitrate Bitrate Main Audio Track                          Secondary Audio Track
-----                                                           ------  ------- --------------  --------------  ------- ------- ------------------                        ---------------------
00010.MPLS                                                      AVC     0:32:05 7 434 608 640   24 868 627 870  30,89   24,01   DTS-HD Master 5.1 2545Kbps (48kHz/24-bit)
Код:
DISC INFO:
Disc Title:     OFFICIAL_2010_FIFA_3D
Disc Size:      24 868 627 870 bytes
Protection:     AACS
BD-Java:        Yes
Extras:         Blu-ray 3D
BDInfo:         0.5.6
PLAYLIST REPORT:
Name:                   00010.MPLS
Length:                 0:32:05 (h:m:s)
Size:                   7 434 608 640 bytes
Total Bitrate:          30,89 Mbps
VIDEO:
Codec                   Bitrate             Description
-----                   -------             -----------
MPEG-4 AVC Video        24009 kbps          720p / 59,940 fps / 16:9 / High Profile 4.1
AUDIO:
Codec                           Language        Bitrate         Description
-----                           --------        -------         -----------
DTS-HD Master Audio             English         2545 kbps       5.1 / 48 kHz / 2545 kbps / 24-bit (DTS Core: 5.1 / 48 kHz / 1509 kbps / 24-bit)
DTS-HD Master Audio             German          2495 kbps       5.1 / 48 kHz / 2495 kbps / 24-bit (DTS Core: 5.1 / 48 kHz / 1509 kbps / 24-bit)
SUBTITLES:
Codec                           Language        Bitrate         Description
-----                           --------        -------         -----------
Presentation Graphics           English         0,000 kbps
Presentation Graphics           German          0,911 kbps
FILES:
Name            Time In         Length          Size            Total Bitrate
----            -------         ------          ----            -------------
00117.M2TS      0:00:00.000     0:32:05.523     7 434 608 640   30 889
CHAPTERS:
Number          Time In         Length          Avg Video Rate  Max 1-Sec Rate  Max 1-Sec Time  Max 5-Sec Rate  Max 5-Sec Time  Max 10Sec Rate  Max 10Sec Time  Avg Frame Size  Max Frame Size  Max Frame Time
------          -------         ------          --------------  --------------  --------------  --------------  --------------  --------------  --------------  --------------  --------------  --------------
1               0:00:00.000     0:32:05.523     24 009 kbps     40 748 kbps     00:30:20.168    30 847 kbps     00:27:17.218    28 541 kbps     00:27:33.501    50 069 bytes    345 494 bytes   00:00:59.025
STREAM DIAGNOSTICS:
File            PID             Type            Codec           Language                Seconds                 Bitrate                 Bytes           Packets
----            ---             ----            -----           --------                --------------          --------------          -------------   -----
00117.M2TS      4113 (0x1011)   0x1B            AVC                                     1925,490                24 010                  5 778 775 028   31 473 835
00117.M2TS      4352 (0x1100)   0x86            DTS-HD MA       eng (English)           1925,490                2 545                   612 598 436     3 621 027
00117.M2TS      4353 (0x1101)   0x86            DTS-HD MA       deu (German)            1925,490                2 495                   600 489 148     3 561 293
00117.M2TS      4608 (0x1200)   0x90            PGS             eng (English)           1925,490                0                       0               0
00117.M2TS      4609 (0x1201)   0x90            PGS             deu (German)            1925,490                1                       219 217         1 300
<---- END FORUMS PASTE ---->
QUICK SUMMARY:
Disc Title: OFFICIAL_2010_FIFA_3D
Disc Size: 24 868 627 870 bytes
Protection: AACS
BD-Java: Yes
Playlist: 00010.MPLS
Size: 7 434 608 640 bytes
Length: 0:32:05
Total Bitrate: 30,89 Mbps
Video: MPEG-4 AVC Video / 24009 kbps / 720p / 59,940 fps / 16:9 / High Profile 4.1
Audio: English / DTS-HD Master Audio / 5.1 / 48 kHz / 2545 kbps / 24-bit (DTS Core: 5.1 / 48 kHz / 1509 kbps / 24-bit)
Audio: German / DTS-HD Master Audio / 5.1 / 48 kHz / 2495 kbps / 24-bit (DTS Core: 5.1 / 48 kHz / 1509 kbps / 24-bit)
Subtitle: English / 0,000 kbps
Subtitle: German / 0,911 kbps
********************
PLAYLIST: 00002.MPLS
********************
<--- BEGIN FORUMS PASTE --->
Код:
Total   Video
Title                                                           Codec   Length  Movie Size      Disc Size       Bitrate Bitrate Main Audio Track                          Secondary Audio Track
-----                                                           ------  ------- --------------  --------------  ------- ------- ------------------                        ---------------------
00002.MPLS                                                      AVC     0:01:32 304 416 768     24 868 627 870  26,35   24,49   DD AC3 5.1 640Kbps
Код:
DISC INFO:
Disc Title:     OFFICIAL_2010_FIFA_3D
Disc Size:      24 868 627 870 bytes
Protection:     AACS
BD-Java:        Yes
Extras:         Blu-ray 3D
BDInfo:         0.5.6
PLAYLIST REPORT:
Name:                   00002.MPLS
Length:                 0:01:32 (h:m:s)
Size:                   304 416 768 bytes
Total Bitrate:          26,35 Mbps
VIDEO:
Codec                   Bitrate             Description
-----                   -------             -----------
MPEG-4 AVC Video        24491 kbps          1080p / 23,976 fps / 16:9 / High Profile 4.1
AUDIO:
Codec                           Language        Bitrate         Description
-----                           --------        -------         -----------
Dolby Digital Audio             English         640 kbps        5.1 / 48 kHz / 640 kbps
FILES:
Name            Time In         Length          Size            Total Bitrate
----            -------         ------          ----            -------------
00105.M2TS      0:00:00.000     0:01:32.425     304 416 768     26 349
CHAPTERS:
Number          Time In         Length          Avg Video Rate  Max 1-Sec Rate  Max 1-Sec Time  Max 5-Sec Rate  Max 5-Sec Time  Max 10Sec Rate  Max 10Sec Time  Avg Frame Size  Max Frame Size  Max Frame Time
------          -------         ------          --------------  --------------  --------------  --------------  --------------  --------------  --------------  --------------  --------------  --------------
1               0:00:00.000     0:01:32.425     24 491 kbps     37 274 kbps     00:00:44.669    32 074 kbps     00:00:42.876    28 080 kbps     00:00:37.871    127 682 bytes   617 475 bytes   00:01:27.754
STREAM DIAGNOSTICS:
File            PID             Type            Codec           Language                Seconds                 Bitrate                 Bytes           Packets
----            ---             ----            -----           --------                --------------          --------------          -------------   -----
00105.M2TS      4113 (0x1011)   0x1B            AVC                                     92,342                  24 513                  282 944 394     1 539 044
00105.M2TS      4352 (0x1100)   0x81            AC3             eng (English)           92,342                  641                     7 395 840       43 335
<---- END FORUMS PASTE ---->
QUICK SUMMARY:
Disc Title: OFFICIAL_2010_FIFA_3D
Disc Size: 24 868 627 870 bytes
Protection: AACS
BD-Java: Yes
Playlist: 00002.MPLS
Size: 304 416 768 bytes
Length: 0:01:32
Total Bitrate: 26,35 Mbps
Video: MPEG-4 AVC Video / 24491 kbps / 1080p / 23,976 fps / 16:9 / High Profile 4.1
Audio: English / Dolby Digital Audio / 5.1 / 48 kHz / 640 kbps
********************
PLAYLIST: 00300.MPLS
********************
<--- BEGIN FORUMS PASTE --->
Код:
Total   Video
Title                                                           Codec   Length  Movie Size      Disc Size       Bitrate Bitrate Main Audio Track                          Secondary Audio Track
-----                                                           ------  ------- --------------  --------------  ------- ------- ------------------                        ---------------------
00300.MPLS                                                      AVC     0:01:32 304 416 768     24 868 627 870  26,35   24,49   DD AC3 5.1 640Kbps
Код:
DISC INFO:
Disc Title:     OFFICIAL_2010_FIFA_3D
Disc Size:      24 868 627 870 bytes
Protection:     AACS
BD-Java:        Yes
Extras:         Blu-ray 3D
BDInfo:         0.5.6
PLAYLIST REPORT:
Name:                   00300.MPLS
Length:                 0:01:32 (h:m:s)
Size:                   304 416 768 bytes
Total Bitrate:          26,35 Mbps
VIDEO:
Codec                   Bitrate             Description
-----                   -------             -----------
MPEG-4 AVC Video        24491 kbps          1080p / 23,976 fps / 16:9 / High Profile 4.1
AUDIO:
Codec                           Language        Bitrate         Description
-----                           --------        -------         -----------
Dolby Digital Audio             English         640 kbps        5.1 / 48 kHz / 640 kbps
FILES:
Name            Time In         Length          Size            Total Bitrate
----            -------         ------          ----            -------------
00105.M2TS      0:00:00.000     0:01:32.425     304 416 768     26 349
CHAPTERS:
Number          Time In         Length          Avg Video Rate  Max 1-Sec Rate  Max 1-Sec Time  Max 5-Sec Rate  Max 5-Sec Time  Max 10Sec Rate  Max 10Sec Time  Avg Frame Size  Max Frame Size  Max Frame Time
------          -------         ------          --------------  --------------  --------------  --------------  --------------  --------------  --------------  --------------  --------------  --------------
1               0:00:00.000     0:01:32.425     24 491 kbps     37 274 kbps     00:00:44.669    32 074 kbps     00:00:42.876    28 080 kbps     00:00:37.871    127 682 bytes   617 475 bytes   00:01:27.754
STREAM DIAGNOSTICS:
File            PID             Type            Codec           Language                Seconds                 Bitrate                 Bytes           Packets
----            ---             ----            -----           --------                --------------          --------------          -------------   -----
00105.M2TS      4113 (0x1011)   0x1B            AVC                                     92,342                  24 513                  282 944 394     1 539 044
00105.M2TS      4352 (0x1100)   0x81            AC3             eng (English)           92,342                  641                     7 395 840       43 335
<---- END FORUMS PASTE ---->
QUICK SUMMARY:
Disc Title: OFFICIAL_2010_FIFA_3D
Disc Size: 24 868 627 870 bytes
Protection: AACS
BD-Java: Yes
Playlist: 00300.MPLS
Size: 304 416 768 bytes
Length: 0:01:32
Total Bitrate: 26,35 Mbps
Video: MPEG-4 AVC Video / 24491 kbps / 1080p / 23,976 fps / 16:9 / High Profile 4.1
Audio: English / Dolby Digital Audio / 5.1 / 48 kHz / 640 kbps
********************
PLAYLIST: 00003.MPLS
********************
<--- BEGIN FORUMS PASTE --->
Код:
Total   Video
Title                                                           Codec   Length  Movie Size      Disc Size       Bitrate Bitrate Main Audio Track                          Secondary Audio Track
-----                                                           ------  ------- --------------  --------------  ------- ------- ------------------                        ---------------------
00003.MPLS                                                      AVC     0:01:29 283 103 232     24 868 627 870  25,23   23,42   DD AC3 5.1 640Kbps
Код:
DISC INFO:
Disc Title:     OFFICIAL_2010_FIFA_3D
Disc Size:      24 868 627 870 bytes
Protection:     AACS
BD-Java:        Yes
Extras:         Blu-ray 3D
BDInfo:         0.5.6
PLAYLIST REPORT:
Name:                   00003.MPLS
Length:                 0:01:29 (h:m:s)
Size:                   283 103 232 bytes
Total Bitrate:          25,23 Mbps
VIDEO:
Codec                   Bitrate             Description
-----                   -------             -----------
MPEG-4 AVC Video        23421 kbps          1080p / 23,976 fps / 16:9 / High Profile 4.1
AUDIO:
Codec                           Language        Bitrate         Description
-----                           --------        -------         -----------
Dolby Digital Audio             English         640 kbps        5.1 / 48 kHz / 640 kbps
FILES:
Name            Time In         Length          Size            Total Bitrate
----            -------         ------          ----            -------------
00107.M2TS      0:00:00.000     0:01:29.756     283 103 232     25 233
CHAPTERS:
Number          Time In         Length          Avg Video Rate  Max 1-Sec Rate  Max 1-Sec Time  Max 5-Sec Rate  Max 5-Sec Time  Max 10Sec Rate  Max 10Sec Time  Avg Frame Size  Max Frame Size  Max Frame Time
------          -------         ------          --------------  --------------  --------------  --------------  --------------  --------------  --------------  --------------  --------------  --------------
1               0:00:00.000     0:01:29.756     23 421 kbps     39 751 kbps     00:00:01.001    29 354 kbps     00:00:54.262    27 575 kbps     00:00:34.409    122 107 bytes   783 301 bytes   00:00:16.141
STREAM DIAGNOSTICS:
File            PID             Type            Codec           Language                Seconds                 Bitrate                 Bytes           Packets
----            ---             ----            -----           --------                --------------          --------------          -------------   -----
00107.M2TS      4113 (0x1011)   0x1B            AVC                                     89,673                  23 443                  262 775 183     1 429 367
00107.M2TS      4352 (0x1100)   0x81            AC3             eng (English)           89,673                  641                     7 180 800       42 075
<---- END FORUMS PASTE ---->
QUICK SUMMARY:
Disc Title: OFFICIAL_2010_FIFA_3D
Disc Size: 24 868 627 870 bytes
Protection: AACS
BD-Java: Yes
Playlist: 00003.MPLS
Size: 283 103 232 bytes
Length: 0:01:29
Total Bitrate: 25,23 Mbps
Video: MPEG-4 AVC Video / 23421 kbps / 1080p / 23,976 fps / 16:9 / High Profile 4.1
Audio: English / Dolby Digital Audio / 5.1 / 48 kHz / 640 kbps
********************
PLAYLIST: 00301.MPLS
********************
<--- BEGIN FORUMS PASTE --->
Код:
Total   Video
Title                                                           Codec   Length  Movie Size      Disc Size       Bitrate Bitrate Main Audio Track                          Secondary Audio Track
-----                                                           ------  ------- --------------  --------------  ------- ------- ------------------                        ---------------------
00301.MPLS                                                      AVC     0:01:29 283 103 232     24 868 627 870  25,23   23,42   DD AC3 5.1 640Kbps
Код:
DISC INFO:
Disc Title:     OFFICIAL_2010_FIFA_3D
Disc Size:      24 868 627 870 bytes
Protection:     AACS
BD-Java:        Yes
Extras:         Blu-ray 3D
BDInfo:         0.5.6
PLAYLIST REPORT:
Name:                   00301.MPLS
Length:                 0:01:29 (h:m:s)
Size:                   283 103 232 bytes
Total Bitrate:          25,23 Mbps
VIDEO:
Codec                   Bitrate             Description
-----                   -------             -----------
MPEG-4 AVC Video        23421 kbps          1080p / 23,976 fps / 16:9 / High Profile 4.1
AUDIO:
Codec                           Language        Bitrate         Description
-----                           --------        -------         -----------
Dolby Digital Audio             English         640 kbps        5.1 / 48 kHz / 640 kbps
FILES:
Name            Time In         Length          Size            Total Bitrate
----            -------         ------          ----            -------------
00107.M2TS      0:00:00.000     0:01:29.756     283 103 232     25 233
CHAPTERS:
Number          Time In         Length          Avg Video Rate  Max 1-Sec Rate  Max 1-Sec Time  Max 5-Sec Rate  Max 5-Sec Time  Max 10Sec Rate  Max 10Sec Time  Avg Frame Size  Max Frame Size  Max Frame Time
------          -------         ------          --------------  --------------  --------------  --------------  --------------  --------------  --------------  --------------  --------------  --------------
1               0:00:00.000     0:01:29.756     23 421 kbps     39 751 kbps     00:00:01.001    29 354 kbps     00:00:54.262    27 575 kbps     00:00:34.409    122 107 bytes   783 301 bytes   00:00:16.141
STREAM DIAGNOSTICS:
File            PID             Type            Codec           Language                Seconds                 Bitrate                 Bytes           Packets
----            ---             ----            -----           --------                --------------          --------------          -------------   -----
00107.M2TS      4113 (0x1011)   0x1B            AVC                                     89,673                  23 443                  262 775 183     1 429 367
00107.M2TS      4352 (0x1100)   0x81            AC3             eng (English)           89,673                  641                     7 180 800       42 075
<---- END FORUMS PASTE ---->
QUICK SUMMARY:
Disc Title: OFFICIAL_2010_FIFA_3D
Disc Size: 24 868 627 870 bytes
Protection: AACS
BD-Java: Yes
Playlist: 00301.MPLS
Size: 283 103 232 bytes
Length: 0:01:29
Total Bitrate: 25,23 Mbps
Video: MPEG-4 AVC Video / 23421 kbps / 1080p / 23,976 fps / 16:9 / High Profile 4.1
Audio: English / Dolby Digital Audio / 5.1 / 48 kHz / 640 kbps
********************
PLAYLIST: 00102.MPLS
********************
<--- BEGIN FORUMS PASTE --->
Код:
Total   Video
Title                                                           Codec   Length  Movie Size      Disc Size       Bitrate Bitrate Main Audio Track                          Secondary Audio Track
-----                                                           ------  ------- --------------  --------------  ------- ------- ------------------                        ---------------------
00102.MPLS                                                      MPEG-2  0:01:00 118 216 704     24 868 627 870  15,75   15,01
Код:
DISC INFO:
Disc Title:     OFFICIAL_2010_FIFA_3D
Disc Size:      24 868 627 870 bytes
Protection:     AACS
BD-Java:        Yes
Extras:         Blu-ray 3D
BDInfo:         0.5.6
PLAYLIST REPORT:
Name:                   00102.MPLS
Length:                 0:01:00 (h:m:s)
Size:                   118 216 704 bytes
Total Bitrate:          15,75 Mbps
VIDEO:
Codec                   Bitrate             Description
-----                   -------             -----------
MPEG-2 Video            15013 kbps          1080p / 23,976 fps / 16:9
FILES:
Name            Time In         Length          Size            Total Bitrate
----            -------         ------          ----            -------------
00081.M2TS      0:00:00.000     0:01:00.060     118 216 704     15 746
CHAPTERS:
Number          Time In         Length          Avg Video Rate  Max 1-Sec Rate  Max 1-Sec Time  Max 5-Sec Rate  Max 5-Sec Time  Max 10Sec Rate  Max 10Sec Time  Avg Frame Size  Max Frame Size  Max Frame Time
------          -------         ------          --------------  --------------  --------------  --------------  --------------  --------------  --------------  --------------  --------------  --------------
1               0:00:00.000     0:00:15.015     15 272 kbps     19 624 kbps     00:00:13.930    15 925 kbps     00:00:09.926    15 462 kbps     00:00:04.921    79 401 bytes    663 627 bytes   00:00:14.931
2               0:00:15.015     0:00:15.015     14 775 kbps     15 185 kbps     00:00:16.433    15 033 kbps     00:00:16.433    15 017 kbps     00:00:16.433    77 031 bytes    674 417 bytes   00:00:15.432
3               0:00:30.030     0:00:15.015     15 005 kbps     15 922 kbps     00:00:43.960    15 184 kbps     00:00:39.956    15 092 kbps     00:00:34.951    78 232 bytes    253 660 bytes   00:00:44.961
4               0:00:45.045     0:00:15.015     15 001 kbps     15 033 kbps     00:00:45.045    15 007 kbps     00:00:45.045    15 003 kbps     00:00:45.045    78 424 bytes    253 660 bytes   00:00:45.462
STREAM DIAGNOSTICS:
File            PID             Type            Codec           Language                Seconds                 Bitrate                 Bytes           Packets
----            ---             ----            -----           --------                --------------          --------------          -------------   -----
00081.M2TS      4113 (0x1011)   0x02            MPEG-2                                  59,935                  15 045                  112 712 665     613 678
<---- END FORUMS PASTE ---->
QUICK SUMMARY:
Disc Title: OFFICIAL_2010_FIFA_3D
Disc Size: 24 868 627 870 bytes
Protection: AACS
BD-Java: Yes
Playlist: 00102.MPLS
Size: 118 216 704 bytes
Length: 0:01:00
Total Bitrate: 15,75 Mbps
Video: MPEG-2 Video / 15013 kbps / 1080p / 23,976 fps / 16:9
********************
PLAYLIST: 00098.MPLS
********************
<--- BEGIN FORUMS PASTE --->
Код:
Total   Video
Title                                                           Codec   Length  Movie Size      Disc Size       Bitrate Bitrate Main Audio Track                          Secondary Audio Track
-----                                                           ------  ------- --------------  --------------  ------- ------- ------------------                        ---------------------
00098.MPLS                                                      MPEG-2  0:00:56 227 610 624     24 868 627 870  32,24   21,41   LPCM 5.1 4608Kbps (48kHz/16-bit)          LPCM 5.1 4608Kbps (48kHz/16-bit)
Код:
DISC INFO:
Disc Title:     OFFICIAL_2010_FIFA_3D
Disc Size:      24 868 627 870 bytes
Protection:     AACS
BD-Java:        Yes
Extras:         Blu-ray 3D
BDInfo:         0.5.6
PLAYLIST REPORT:
Name:                   00098.MPLS
Length:                 0:00:56 (h:m:s)
Size:                   227 610 624 bytes
Total Bitrate:          32,24 Mbps
VIDEO:
Codec                   Bitrate             Description
-----                   -------             -----------
MPEG-2 Video            21409 kbps          1080p / 23,976 fps / 16:9
AUDIO:
Codec                           Language        Bitrate         Description
-----                           --------        -------         -----------
LPCM Audio                      English         4608 kbps       5.1 / 48 kHz / 4608 kbps / 16-bit
LPCM Audio                      English         4608 kbps       5.1 / 48 kHz / 4608 kbps / 16-bit
SUBTITLES:
Codec                           Language        Bitrate         Description
-----                           --------        -------         -----------
Presentation Graphics           English         0,010 kbps
Presentation Graphics           English         0,010 kbps
FILES:
Name            Time In         Length          Size            Total Bitrate
----            -------         ------          ----            -------------
00022.M2TS      0:00:00.000     0:00:56.473     227 610 624     32 243
CHAPTERS:
Number          Time In         Length          Avg Video Rate  Max 1-Sec Rate  Max 1-Sec Time  Max 5-Sec Rate  Max 5-Sec Time  Max 10Sec Rate  Max 10Sec Time  Avg Frame Size  Max Frame Size  Max Frame Time
------          -------         ------          --------------  --------------  --------------  --------------  --------------  --------------  --------------  --------------  --------------  --------------
1               0:00:00.000     0:00:56.473     21 409 kbps     30 124 kbps     00:00:24.023    25 357 kbps     00:00:47.714    23 353 kbps     00:00:45.754    111 615 bytes   343 711 bytes   00:00:48.548
STREAM DIAGNOSTICS:
File            PID             Type            Codec           Language                Seconds                 Bitrate                 Bytes           Packets
----            ---             ----            -----           --------                --------------          --------------          -------------   -----
00022.M2TS      4113 (0x1011)   0x02            MPEG-2                                  56,390                  21 440                  151 126 460     822 123
00022.M2TS      4352 (0x1100)   0x80            LPCM            eng (English)           56,390                  4 621                   32 574 780      180 720
00022.M2TS      4353 (0x1101)   0x80            LPCM            eng (English)           56,390                  4 621                   32 574 780      180 720
00022.M2TS      4608 (0x1200)   0x90            PGS             eng (English)           56,390                  0                       70              7
00022.M2TS      4609 (0x1201)   0x90            PGS             eng (English)           56,390                  0                       70              7
<---- END FORUMS PASTE ---->
QUICK SUMMARY:
Disc Title: OFFICIAL_2010_FIFA_3D
Disc Size: 24 868 627 870 bytes
Protection: AACS
BD-Java: Yes
Playlist: 00098.MPLS
Size: 227 610 624 bytes
Length: 0:00:56
Total Bitrate: 32,24 Mbps
Video: MPEG-2 Video / 21409 kbps / 1080p / 23,976 fps / 16:9
Audio: English / LPCM Audio / 5.1 / 48 kHz / 4608 kbps / 16-bit
Audio: English / LPCM Audio / 5.1 / 48 kHz / 4608 kbps / 16-bit
Subtitle: English / 0,010 kbps
Subtitle: English / 0,010 kbps
********************
PLAYLIST: 00116.MPLS
********************
<--- BEGIN FORUMS PASTE --->
Код:
Total   Video
Title                                                           Codec   Length  Movie Size      Disc Size       Bitrate Bitrate Main Audio Track                          Secondary Audio Track
-----                                                           ------  ------- --------------  --------------  ------- ------- ------------------                        ---------------------
00116.MPLS                                                      MPEG-2  0:00:42 126 824 448     24 868 627 870  24,04   22,73   DD AC3 2.0 192Kbps
Код:
DISC INFO:
Disc Title:     OFFICIAL_2010_FIFA_3D
Disc Size:      24 868 627 870 bytes
Protection:     AACS
BD-Java:        Yes
Extras:         Blu-ray 3D
BDInfo:         0.5.6
PLAYLIST REPORT:
Name:                   00116.MPLS
Length:                 0:00:42 (h:m:s)
Size:                   126 824 448 bytes
Total Bitrate:          24,04 Mbps
VIDEO:
Codec                   Bitrate             Description
-----                   -------             -----------
MPEG-2 Video            22735 kbps          1080p / 23,976 fps / 16:9
AUDIO:
Codec                           Language        Bitrate         Description
-----                           --------        -------         -----------
Dolby Digital Audio             English         192 kbps        2.0 / 48 kHz / 192 kbps / DN -14dB
FILES:
Name            Time In         Length          Size            Total Bitrate
----            -------         ------          ----            -------------
00104.M2TS      0:00:00.000     0:00:42.208     126 824 448     24 038
CHAPTERS:
Number          Time In         Length          Avg Video Rate  Max 1-Sec Rate  Max 1-Sec Time  Max 5-Sec Rate  Max 5-Sec Time  Max 10Sec Rate  Max 10Sec Time  Avg Frame Size  Max Frame Size  Max Frame Time
------          -------         ------          --------------  --------------  --------------  --------------  --------------  --------------  --------------  --------------  --------------  --------------
1               0:00:00.000     0:00:42.208     22 735 kbps     32 926 kbps     00:00:24.607    28 427 kbps     00:00:23.606    26 216 kbps     00:00:01.292    118 528 bytes   657 476 bytes   00:00:00.417
STREAM DIAGNOSTICS:
File            PID             Type            Codec           Language                Seconds                 Bitrate                 Bytes           Packets
----            ---             ----            -----           --------                --------------          --------------          -------------   -----
00104.M2TS      4113 (0x1011)   0x02            MPEG-2                                  42,125                  22 780                  119 950 540     652 517
00104.M2TS      4352 (0x1100)   0x81            AC3             eng (English)           42,125                  193                     1 013 760       6 600
<---- END FORUMS PASTE ---->
QUICK SUMMARY:
Disc Title: OFFICIAL_2010_FIFA_3D
Disc Size: 24 868 627 870 bytes
Protection: AACS
BD-Java: Yes
Playlist: 00116.MPLS
Size: 126 824 448 bytes
Length: 0:00:42
Total Bitrate: 24,04 Mbps
Video: MPEG-2 Video / 22735 kbps / 1080p / 23,976 fps / 16:9
Audio: English / Dolby Digital Audio / 2.0 / 48 kHz / 192 kbps / DN -14dB
********************
PLAYLIST: 00129.MPLS
********************
<--- BEGIN FORUMS PASTE --->
Код:
Total   Video
Title                                                           Codec   Length  Movie Size      Disc Size       Bitrate Bitrate Main Audio Track                          Secondary Audio Track
-----                                                           ------  ------- --------------  --------------  ------- ------- ------------------                        ---------------------
00129.MPLS                                                      MPEG-2  0:00:42 126 824 448     24 868 627 870  24,04   22,73   DD AC3 2.0 192Kbps
Код:
DISC INFO:
Disc Title:     OFFICIAL_2010_FIFA_3D
Disc Size:      24 868 627 870 bytes
Protection:     AACS
BD-Java:        Yes
Extras:         Blu-ray 3D
BDInfo:         0.5.6
PLAYLIST REPORT:
Name:                   00129.MPLS
Length:                 0:00:42 (h:m:s)
Size:                   126 824 448 bytes
Total Bitrate:          24,04 Mbps
VIDEO:
Codec                   Bitrate             Description
-----                   -------             -----------
MPEG-2 Video            22735 kbps          1080p / 23,976 fps / 16:9
AUDIO:
Codec                           Language        Bitrate         Description
-----                           --------        -------         -----------
Dolby Digital Audio             English         192 kbps        2.0 / 48 kHz / 192 kbps / DN -14dB
FILES:
Name            Time In         Length          Size            Total Bitrate
----            -------         ------          ----            -------------
00104.M2TS      0:00:00.000     0:00:42.208     126 824 448     24 038
CHAPTERS:
Number          Time In         Length          Avg Video Rate  Max 1-Sec Rate  Max 1-Sec Time  Max 5-Sec Rate  Max 5-Sec Time  Max 10Sec Rate  Max 10Sec Time  Avg Frame Size  Max Frame Size  Max Frame Time
------          -------         ------          --------------  --------------  --------------  --------------  --------------  --------------  --------------  --------------  --------------  --------------
1               0:00:00.000     0:00:42.208     22 735 kbps     32 926 kbps     00:00:24.607    28 427 kbps     00:00:23.606    26 216 kbps     00:00:01.292    118 528 bytes   657 476 bytes   00:00:00.417
STREAM DIAGNOSTICS:
File            PID             Type            Codec           Language                Seconds                 Bitrate                 Bytes           Packets
----            ---             ----            -----           --------                --------------          --------------          -------------   -----
00104.M2TS      4113 (0x1011)   0x02            MPEG-2                                  42,125                  22 780                  119 950 540     652 517
00104.M2TS      4352 (0x1100)   0x81            AC3             eng (English)           42,125                  193                     1 013 760       6 600
<---- END FORUMS PASTE ---->
QUICK SUMMARY:
Disc Title: OFFICIAL_2010_FIFA_3D
Disc Size: 24 868 627 870 bytes
Protection: AACS
BD-Java: Yes
Playlist: 00129.MPLS
Size: 126 824 448 bytes
Length: 0:00:42
Total Bitrate: 24,04 Mbps
Video: MPEG-2 Video / 22735 kbps / 1080p / 23,976 fps / 16:9
Audio: English / Dolby Digital Audio / 2.0 / 48 kHz / 192 kbps / DN -14dB
********************
PLAYLIST: 00208.MPLS
********************
<--- BEGIN FORUMS PASTE --->
Код:
Total   Video
Title                                                           Codec   Length  Movie Size      Disc Size       Bitrate Bitrate Main Audio Track                          Secondary Audio Track
-----                                                           ------  ------- --------------  --------------  ------- ------- ------------------                        ---------------------
00208.MPLS                                                      MPEG-2  0:00:42 125 798 400     24 868 627 870  23,84   22,55   DD AC3 2.0 192Kbps
Код:
DISC INFO:
Disc Title:     OFFICIAL_2010_FIFA_3D
Disc Size:      24 868 627 870 bytes
Protection:     AACS
BD-Java:        Yes
Extras:         Blu-ray 3D
BDInfo:         0.5.6
PLAYLIST REPORT:
Name:                   00208.MPLS
Length:                 0:00:42 (h:m:s)
Size:                   125 798 400 bytes
Total Bitrate:          23,84 Mbps
VIDEO:
Codec                   Bitrate             Description
-----                   -------             -----------
MPEG-2 Video            22548 kbps          1080p / 23,976 fps / 16:9
AUDIO:
Codec                           Language        Bitrate         Description
-----                           --------        -------         -----------
Dolby Digital Audio             English         192 kbps        2.0 / 48 kHz / 192 kbps / DN -14dB
FILES:
Name            Time In         Length          Size            Total Bitrate
----            -------         ------          ----            -------------
00101.M2TS      0:00:00.000     0:00:42.208     125 798 400     23 843
CHAPTERS:
Number          Time In         Length          Avg Video Rate  Max 1-Sec Rate  Max 1-Sec Time  Max 5-Sec Rate  Max 5-Sec Time  Max 10Sec Rate  Max 10Sec Time  Avg Frame Size  Max Frame Size  Max Frame Time
------          -------         ------          --------------  --------------  --------------  --------------  --------------  --------------  --------------  --------------  --------------  --------------
1               0:00:00.000     0:00:42.208     22 548 kbps     33 227 kbps     00:00:24.607    28 788 kbps     00:00:23.606    26 330 kbps     00:00:18.601    117 557 bytes   657 476 bytes   00:00:00.417
STREAM DIAGNOSTICS:
File            PID             Type            Codec           Language                Seconds                 Bitrate                 Bytes           Packets
----            ---             ----            -----           --------                --------------          --------------          -------------   -----
00101.M2TS      4113 (0x1011)   0x02            MPEG-2                                  42,084                  22 615                  118 967 449     647 163
00101.M2TS      4352 (0x1100)   0x81            AC3             eng (English)           42,084                  193                     1 013 760       6 600
<---- END FORUMS PASTE ---->
QUICK SUMMARY:
Disc Title: OFFICIAL_2010_FIFA_3D
Disc Size: 24 868 627 870 bytes
Protection: AACS
BD-Java: Yes
Playlist: 00208.MPLS
Size: 125 798 400 bytes
Length: 0:00:42
Total Bitrate: 23,84 Mbps
Video: MPEG-2 Video / 22548 kbps / 1080p / 23,976 fps / 16:9
Audio: English / Dolby Digital Audio / 2.0 / 48 kHz / 192 kbps / DN -14dB
********************
PLAYLIST: 00209.MPLS
********************
<--- BEGIN FORUMS PASTE --->
Код:
Total   Video
Title                                                           Codec   Length  Movie Size      Disc Size       Bitrate Bitrate Main Audio Track                          Secondary Audio Track
-----                                                           ------  ------- --------------  --------------  ------- ------- ------------------                        ---------------------
00209.MPLS                                                      MPEG-2  0:00:42 125 798 400     24 868 627 870  23,84   22,55   DD AC3 2.0 192Kbps
Код:
DISC INFO:
Disc Title:     OFFICIAL_2010_FIFA_3D
Disc Size:      24 868 627 870 bytes
Protection:     AACS
BD-Java:        Yes
Extras:         Blu-ray 3D
BDInfo:         0.5.6
PLAYLIST REPORT:
Name:                   00209.MPLS
Length:                 0:00:42 (h:m:s)
Size:                   125 798 400 bytes
Total Bitrate:          23,84 Mbps
VIDEO:
Codec                   Bitrate             Description
-----                   -------             -----------
MPEG-2 Video            22548 kbps          1080p / 23,976 fps / 16:9
AUDIO:
Codec                           Language        Bitrate         Description
-----                           --------        -------         -----------
Dolby Digital Audio             English         192 kbps        2.0 / 48 kHz / 192 kbps / DN -14dB
FILES:
Name            Time In         Length          Size            Total Bitrate
----            -------         ------          ----            -------------
00101.M2TS      0:00:00.000     0:00:42.208     125 798 400     23 843
CHAPTERS:
Number          Time In         Length          Avg Video Rate  Max 1-Sec Rate  Max 1-Sec Time  Max 5-Sec Rate  Max 5-Sec Time  Max 10Sec Rate  Max 10Sec Time  Avg Frame Size  Max Frame Size  Max Frame Time
------          -------         ------          --------------  --------------  --------------  --------------  --------------  --------------  --------------  --------------  --------------  --------------
1               0:00:00.000     0:00:42.208     22 548 kbps     33 227 kbps     00:00:24.607    28 788 kbps     00:00:23.606    26 330 kbps     00:00:18.601    117 557 bytes   657 476 bytes   00:00:00.417
STREAM DIAGNOSTICS:
File            PID             Type            Codec           Language                Seconds                 Bitrate                 Bytes           Packets
----            ---             ----            -----           --------                --------------          --------------          -------------   -----
00101.M2TS      4113 (0x1011)   0x02            MPEG-2                                  42,084                  22 615                  118 967 449     647 163
00101.M2TS      4352 (0x1100)   0x81            AC3             eng (English)           42,084                  193                     1 013 760       6 600
<---- END FORUMS PASTE ---->
QUICK SUMMARY:
Disc Title: OFFICIAL_2010_FIFA_3D
Disc Size: 24 868 627 870 bytes
Protection: AACS
BD-Java: Yes
Playlist: 00209.MPLS
Size: 125 798 400 bytes
Length: 0:00:42
Total Bitrate: 23,84 Mbps
Video: MPEG-2 Video / 22548 kbps / 1080p / 23,976 fps / 16:9
Audio: English / Dolby Digital Audio / 2.0 / 48 kHz / 192 kbps / DN -14dB
Скриншоты меню
Скриншоты
тематические ссылки: Обсуждение 3Д фильмов Обсуждение "Как и на чем смотреть 3Д"
Зарегистрирован:
  • 19-Ноя-10 09:05
  • Скачан: 2,648 раз

Скачать .torrent

116 KB

Тип: обычная
Статус: проверено
Размер: 23.17 GB  ·  magnetEF771CD491AA6F6E4A9D55C28E8110B20C947AB7
  • Свернуть поддиректории
  • Развернуть
  • Переключить
  • Увел./умен. окно
загружается...

KanuTaH_nJIaHeTa

Стаж: 8 лет 9 месяцев

Сообщений: 8

flag

KanuTaH_nJIaHeTa · 03-Дек-10 19:22 (спустя 14 дней)

а обычный двдрип в 2-3 гига существует?=)

KanuTaH_nJIaHeTa

Стаж: 8 лет 9 месяцев

Сообщений: 8

flag

KanuTaH_nJIaHeTa · 20-Дек-10 23:08 (спустя 17 дней)

Я посмотреть хочу! Англицкого не боюсь, главное ... блин ... 23 гига! Почему его никто не конвертирует в более доступный массам!? У меня нет нужного оборудования для 3д - неужели я так сильно отстал? Ответьте мне хоть кто-нибудь (на первый вопрос)

Doberman

Стаж: 12 лет 3 месяца

Сообщений: 158

flag

Doberman · 22-Дек-10 00:40 (спустя 1 день 1 час)

KanuTaH_nJIaHeTa писал(а):
Я посмотреть хочу! Англицкого не боюсь, главное ... блин ... 23 гига! Почему его никто не конвертирует в более доступный массам!? У меня нет нужного оборудования для 3д - неужели я так сильно отстал? Ответьте мне хоть кто-нибудь (на первый вопрос)
видимо ни кому не надо скачайте этот образ, его прекрасно можно глянуть и в 2д

KanuTaH_nJIaHeTa

Стаж: 8 лет 9 месяцев

Сообщений: 8

flag

KanuTaH_nJIaHeTa · 24-Дек-10 01:04 (спустя 2 дня)

не все так прекрасно. Скачал образ и по логике его нужно в виртуальный сд-ром поставить (пробовал через ДэмонТулс и Алкоголь120%) - выдает ошибку: "Не удалось выполнить чтение с этого диска. Возможно, диск поврежден, или имеет формат, не совместимый с Windows."

Doberman

Стаж: 12 лет 3 месяца

Сообщений: 158

flag

Doberman · 24-Дек-10 02:35 (спустя 1 час 31 мин.)

KanuTaH_nJIaHeTa писал(а):
не все так прекрасно. Скачал образ и по логике его нужно в виртуальный сд-ром поставить (пробовал через ДэмонТулс и Алкоголь120%) - выдает ошибку: "Не удалось выполнить чтение с этого диска. Возможно, диск поврежден, или имеет формат, не совместимый с Windows."
ну если вы такой ленивый... что вам в падлу прочитать faq, то я не буду тут ни чего писать... в раздачах, обсуждают содержимое, а не способ их запуска

artemkO_o

Стаж: 8 лет 3 месяца

Сообщений: 2

flag

artemkO_o · 01-Янв-11 23:37 (спустя 8 дней)

KanuTaH_nJIaHeTa, скачай k-lite codec pack и выбери при установке .mkv (а лучше все форматы)
и всё будет оК

artemka-48

Стаж: 8 лет 11 месяцев

Сообщений: 1


artemka-48 · 11-Фев-11 17:19 (спустя 1 месяц 9 дней)

А кто подскажит мне как включить этот фильм в 3д если есть 3д оборудование или просто как включить фильм? в какую папку заходить надо заходить?Заранее спасибо

darkvoit

Стаж: 8 лет 9 месяцев

Сообщений: 1


darkvoit · 01-Мар-11 07:51 (спустя 17 дней)

Ребята у меня стационарный Блю-Рей LG BD560 хочу посмотреть с внешнего HDD, при запуске выдает кучу папок, а запускного файла нет, но плейер поддерживает все форматы, подскажите пожалуйста что делать, за ранее спасибо.

s[N1cKe]Rs

Стаж: 12 лет 2 месяца

Сообщений: 43

flag

s[N1cKe]Rs · 08-Мар-11 20:18 (спустя 7 дней)

darkvoit писал(а):
Ребята у меня стационарный Блю-Рей LG BD560 хочу посмотреть с внешнего HDD, при запуске выдает кучу папок, а запускного файла нет, но плейер поддерживает все форматы, подскажите пожалуйста что делать, за ранее спасибо.
только одна модель филипса может это сделать)

RC_STIG

Стаж: 10 лет

Сообщений: 5

flag

RC_STIG · 02-Апр-11 19:35 (спустя 24 дня)

А есть в Full HD?

ЭЛИТ@

Стаж: 8 лет 8 месяцев

Сообщений: 4

flag

ЭЛИТ@ · 07-Апр-11 19:17 (спустя 4 дня)

а русский будет когда-нибудь?

NOVOHUDONOSO

Стаж: 11 лет 3 месяца

Сообщений: 269

NOVOHUDONOSO · 08-Апр-11 12:56 (спустя 17 часов)

Если верить кинопоиску, то вчера вышел на русском.

paperny

Стаж: 10 лет 2 месяца

Сообщений: 4

flag

paperny · 10-Апр-11 20:03 (спустя 2 дня 7 часов)

Угу, видел на озоне - обложка на русском, но в описание русской звуковой дорожки нет.

Rolex74

Стаж: 9 лет 2 месяца

Сообщений: 46

flag

Rolex74 · 13-Апр-11 12:25 (спустя 2 дня 16 часов)

s[N1cKe]Rs
А что за модель филипса? Он может Блю-рей 3Д образы с винта воспроизводить? Подскажите модель

s[N1cKe]Rs

Стаж: 12 лет 2 месяца

Сообщений: 43

flag

s[N1cKe]Rs · 23-Апр-11 08:45 (спустя 9 дней)

Rolex74 писал(а):
s[N1cKe]Rs
А что за модель филипса? Он может Блю-рей 3Д образы с винта воспроизводить? Подскажите модель
уже не важно,это сомнительная технология оказалась,некоторые фильмы с тормозами идут.Лучше писать на диски...

ugez

Стаж: 10 лет

Сообщений: 59

flag

ugez · 12-Май-11 15:47 (спустя 19 дней)

На русском фильма пока нет. Хотя в 2006 году официальный фильма по ЧМ был переозвучен.

webster19

Стаж: 9 лет 4 месяца

Сообщений: 38

flag

webster19 · 22-Июл-11 20:24 (спустя 2 месяца 10 дней)

Блин, пипец. Такой фильм и до сих пор никто ничего не сделал!?
Так! Быстренько кто нибудь озвучьте фильм на русский и ужмите в 1,5 ГБ. Очень посмотреть надо например...)

KanuTaH_nJIaHeTa

Стаж: 8 лет 9 месяцев

Сообщений: 8

flag

KanuTaH_nJIaHeTa · 05-Авг-11 13:45 (спустя 13 дней)

webster19 писал(а):
Блин, пипец. Такой фильм и до сих пор никто ничего не сделал!?
Так! Быстренько кто нибудь озвучьте фильм на русский и ужмите в 1,5 ГБ. Очень посмотреть надо например...)
хоть бы пережали в нормальный двдрип, а то некоторым нахрен не надо это гребаное 3D! mvk еще есть в шесть гигов, так там две почти одинаковых картинки, которые по идее должны друг на друга накладываться... Я бы сделал, но не умею

Ash61

Top Seed 04* 320r

Стаж: 9 лет 11 месяцев

Сообщений: 4791

Ash61 · 05-Авг-11 14:54 (спустя 1 час 9 мин., ред. 05-Авг-11 14:54)

Да 2д сделать-то не проблема, вот перевода катастрофически не хватает! Где-то на сайтах с анонсами БД встречал, что он должен был и в России выйти. Но указанные сроки давно прошли!
Кому нужен каталог 3Д фильмов (вер. 19.10.2018), пишите в личку

spacom

Стаж: 9 лет 7 месяцев

Сообщений: 8

flag

spacom · 20-Сен-11 06:59 (спустя 1 месяц 14 дней)

Искал в разделе о спорте, а нашёл тут. Кто посмотрел-отпишитесь о том как снято и т.п., а то некоторые- как смотреть, да на чём-для этого существуют другие топики. Ведь обсуждаем фильмы, а не свои проблемы.

KanuTaH_nJIaHeTa

Стаж: 8 лет 9 месяцев

Сообщений: 8

flag

KanuTaH_nJIaHeTa · 03-Ноя-11 20:23 (спустя 1 месяц 13 дней)

spacom писал(а):
Искал в разделе о спорте, а нашёл тут. Кто посмотрел-отпишитесь о том как снято и т.п., а то некоторые- как смотреть, да на чём-для этого существуют другие топики. Ведь обсуждаем фильмы, а не свои проблемы.
такой ты блин правильный, потеряйся лучше, даже у меня на два сообщения больше. Могли бы уже подсказать и помочь запустить прямо здесь - не мало таких как я наверняка до сих пор ждут двдрипа, ибо е**ный в рот че за х**ня?! Дайте ссылку, что почитать, чтобы на хорошем мониторе, хоть и не 3д, при мощном компе можно было запустить и посмотреть глазами этот наверняка удивительно интересный фильм. После трех попробованных проигрывателей я пришел к выводу, что у меня ничего не выйдет. Всего один комментарий, прошаренные Вы мои, не всем так повезло как Вам.

Ash61

Top Seed 04* 320r

Стаж: 9 лет 11 месяцев

Сообщений: 4791

Ash61 · 03-Ноя-11 20:43 (спустя 20 мин.)

Если хотите именно БД смотреть (хоть в 2д), то О Форматах и методах просмотра 3D, ОБЩИЙ FAQ
Если Винда ХР, то ещё и в ФАКе про UDF v2.5 читать.
Ну а если устраивает и 3д рип в 2д посмотреть, то пишите - тогда значительно проще...
Кому нужен каталог 3Д фильмов (вер. 19.10.2018), пишите в личку

belyiaist

Стаж: 9 лет 11 месяцев

Сообщений: 15

flag

belyiaist · 11-Апр-12 23:15 (спустя 5 месяцев 8 дней)

а из телека вылетают эфекты)))))

poohets

Стаж: 8 лет 8 месяцев

Сообщений: 196

flag

poohets · 10-Окт-12 23:10 (спустя 5 месяцев)

belyiaist писал(а):
52476926а из телека вылетают эфекты)))))
Только лови ))
Круто, конечно, штуку сэкономить ))
И болвань однослойная ))
Но.. почему 720?? Все же ))

Ra_2

Стаж: 6 лет 5 месяцев

Сообщений: 1


Ra_2 · 12-Июн-13 10:17 (спустя 8 месяцев, ред. 12-Июн-13 10:17)

ребят а чтоб этот файл открыть 23.1 Гб Fifa что нужно устоновить ? Он у меня в формате *.iso почемуто, и то не видит там ниче??? Покажите мне где находится faq с этой темой ??? Можете ли мне картинками показать как вы все это открываете ?

kamehob

Стаж: 6 лет 1 месяц

Сообщений: 1156


kamehob · 12-Июн-13 18:38 (спустя 8 часов)

Ra_2 писал(а):
59678377ребят а чтоб этот файл открыть 23.1 Гб Fifa что нужно устоновить ? Он у меня в формате *.iso почемуто, и то не видит там ниче??? Покажите мне где находится faq с этой темой ??? Можете ли мне картинками показать как вы все это открываете ?
В: - Скачал BD3D в ISO, что дальше? Как его разархивировать?
О: - ISO это не архив, а образ диска. После скачивания его следует записать на болванку соответствующей емкости и вставить в специализированный "BD3D Player" или его аналог PlayStation3 с последней прошивкой.
Также возможно смонтировать ISO в виртуальный привод при помощи соответствующего софта (DAEMON tools, Alcohol 120% и пр.), после чего воспроизвести через "ArcSoft TotalMedia Theatre" или "CyberLink" PowerDVD 10
Ссылки на FAQ прямо в этой теме не раз приводятся.

poohets

Стаж: 8 лет 8 месяцев

Сообщений: 196

flag

poohets · 24-Июн-13 01:33 (спустя 11 дней)

Ну... если есть желание, можно и разархивировать, и Pioner 150 с жесткого диска с удовольствием его покрутит, на родной прошивке. ISO на родной прошивке он крутить не будет, а папку будет, хоть 2D, хоть 3D.
Так что это, получается, и архив тоже )))

dimangus

Стаж: 8 лет 8 месяцев

Сообщений: 39

flag

dimangus · 20-Окт-13 10:04 (спустя 3 месяца 26 дней, ред. 22-Окт-13 20:59)

1 сид,скорость - 0,2 КБ/с,качать - вечность (((
Блин,походу,FIFA 2014 раньше посмотрю...

Res10098

Стаж: 9 лет 4 месяца

Сообщений: 39

flag

Res10098 · 16-Июл-14 10:26 (спустя 8 месяцев)

Спасибо. Качает медленно, но хочется перед покупкой посмотреть, стоит ли оно того вообще...
 
All rights reserved © 2017-2018
Loading...
Error