[Экстрим] Winter X Games 2011 [2011, Ski, Snowboard, Snowmobile, HDTV 1080i]

Статистика раздачи
Размер:  29.97 GB   |   Зарегистрирован:  7 лет 8 месяцев   |   .torrent скачан:  1,948 раз
Сиды:  1
Автор
Сообщение

eugeniy2

Стаж: 10 лет 7 месяцев

Сообщений: 967


eugeniy2 · 08-Мар-11 21:02 (7 лет 8 месяцев назад, ред. 08-Мар-11 21:17)

 

Winter X Games 2011
Год выпуска: 2011
Вид спорта: Экстремальный сноубординг
Продолжительность: 00:58:53 + 01:51:03 + 01:46:07
Комментарий: Профессиональный (многоголосый, закадровый)
Язык комментариев: Английский
Описание: 15-е соревнования Winter X Games 2011
Качество: HDTV
Формат: TS
Видео кодек: H.264
Аудио кодек: AC3
Видео: MPEG4 Video (H264) 1920x1080i 25.00fps 15 Mbps
Аудио: Dolby AC3 48000Hz stereo 192 Kbps
скрытый текст
Format : MPEG-TS
File size : 11.8 GiB
Duration : 1h 46mn
Overall bit rate : 15.9 Mbps
Video
ID : 514 (0x202)
Menu ID : 1 (0x1)
Format : AVC
Format/Info : Advanced Video Codec
Format profile : Main@L4.0
Format settings, CABAC : Yes
Format settings, ReFrames : 4 frames
Codec ID : 27
Duration : 1h 46mn
Bit rate : 14.9 Mbps
Width : 1 920 pixels
Height : 1 080 pixels
Display aspect ratio : 16:9
Frame rate : 25.000 fps
Color space : YUV
Chroma subsampling : 4:2:0
Bit depth : 8 bits
Scan type : Interlaced
Scan order : Top Field First
Bits/(Pixel*Frame) : 0.287
Stream size : 11.0 GiB (94%)
Color primaries : BT.709-5, BT.1361, IEC 61966-2-4, SMPTE RP177
Transfer characteristics : BT.709-5, BT.1361
Matrix coefficients : BT.709-5, BT.1361, IEC 61966-2-4 709, SMPTE RP177
Audio
ID : 642 (0x282)
Menu ID : 1 (0x1)
Format : AC-3
Format/Info : Audio Coding 3
Mode extension : ME (music and effects)
Codec ID : 6
Duration : 1h 46mn
Bit rate mode : Constant
Bit rate : 192 Kbps
Channel(s) : 2 channels
Channel positions : Front: L R
Sampling rate : 48.0 KHz
Bit depth : 16 bits
Stream size : 146 MiB (1%)
Language : nar
Зарегистрирован:
  • 08-Мар-11 21:02
  • Скачан: 1,948 раз

Скачать .torrent

150 KB

Тип: обычная
Статус: проверено
Размер: 29.97 GB  ·  magnetBCB03FEEE0DD5A66A2735B6FA80A1DC11BB5CAF3
  • Свернуть поддиректории
  • Развернуть
  • Переключить
  • Увел./умен. окно
загружается...

eugeniy2

Стаж: 10 лет 7 месяцев

Сообщений: 967


eugeniy2 · 08-Мар-11 21:11 (спустя 9 мин.)

Сам не смотрел и не представляю за что там боролись, кто был участником,кто в каких дисциплинах победил... У кого есть такая информация - поделитесь, добавлю в оформление.

*13*

VIP (Заслуженный)

Стаж: 12 лет 6 месяцев

Сообщений: 18635

flag

*13* · 09-Мар-11 11:35 (спустя 14 часов)

eugeniy2
А кто же вам про это сможет сказать? Нужно смотреть само видео, что именно включено в вашу запись.
Тут есть Игры 2010 года - http://GOSTRACKER.XYZ/viewtopic.php?t=2892256
Посмотрите, как там оформлено.

eugeniy2

Стаж: 10 лет 7 месяцев

Сообщений: 967


eugeniy2 · 09-Мар-11 12:05 (спустя 30 мин.)

*13*
Ну кто посмотрит - пусть отпишется... Для меня весь этот спорт - пустое место, я даже если и посмотрю, то всеравно не смогу определить даже вид спорта...

LORDLOGOS

Стаж: 11 лет 3 месяца

Сообщений: 36

flag

LORDLOGOS · 10-Мар-11 18:36 (спустя 1 день 6 часов)

Меня интересует,что сравнивают на скриншотах?Где 2D а где 3D?
Из Сибири с любовью ***

eugeniy2

Стаж: 10 лет 7 месяцев

Сообщений: 967


eugeniy2 · 11-Мар-11 02:16 (спустя 7 часов, ред. 11-Мар-11 02:16)

LORDLOGOS

это не сравнительные скриншоты... это стерео

feelthebeat

Стаж: 10 лет 6 месяцев

Сообщений: 18

flag

feelthebeat · 11-Мар-11 09:23 (спустя 7 часов)

в описании 11 год, а в названии файла 10 год ?????????? как понимать?

alex120_10

Стаж: 8 лет 4 месяца

Сообщений: 10

flag

alex120_10 · 12-Мар-11 04:35 (спустя 19 часов)

так стоит качать или нет как картинка и 3D эффекты ? а то всё таки вес приличный

UmNik76

Стаж: 10 лет 7 месяцев

Сообщений: 141

flag

UmNik76 · 12-Мар-11 10:53 (спустя 6 часов)

Картинка 1080 строк, 3D присутствует, по размеру файла видно его качество, так что кого эта тема интересует - качайте смело.

Manual56

Стаж: 8 лет 9 месяцев

Сообщений: 27

flag

Manual56 · 15-Мар-11 14:08 (спустя 3 дня)

feelthebeat писал(а):
в описании 11 год, а в названии файла 10 год ?????????? как понимать?
Год 2011, просто нужно переименовать.

parus-m

Стаж: 7 лет 9 месяцев

Сообщений: 3

flag

parus-m · 27-Апр-11 04:26 (спустя 1 месяц 11 дней)

После недельного скачивания я был в полном недоумении, увидев на экране две разделенные зоны с одинаковыми кадрами фильма. Картинки растянуты вертикально, отчего все люди в фильме дистрофики. Качество фильма отличное, отснято профессионально, местами правда заедало( наверное мой КМплеер тоже был в шоке от стереодистрофанов). Просветите, кто в курсе, возможно ли на компе смотреть эти стереофильмы? Не хотелось бы удалять такую тему.

Dimale91

Стаж: 8 лет 10 месяцев

Сообщений: 6

flag

Dimale91 · 05-Май-11 09:08 (спустя 8 дней)

скачай Stereoscopic Player и будет тебе счастье...+)

Ichigo216

Стаж: 8 лет 2 месяца

Сообщений: 39

flag

Ichigo216 · 14-Июл-11 16:28 (спустя 2 месяца 9 дней)

Почему-то выдаёт такую ошибку "Неверная попытка доступа к адресу памяти"

chertaev

Стаж: 8 лет 4 месяца

Сообщений: 8

flag

chertaev · 23-Ноя-11 21:21 (спустя 4 месяца 9 дней)

Сноуборд в 3 Д....охренеть надо глянуть...сам гоняю.. думаю будет интересно))

skier78rus

Стаж: 5 лет 11 месяцев

Сообщений: 1

flag

skier78rus · 01-Мар-13 22:16 (спустя 1 год 3 месяца)

Спасибо за экстремальный контент в 3D!!!!
К сожалению, скорость раздачи, оставляет желать лучшего... 8(

Alexey17

Top Loader 01* 100GB

Стаж: 12 лет 8 месяцев

Сообщений: 761

Alexey17 · 04-Сен-18 08:11 (спустя 5 лет 6 месяцев)

Уже 2 недели висит - раздайте плз.
 
All rights reserved © 2017-2018
Loading...
Error