ѕул€-дура. »зумрудное дело агента / —езон: 5 —ерии: 1-4 из 4 ( ¬ладимир ƒмитриевский) [2011, ƒетектив, DVB]

—татистика раздачи
–азмер:  4.37 GB   |   «арегистрирован:  7 лет 6 мес€цев   |   .torrent скачан:  2,925 раз

ѕолный источник: был сегодн€

јвтор
—ообщение

CLIPMAN

Top Seed 06* 1280r

—таж: 9 лет 2 мес€ца

—ообщений: 2397

flag

CLIPMAN · 01-ћай-11 21:06 (7 лет 6 мес€цев назад, ред. 01-ћай-11 21:08)

 

ѕул€-дура - 5(»зумрудное дело агента)
√од выпуска: 2011
ѕроизводство: ‘аворит-фильм
∆анр: ƒетектив
ѕродолжительность: ~ 00:43:00 сери€
—убтитры: ќтсутствуют
–ежиссЄр: ¬ладимир ƒмитриевский
¬ рол€х: —ергей √оробченко, √ригорий јнтипенко, јлена —озинова, ¬ладимир  апустин (II), —ергей ‘ролов, Ћиди€ јрефьева,  сени€ ƒементьева
ќписание: Ѕлест€щему детективу Ѕобу ”точкину предстоит распутать череду загадочных убийств, казалось бы, не св€занных между собой людей; предотвратить рейдерский захват изумрудных копей; прекратить контрабанду драгоценных камней; не дать международной мафии захватить оборонный завод, специализирующийс€ на выпуске деталей дл€ подводных лодок. ѕо ходу событий он встретит свою насто€щую любовь Ч очаровательную амазонку на квадроцикле Ч “ину. ¬ борьбе с преступниками Ѕобу поможет верный напарник - —ерж ¬олков. Ќи жестокие схватки, ни т€жЄлые ранени€ не смогут сломить боевой дух отча€нных парней.
–елиз:
¬се раздачи сериала
—ЁћѕЋ
 ачество: DVB
‘ормат: MPEG
¬идео кодек: MPEG2
јудио кодек: MPEG1 Layer 2
¬идео: MPEG2 Video 720x576 (4:3) 25.00fps 3 550 Kbps, 0.342 bit/pixel
јудио: MPEG Audio 48000Hz stereo 192  бит/сек
MI
Complete name : F:\TORENTRAZDACHI\ѕул€-ƒура-5_DVB_by_CLIPMAN\ѕул€-ƒура-5.01_DVB_by_CLIPMAN.mpg
Format : MPEG-PS
File size : 1.15 GiB
Duration : 43mn 31s
Overall bit rate : 3 790 Kbps
Video
ID : 224 (0xE0)
Format : MPEG Video
Format version : Version 2
Format profile : Main@Main
Format settings, BVOP : Yes
Format settings, Matrix : Default
Format settings, GOP : M=3, N=24
Duration : 43mn 31s
Bit rate mode : Constant
Bit rate : 3 550 Kbps
Width : 720 pixels
Height : 576 pixels
Display aspect ratio : 4:3
Frame rate : 25.000 fps
Standard : PAL
Color space : YUV
Chroma subsampling : 4:2:0
Bit depth : 8 bits
Scan type : Interlaced
Scan order : Top Field First
Bits/(Pixel*Frame) : 0.342
Stream size : 1.07 GiB (93%)
Audio
ID : 192 (0xC0)
Format : MPEG Audio
Format version : Version 1
Format profile : Layer 2
Duration : 43mn 31s
Bit rate mode : Constant
Bit rate : 192 Kbps
Channel(s) : 2 channels
Sampling rate : 48.0 KHz
Video delay : -80ms
Stream size : 59.8 MiB (5%)
—криншоты
«арегистрирован:
  • 01-ћай-11 21:06
  • —качан: 2,925 раз

—качать .torrent

23 KB

“ип: обычна€
—татус: проверено
–азмер: 4.37 GB  ·  magnet19325BAFE7982BF51D4981AC8F9EF44DAA8DCDB7
  • —вернуть поддиректории
  • –азвернуть
  • ѕереключить
  • ”вел./умен. окно
загружаетс€...
© закрыто правообладателем © © закрыто правообладателем ©

snov57

—таж: 9 лет 7 мес€цев

—ообщений: 13


snov57 · 10-јвг-12 02:23 (спуст€ 1 год 3 мес€ца)

÷итата:
Ћюди,у кого скачано станьте,плизззз!!!, на раздачу.—пасибо всем ,кто отзовЄтс€.

spiderne

—таж: 9 лет 5 мес€цев

—ообщений: 8

flag

spiderne · 26-»юл-14 11:27 (спуст€ 1 год 11 мес€цев)

snov57 писал(а):
54604614
÷итата:
Ћюди,у кого скачано станьте,плизззз!!!, на раздачу.—пасибо всем ,кто отзовЄтс€.
да. пожалуйста
 
All rights reserved © 2017-2018
Loading...
Error