Тайны истории. Билли Кид / Mystery Files. Billy The Kid [2009, Документальный цикл, HDTV 1080i]

Статистика раздачи
Размер:  919.8 MB   |   Зарегистрирован:  6 лет 11 месяцев   |   .torrent скачан:  826 раз
Сиды:  1
Автор
Сообщение

dean10

Стажер-модератор

Стаж: 8 лет 10 месяцев

Сообщений: 5845

flag

dean10 · 02-Дек-11 14:07 (6 лет 11 месяцев назад, ред. 02-Дек-11 14:08)

 

Тайны истории. Билли Кид / Mystery Files. Billy The Kid
Год выпуска: 2009
Страна: США, Parthenom Entertainment Ltd
Жанр: Документальный цикл
Продолжительность: 00:23:29
Перевод: Профессиональный (одноголосый)
Русские субтитры: нет
Описание: Не позволяйте этой загадке помешать Вам уснуть, может быть, она ни когда не будет разгадана, а вопросы останутся без ответов. National Geographic Channel берется за величайшие неразгаданные тайны мира, пытаясь узнать, что стоит за легендами, которые веками вдохновляли, интриговали и ставили в тупик человечество!
В этом выпуске: Билли Кид
В конце 70-х годов XIX века Билли Кид был одним из наиболее известных преступников американского дикого запада. Подросток убийца жил вне закона и внушал ужас всему населению штата Нью-Мексика. Он был убит своим бывшим другом шерифом Петом Гаретом. Такова легенда Билли Кида. Но при более подробном анализе, новые судебные доказательства, открывают перед нами истинное лицо Билли. Каким же на самом деле был этот легендарный подросток? Мы проникнем в тайну истории Билли Кида!
Доп. информация: Текст читал: Александр Гаврилин
MI
General
ID : 1 (0x1)
Complete name : C:Билли Кид.ts
Format : MPEG-TS
File size : 920 MiB
Duration : 23mn 29s
Overall bit rate : 5 475 Kbps
Video
ID : 1400 (0x578)
Menu ID : 1 (0x1)
Format : AVC
Format/Info : Advanced Video Codec
Format profile : Main@L4.0
Format settings, CABAC : Yes
Format settings, ReFrames : 4 frames
Codec ID : 27
Duration : 23mn 29s
Bit rate : 4 558 Kbps
Width : 1 920 pixels
Height : 1 080 pixels
Display aspect ratio : 16:9
Frame rate : 25.000 fps
Standard : Component
Color space : YUV
Chroma subsampling : 4:2:0
Bit depth : 8 bits
Scan type : Interlaced
Scan order : Top Field First
Bits/(Pixel*Frame) : 0.088
Stream size : 766 MiB (83%)
Color primaries : BT.709-5, BT.1361, IEC 61966-2-4, SMPTE RP177
Transfer characteristics : BT.709-5, BT.1361
Matrix coefficients : BT.709-5, BT.1361, IEC 61966-2-4 709, SMPTE RP177
Audio #1
ID : 1410 (0x582)
Menu ID : 1 (0x1)
Format : MPEG Audio
Format version : Version 1
Format profile : Layer 2
Codec ID : 3
Duration : 23mn 29s
Bit rate mode : Constant
Bit rate : 192 Kbps
Channel(s) : 2 channels
Sampling rate : 48.0 KHz
Compression mode : Lossy
Stream size : 32.3 MiB (4%)
Language : Russian
Audio #2
ID : 1420 (0x58C)
Menu ID : 1 (0x1)
Format : AC-3
Format/Info : Audio Coding 3
Mode extension : CM (complete main)
Codec ID : 6
Duration : 23mn 29s
Bit rate mode : Constant
Bit rate : 448 Kbps
Channel(s) : 6 channels
Channel positions : Front: L C R, Side: L R, LFE
Sampling rate : 48.0 KHz
Bit depth : 16 bits
Compression mode : Lossy
Stream size : 75.3 MiB (8%)
Language : Russian
Качество: HDTV
Формат: TS
Видео кодек: H.264
Аудио кодек: AC3
Видео: 1920x1080, 16:9, 25 fps, MPEG4 Video (H264), ~ 4 558 kbps
Аудио: Russian: 48 kHz; Dolby AC3 6ch; 448 kbps
Скриншоты
Зарегистрирован:
  • 02-Дек-11 14:07
  • Скачан: 826 раз

Скачать .torrent

18 KB

Тип: обычная
Статус: проверено
Размер: 919.8 MB  ·  magnet9924473DE1C64BF1FC4D30C2CB07782DE48844DD
  • Свернуть поддиректории
  • Развернуть
  • Переключить
  • Увел./умен. окно
загружается...
 
All rights reserved © 2017-2018
Loading...
Error