(J-Pop, Acoustic, Vocal) Emi Fujita - Eating The Heart - 2008, FLAC (image+.cue), lossless

Статистика раздачи
Размер:  306.1 MB   |   Зарегистрирован:  6 лет 8 месяцев   |   .torrent скачан:  1,095 раз
Сиды:  1
Автор
Сообщение

roarrr

Стаж: 11 лет

Сообщений: 1014

flag

roarrr · 07-Апр-12 19:53 (6 лет 8 месяцев назад, ред. 25-Мар-14 15:08)

 

Emi Fujita - Eating The Heart
Жанр: J-Pop, Acoustic, Vocal
Страна-производитель диска: Japan
Год издания: 2008
Издатель (лейбл): Forward music / Pony Canyon Inc.
Номер по каталогу: FWCA60022
Страна: Japan
Аудиокодек: FLAC (*.flac)
Тип рипа: image+.cue
Битрейт аудио: lossless
Продолжительность: 64:01
Язик: Японский
Источник (релизер): HaFe
Наличие сканов в содержимом раздачи: да
В сентябре 2008 года Эми Фудзита выпустила "Kokoro no Shokutaku - Okaeri Itoshiki Utatachi" - альбом из своей японской музыкальной коллекции.
http://emifujita.jp/index/
http://www.cdjapan.co.jp/detailview.html?KEY=PCCA-60022
蘇州夜曲(2008年)-藤田恵美 - Suzhou nocturne
Треклист:
01.Man and woman with wine and tears
02.Lullaby Miss Thistle
03.Maiden Waltz
04.Orchid tears Thurs
05.Suzhou nocturne
06.Breast pendulum
07.Gondola Song
08.In the white pages
09.City lights
10.Graduation photo
11.The rain always starts
12.Family dining
13.Hidamari poem
14.Landscape of Love
Оригинальный треклист
Kokoro no Shokutaku - Okaeri Itoshiki Uta Tachi
日本語タイトル: ココロの食卓〜おかえり愛しき詩たち〜
1. 酒と泪と男と女
2. アザミ嬢のララバイ
3. 乙女のワルツ
4. 木蘭の涙
5. 蘇州夜曲
6. 胸の振り子
7. ゴンドラの唄
8. 白いページの中に
9. 街の灯り
10. 卒業写真
11. はじまりはいつも雨
12. 家族の食卓
13. ひだまりの詩
14. 愛の景色
Лог создания рипа
Exact Audio Copy V1.0 beta 3 from 29. August 2011
EAC extraction logfile from 3. October 2011, 16:56
Emi Fujita / Eating The Heart
Used drive : ASUS DRW-24B1LT Adapter: 2 ID: 1
Read mode : Secure
Utilize accurate stream : Yes
Defeat audio cache : Yes
Make use of C2 pointers : No
Read offset correction : 6
Overread into Lead-In and Lead-Out : No
Fill up missing offset samples with silence : Yes
Delete leading and trailing silent blocks : No
Null samples used in CRC calculations : Yes
Used interface : Native Win32 interface for Win NT & 2000
Used output format : Internal WAV Routines
Sample format : 44.100 Hz; 16 Bit; Stereo
TOC of the extracted CD
Track | Start | Length | Start sector | End sector
---------------------------------------------------------
1 | 0:00.00 | 4:43.70 | 0 | 21294
2 | 4:43.70 | 3:51.16 | 21295 | 38635
3 | 8:35.11 | 3:59.47 | 38636 | 56607
4 | 12:34.58 | 6:09.29 | 56608 | 84311
5 | 18:44.12 | 3:59.27 | 84312 | 102263
6 | 22:43.39 | 3:33.38 | 102264 | 118276
7 | 26:17.02 | 4:25.04 | 118277 | 138155
8 | 30:42.06 | 4:50.49 | 138156 | 159954
9 | 35:32.55 | 4:16.53 | 159955 | 179207
10 | 39:49.33 | 4:45.22 | 179208 | 200604
11 | 44:34.55 | 5:15.49 | 200605 | 224278
12 | 49:50.29 | 4:27.63 | 224279 | 244366
13 | 54:18.17 | 4:30.74 | 244367 | 264690
14 | 58:49.16 | 5:11.46 | 264691 | 288061
Range status and errors
Selected range
Filename E:\My Music\International\@@@@AHa hay nghe\Emi Fujita - Eating The Heart.wav
Peak level 99.9 %
Extraction speed 1.2 X
Range quality 100.0 %
Copy CRC D37AE6D3
Copy OK
No errors occurred
AccurateRip summary
Track 1 accurately ripped (confidence 5) [ED80832D] (AR v2)
Track 2 accurately ripped (confidence 5) [807EB1F8] (AR v2)
Track 3 accurately ripped (confidence 5) [1E52D3E2] (AR v2)
Track 4 accurately ripped (confidence 5) [D328CA34] (AR v2)
Track 5 accurately ripped (confidence 5) [BF05336D] (AR v2)
Track 6 accurately ripped (confidence 5) [D87FCA71] (AR v2)
Track 7 accurately ripped (confidence 5) [DE192E58] (AR v2)
Track 8 accurately ripped (confidence 5) [8DAEC2DA] (AR v2)
Track 9 accurately ripped (confidence 5) [DA9F62C5] (AR v2)
Track 10 accurately ripped (confidence 5) [8F17B586] (AR v2)
Track 11 accurately ripped (confidence 5) [05AAD5D7] (AR v2)
Track 12 accurately ripped (confidence 5) [9C209DB6] (AR v2)
Track 13 accurately ripped (confidence 5) [4D9725D4] (AR v2)
Track 14 accurately ripped (confidence 5) [495B3341] (AR v2)
All tracks accurately ripped
End of status report
---- CUETools DB Plugin V2.1.3
Содержание индексной карты (.CUE)
REM GENRE Vocal
REM DATE 2008
REM DISCID CB0F000E
REM COMMENT "ExactAudioCopy v1.0b3"
PERFORMER "Emi Fujita"
TITLE "Eating The Heart"
FILE "Emi Fujita - Eating The Heart.wav" WAVE
TRACK 01 AUDIO
TITLE "Man and woman with wine and tears"
PERFORMER "Emi Fujita"
INDEX 01 00:00:00
TRACK 02 AUDIO
TITLE "Lullaby Miss Thistle"
PERFORMER "Emi Fujita"
INDEX 00 04:41:71
INDEX 01 04:43:70
TRACK 03 AUDIO
TITLE "Maiden Waltz"
PERFORMER "Emi Fujita"
INDEX 00 08:34:12
INDEX 01 08:35:11
TRACK 04 AUDIO
TITLE "Orchid tears Thurs"
PERFORMER "Emi Fujita"
INDEX 00 12:32:58
INDEX 01 12:34:58
TRACK 05 AUDIO
TITLE "Suzhou nocturne"
PERFORMER "Emi Fujita"
INDEX 00 18:42:13
INDEX 01 18:44:12
TRACK 06 AUDIO
TITLE "Breast pendulum"
PERFORMER "Emi Fujita"
INDEX 01 22:43:39
TRACK 07 AUDIO
TITLE "Gondola Song"
PERFORMER "Emi Fujita"
INDEX 00 26:16:02
INDEX 01 26:17:02
TRACK 08 AUDIO
TITLE "In the white pages"
PERFORMER "Emi Fujita"
INDEX 00 30:38:52
INDEX 01 30:42:06
TRACK 09 AUDIO
TITLE "City lights"
PERFORMER "Emi Fujita"
INDEX 00 35:31:55
INDEX 01 35:32:55
TRACK 10 AUDIO
TITLE "Graduation photo"
PERFORMER "Emi Fujita"
INDEX 00 39:48:63
INDEX 01 39:49:33
TRACK 11 AUDIO
TITLE "The rain always starts"
PERFORMER "Emi Fujita"
INDEX 00 44:33:55
INDEX 01 44:34:55
TRACK 12 AUDIO
TITLE "Family dining"
PERFORMER "Emi Fujita"
INDEX 00 49:48:60
INDEX 01 49:50:29
TRACK 13 AUDIO
TITLE "Hidamari poem"
PERFORMER "Emi Fujita"
INDEX 00 54:17:18
INDEX 01 54:18:17
TRACK 14 AUDIO
TITLE "Landscape of Love"
PERFORMER "Emi Fujita"
INDEX 00 58:45:61
INDEX 01 58:49:16
Лог проверки качества
AUDIOCHECKER v2.0 beta (build 457) - by Dester - opdester@freemail.hu
~~~~~~~~~~~~~~~~~~~~~~~~~~~~~~~~~~
-=== DO NOT EDIT THIS FILE! ===-
Path: ...\Emi Fujita - Eating The Heart
1 -=- Emi Fujita - Eating The Heart.flac -=- CDDA (100%)
123727636
Скриншот спектра частот
Об исполнителе (группе)
Emi Fujita
Born on the 15th of May, 1963
She started her solo career in 2001 while continuing her duo band ‘Le Couple’, which has sold over 2 million of the hit single ‘Hidamari no Uta (a song of Hidamari)’. Hidamari means a warm spot with sunshine and no wind.
Her first solo album ‘Camomile’ was a concept album for musical relaxation. Soon after putting the album on the market, it was exported to Hong Kong. Interestingly, it was the audiophile community there that reacted first, quite quickly and very positively. With good reviews for ‘Camomile’, both sales and Emi’s reputation in Hong Kong grew, with ‘Camomile’ reaching pole position in both broadcast charts and sales. At the end of 2002, the "International Pop Poll Awards", which is one of the most popular awards in Hong Kong, nominated EMI FUJITA in 3 categories, such as Top Female Artist.
This story in Hong Kong cross the border and “Camomile” was also released other countries in Southeast Asia and has become Asian-wide hit title --- e.g. platinum-disc in Malaysia & Singapore, gold-disc in Taiwan. With such favorable response EMI FUJITA released a series of the same concept album, “Camomile Blend” in 2003, “Camoile Classics” in 2006. And she also made tours to Asia and held live concerts in Hong Kong and Singapore several times. The total sales of her albums in Asia (excluding Japan) is over 200,000 till end of 2008 and recognized as one of most popular Japanese female solo singer in Southeast Asia.
Based on such success, an idea of a new project was born, namely to make a ‘Best Audio’ album from three of the ‘Camomile’ series to cater for Japanese audiophiles and quality music listeners. The ‘Camomile Best Audio’ album contains 2ch CD, 2ch SA-CD and a 5.1-multi channel SA-CD layer. The album was released in 2007 and recongaized as highly acclaimed as a audiophile album.
Emi Fujita’s album “Camomile Smile” was released in Southeast Asia countries from April to May 2010. This album follows the concept of “Camomile” series of album but with a new point. Besides English popular songs Emi tried covering 2 songs made in Aisa, “The Perfect Moment” (the theme song of a movie, "She Is A Man, He Is A Woman" sung by Leslie Cheung, composed by Dick Lee) and “I Believe” (sung by Shin Seung Hun). Among a number of songs suggested Emi included them to show her appreciation to the fans in Asia supported her for a long time and also introduce beautiful melodies to the people who will listen to her voice in different countries.
In September 2008, Emi Fujita released a traditional Japanese music collection ‘Kokoro no Shokutaku - Okaeri Itoshiki Utatachi’.
Дискография
Albums
Camomile (2001/10/21)
Camomile blend (2003/10/1)
Rembrandt Sky / Emi with MKB (2005/11/21)
Camomile classics (2006/11/15)
Camomile Best Audio (2007/11/21)
Kokoro no Shokutaku (2008/ 9/17)
Singles
Yumemiru Asa (2001/10/17)
Kageboushi / Emi with MKB (2005/ 5/18)
Niji no Hashi(Rainbow Bridge) (2007/ 5/16)
Asian Versions
Camomile extra (2002)
Lullaby of Camomile Live in Singapore (2005)
Camomile PLUS (2006)
DVD
Camomile extra (2002)
Lullaby of Camomile Live in Singapore (2005)
Lullaby of Camomile Live In Hong Kong (2006)
Зарегистрирован:
  • 07-Апр-12 19:53
  • Скачан: 1,095 раз

Скачать .torrent

13 KB

Тип: обычная
Статус: проверено
Размер: 306.1 MB  ·  magnet4A8893447E293040B8E67C97DA353794B49CBB31
  • Свернуть поддиректории
  • Развернуть
  • Переключить
  • Увел./умен. окно
загружается...

roarrr

Стаж: 11 лет

Сообщений: 1014

flag

roarrr · 23-Мар-14 15:41 (спустя 1 год 11 месяцев)

Почти два года, столко людей скачали а ни слово не сказали.
Заходите и на Emi Fujita - Дискография (5 альбомов) - 2002-2010, + Le Couple, FLAC, APE (tracks/image+.cue), lossless

artpen

Стаж: 10 лет 11 месяцев

Сообщений: 97

flag

artpen · 14-Окт-15 21:19 (спустя 1 год 6 месяцев)

Услышал ее в сборнике, сейчас скачаю всю, послушаю. Спасибо!

troll74746

Стаж: 8 лет 2 месяца

Сообщений: 1

troll74746 · 19-Фев-17 09:25 (спустя 1 год 4 месяца)

раздача жива вообще и если да то когда сидируете?
 
All rights reserved © 2017-2018
Loading...
Error