(Melodic Hard Rock) Desert Rain - Bang Bang - 1991, FLAC (image+.cue), lossless

Статистика раздачи
Размер:  282.6 MB   |   Зарегистрирован:  6 лет 5 месяцев   |   .torrent скачан:  417 раз

Полный источник: не было 3 месяца 16 дней

Автор
Сообщение

Awakened2Die

Top Seed 04* 320r

Стаж: 8 лет 10 месяцев

Сообщений: 603

flag

Awakened2Die · 14-Июн-12 21:01 (6 лет 5 месяцев назад, ред. 14-Июн-12 21:09)

 

Desert Rain / Bang Bang Жанр: Melodic Hard Rock
Страна-производитель диска: Sweden
Год издания: 1991
Издатель (лейбл): HEM Recordings
Страна: Sweden
Аудиокодек: FLAC (*.flac)
Тип рипа: image+.cue
Битрейт аудио: lossless
Продолжительность: 39:00
Источник (релизер): whiteLion90
Наличие сканов в содержимом раздачи: нет
Треклист:
01 - Lady of the Night [03:10]
02 - Summertime [03:44]
03 - Bang, Bang [04:14]
04 - Rough Girl [03:10]
05 - Down the Road [04:20]
06 - Can't Bring it Down [03:48]
07 - Pipe Dream [04:50]
08 - Wrong or Wright [04:49]
09 - Love Child [03:25]
10 - Misty Rose [03:26]
Лог создания рипа
Отчёт EAC об извлечении, выполненном 11. декабря 2011, 18:16 для диска:
Desert Rain / Bang Bang
Дисковод: ATAPI DVD A DH16ABSH Adapter: 0 ID: 1
Режим чтения: Достоверный (C2: нет, Точный поток: да, Отключение кэша: нет)
Комбинированное смещение чтения/записи: 0
Способность читать области Lead-in и Lead-out : Нет
Выходной формат: Внутренние WAV-операции
44.100 Гц; 16 бит; стерео
Другие параметры:
Заполнение пропущенных сэмплов тишиной : Да
Удаление блоков с тишиной в начале и конце : Нет
Установленный внешний ASPI-интерфейс
Характеристики диапазона извлечения и сообщения об ошибках
Выбранный диапазон
Имя файла D:\Desert Rain - Bang Bang.wav
Пиковый уровень 100.0 %
Качество диапазона 100.0 %
CRC 6E35A1AF
Копирование... OK
Ошибок не произошло
Конец отчёта
Содержание индексной карты (.CUE)
REM GENRE Rock
REM DATE 1991
REM DISCID 6F09240A
REM COMMENT "ExactAudioCopy v0.95b4"
PERFORMER "Desert Rain"
TITLE "Bang Bang"
FILE "Desert Rain - Bang Bang.wav" WAVE
TRACK 01 AUDIO
TITLE "Lady of the Night"
PERFORMER "Desert Rain"
INDEX 01 00:00:00
TRACK 02 AUDIO
TITLE "Summertime"
PERFORMER "Desert Rain"
INDEX 00 03:08:33
INDEX 01 03:10:55
TRACK 03 AUDIO
TITLE "Bang, Bang"
PERFORMER "Desert Rain"
INDEX 01 06:55:48
TRACK 04 AUDIO
TITLE "Rough Girl"
PERFORMER "Desert Rain"
INDEX 00 11:06:43
INDEX 01 11:09:48
TRACK 05 AUDIO
TITLE "Down the Road"
PERFORMER "Desert Rain"
INDEX 01 14:20:30
TRACK 06 AUDIO
TITLE "Can't Bring it Down"
PERFORMER "Desert Rain"
INDEX 01 18:41:15
TRACK 07 AUDIO
TITLE "Pipe Dream"
PERFORMER "Desert Rain"
INDEX 01 22:29:33
TRACK 08 AUDIO
TITLE "Wrong or Wright"
PERFORMER "Desert Rain"
INDEX 01 27:19:43
TRACK 09 AUDIO
TITLE "Love Child"
PERFORMER "Desert Rain"
INDEX 00 32:06:20
INDEX 01 32:09:25
TRACK 10 AUDIO
TITLE "Misty Rose"
PERFORMER "Desert Rain"
INDEX 00 35:32:10
INDEX 01 35:34:55
Скриншот спектра частот
Зарегистрирован:
  • 14-Июн-12 21:03
  • Скачан: 417 раз

Скачать .torrent

12 KB

Тип: обычная
Статус: # сомнительно
Размер: 282.6 MB  ·  magnetB0E9431EA04A691B48ED9BEB06E54B1BFA47EC38
  • Свернуть поддиректории
  • Развернуть
  • Переключить
  • Увел./умен. окно
загружается...

Olaf der Weisse

Moderator

Стаж: 9 лет 9 месяцев

Сообщений: 3935

Olaf der Weisse · 21-Июн-12 13:47 (спустя 6 дней)

Цитата:
Отключение кэша: нет)
Комбинированное смещение чтения/записи: 0
# сомнительно
 
All rights reserved © 2017-2018
Loading...
Error