(Jpop) Utada Hikaru - Heart Station - 2008, FLAC (image+.cue), lossless

Статистика раздачи
Размер:  470.1 MB   |   Зарегистрирован:  6 лет 4 месяца   |   .torrent скачан:  718 раз
Сиды:  3
Автор
Сообщение

guzonka

Стаж: 11 лет 1 месяц

Сообщений: 1161

flag

guzonka · 22-Июл-12 18:15 (6 лет 4 месяца назад)

 

Utada Hikaru / Heart Station
Жанр: Jpop
Страна-производитель диска: Malaysia
Год издания: 2008
Издатель (лейбл): EMI Music
Номер по каталогу: 5099921227929
Страна: Japan
Аудиокодек: FLAC (*.flac)
Тип рипа: image+.cue
Битрейт аудио: lossless
Продолжительность: 57:00
Источник (релизер): guzonka
Наличие сканов в содержимом раздачи: да
Треклист:
01. Fight The Blues (4:10)
02. Heart Station (4:36)
03. Beautiful World (5:18)
04. Flavor Of Life -Ballad Version- (5:25)
05. Stay Gold (5:14)
06. Kiss & Cry (5:06)
07. Gentle Beast Interlude (1:13)
08. Celebrate (4:26)
09. Prisoner Of Love (4:46)
10. Take 5 (3:42)
11. Boku wa Kuma (2:23)
12. Nijiiro Bus (5:50)
13. Flavor Of Life [Bonus Track] (4:47)
Лог создания рипа
Exact Audio Copy V1.0 beta 3 from 29. August 2011
Отчёт EAC об извлечении, выполненном 22. июля 2012, 20:48
Utada Hikaru / Heart Station
Дисковод: PIONEER DVD-RW DVR-219L Adapter: 0 ID: 0
Режим чтения : Достоверность
Использование точного потока : Да
Отключение кэша аудио : Да
Использование указателей C2 : Нет
Коррекция смещения при чтении : 6
Способность читать области Lead-in и Lead-out : Нет
Заполнение пропущенных сэмплов тишиной : Да
Удаление блоков с тишиной в начале и конце : Нет
При вычислениях CRC использовались нулевые сэмплы : Да
Интерфейс : Встроенный Win32-интерфейс для Win NT/2000
Выходной формат : Пользовательский кодировщик
Выбранный битрейт : 640 kBit/s
Качество : Высокий
Добавление ID3-тега : Нет
Утилита сжатия : C:\Program Files (x86)\Exact Audio Copy\Flac\flac.exe
Дополнительные параметры : -V -8 -T "Date=%year%" -T "Genre=%genre%" %source%
TOC извлечённого CD
Трек | Старт | Длительность | Начальный сектор | Конечный сектор
---------------------------------------------------------------------
1 | 0:00.00 | 4:10.20 | 0 | 18769
2 | 4:10.20 | 4:36.47 | 18770 | 39516
3 | 8:46.67 | 5:17.71 | 39517 | 63362
4 | 14:04.63 | 5:25.26 | 63363 | 87763
5 | 19:30.14 | 5:14.52 | 87764 | 111365
6 | 24:44.66 | 5:06.21 | 111366 | 134336
7 | 29:51.12 | 1:13.17 | 134337 | 139828
8 | 31:04.29 | 4:26.71 | 139829 | 159849
9 | 35:31.25 | 4:46.38 | 159850 | 181337
10 | 40:17.63 | 3:42.35 | 181338 | 198022
11 | 44:00.23 | 2:23.18 | 198023 | 208765
12 | 46:23.41 | 5:50.53 | 208766 | 235068
13 | 52:14.19 | 4:46.74 | 235069 | 256592
Характеристики диапазона извлечения и сообщения об ошибках
Выбранный диапазон
Имя файла E:\dvda\Utada Hikaru - Heart Station.wav
Пиковый уровень 100.0 %
Скорость извлечения 1.6 X
Качество диапазона 99.9 %
CRC копии A2429A2B
Копирование... OK
Ошибок не произошло
Конец отчёта
==== Контрольная сумма отчёта 5640F409FE45BDB6C40C3B5F50C18C0DA5B771F56D0DED6CFC00A771F9C6755B ====
Содержание индексной карты (.CUE)
REM GENRE J-POP
REM DATE 2008
REM DISCID BD0D5D0D
REM COMMENT "ExactAudioCopy v1.0b3"
PERFORMER "Utada Hikaru"
TITLE "Heart Station"
FILE "Utada Hikaru - Heart Station.flac" WAVE
TRACK 01 AUDIO
TITLE "Fight The Blues"
PERFORMER "Utada Hikaru"
ISRC JPTO00800023
INDEX 01 00:00:00
TRACK 02 AUDIO
TITLE "HEART STATION"
PERFORMER "Utada Hikaru"
ISRC JPTO00702546
INDEX 01 04:10:20
TRACK 03 AUDIO
TITLE "Beautiful World"
PERFORMER "Utada Hikaru"
ISRC JPTO00700774
INDEX 01 08:46:67
TRACK 04 AUDIO
TITLE "Flavor Of Life -Ballad Version-"
PERFORMER "Utada Hikaru"
ISRC JPTO00602103
INDEX 01 14:04:63
TRACK 05 AUDIO
TITLE "Stay Gold"
PERFORMER "Utada Hikaru"
ISRC JPTO00702431
INDEX 01 19:30:14
TRACK 06 AUDIO
TITLE "Kiss & Cry"
PERFORMER "Utada Hikaru"
ISRC JPTO00700566
INDEX 01 24:44:66
TRACK 07 AUDIO
TITLE "Gentle Beast Interlude"
PERFORMER "Utada Hikaru"
ISRC JPTO00800024
INDEX 01 29:51:12
TRACK 08 AUDIO
TITLE "Celebrate"
PERFORMER "Utada Hikaru"
ISRC JPTO00800025
INDEX 01 31:04:29
TRACK 09 AUDIO
TITLE "Prisoner Of Love"
PERFORMER "Utada Hikaru"
ISRC JPTO00800026
INDEX 01 35:31:25
TRACK 10 AUDIO
TITLE "Teiku 5"
PERFORMER "Utada Hikaru"
ISRC JPTO00800027
INDEX 01 40:17:63
TRACK 11 AUDIO
TITLE "Boku wa Kuma"
PERFORMER "Utada Hikaru"
ISRC JPTO00601518
INDEX 01 44:00:23
TRACK 12 AUDIO
TITLE "'Niji-iro Basu"
PERFORMER "Utada Hikaru"
ISRC JPTO00800028
INDEX 01 46:23:41
TRACK 13 AUDIO
TITLE "Flavor Of Life (Bonus Track)"
PERFORMER "Utada Hikaru"
ISRC JPTO00602102
INDEX 01 52:14:19
Зарегистрирован:
  • 22-Июл-12 18:15
  • Скачан: 718 раз

Скачать .torrent

20 KB

Тип: обычная
Статус: проверено
Размер: 470.1 MB  ·  magnetCB0BA5EEBB4BDD7088E1DB65F0E69B19C9B0AE1C
  • Свернуть поддиректории
  • Развернуть
  • Переключить
  • Увел./умен. окно
загружается...
 
All rights reserved © 2017-2018
Loading...
Error