(Cpop) Teresa Teng - Mandarin Collection Series Vol3 - 2003, FLAC (image+.cue), lossless

Статистика раздачи
Размер:  422.5 MB   |   Зарегистрирован:  6 лет 4 месяца   |   .torrent скачан:  666 раз
Сиды:  2
Автор
Сообщение

guzonka

Стаж: 11 лет 1 месяц

Сообщений: 1161

flag

guzonka · 23-Июл-12 19:41 (6 лет 4 месяца назад)

 

Teresa Teng / Mandarin Collection Series Vol3
Жанр: Cpop
Страна-производитель диска: Singapour
Год издания: 2003
Издатель (лейбл): Jutian culture
Номер по каталогу: DCD-756
Страна: Taiwan
Аудиокодек: FLAC (*.flac)
Тип рипа: image+.cue
Битрейт аудио: lossless
Продолжительность: 60:28
Источник (релизер): guzonka
Наличие сканов в содержимом раздачи: да
Треклист:
01. The SpringOf The Northland [0:03:54.54]
02. Ask The Oneself [0:04:24.10]
03. The Lover's Concern [0:03:49.46]
04. The Think Of The Small Village [0:03:39.51]
05. The Miss Of Night Fog Bottom [0:04:26.65]
06. The Old Dream Looks For Here [0:03:59.53]
07. The Night Of Hong Kong [0:03:39.50]
08. The Tonight Reminds Of You [0:03:49.45]
09. The Previous Incarnation Decrees By Destiny [0:03:45.12]
10. In Fine Threads Light Rain [0:03:37.33]
11. That Promise [0:03:53.18]
12. Front Of The Garment Spit [0:04:17.48]
13. Is Not Spring Rain To Be Had No [0:02:29.35]
14. Sweet Light Rain [0:03:22.49]
15. The Romance Of The Winter [0:03:41.43]
16. Take A Stroll Person's Way Out [0:03:37.49]
Лог создания рипа
Exact Audio Copy V1.0 beta 3 from 29. August 2011
Отчёт EAC об извлечении, выполненном 23. июля 2012, 22:20
Teresa Teng / Mandarin Collection Series Vol3
Дисковод: PIONEER DVD-RW DVR-219L Adapter: 0 ID: 0
Режим чтения : Достоверность
Использование точного потока : Да
Отключение кэша аудио : Да
Использование указателей C2 : Нет
Коррекция смещения при чтении : 6
Способность читать области Lead-in и Lead-out : Нет
Заполнение пропущенных сэмплов тишиной : Да
Удаление блоков с тишиной в начале и конце : Нет
При вычислениях CRC использовались нулевые сэмплы : Да
Интерфейс : Встроенный Win32-интерфейс для Win NT/2000
Выходной формат : Пользовательский кодировщик
Выбранный битрейт : 640 kBit/s
Качество : Высокий
Добавление ID3-тега : Нет
Утилита сжатия : C:\Program Files (x86)\Exact Audio Copy\Flac\flac.exe
Дополнительные параметры : -V -8 -T "Date=%year%" -T "Genre=%genre%" %source%
TOC извлечённого CD
Трек | Старт | Длительность | Начальный сектор | Конечный сектор
---------------------------------------------------------------------
1 | 0:00.00 | 3:54.54 | 0 | 17603
2 | 3:54.54 | 4:24.10 | 17604 | 37413
3 | 8:18.64 | 3:49.46 | 37414 | 54634
4 | 12:08.35 | 3:39.51 | 54635 | 71110
5 | 15:48.11 | 4:26.65 | 71111 | 91125
6 | 20:15.01 | 3:59.53 | 91126 | 109103
7 | 24:14.54 | 3:39.50 | 109104 | 125578
8 | 27:54.29 | 3:49.45 | 125579 | 142798
9 | 31:43.74 | 3:45.12 | 142799 | 159685
10 | 35:29.11 | 3:37.33 | 159686 | 175993
11 | 39:06.44 | 3:53.18 | 175994 | 193486
12 | 42:59.62 | 4:17.48 | 193487 | 212809
13 | 47:17.35 | 2:29.35 | 212810 | 224019
14 | 49:46.70 | 3:22.49 | 224020 | 239218
15 | 53:09.44 | 3:41.43 | 239219 | 255836
16 | 56:51.12 | 3:37.49 | 255837 | 272160
Характеристики диапазона извлечения и сообщения об ошибках
Выбранный диапазон
Имя файла E:\dvda\Teresa Teng - Mandarin Collection Series Vol3.wav
Пиковый уровень 86.3 %
Скорость извлечения 1.8 X
Качество диапазона 100.0 %
CRC теста CC0BA1D8
CRC копии CC0BA1D8
Копирование... OK
Ошибок не произошло
Конец отчёта
==== Контрольная сумма отчёта 5CF671FD7BA3EBE4E2F599C7A7ABD65413E4070E2E2516647FECEC0848A42AA7 ====
Содержание индексной карты (.CUE)
REM GENRE Pop-Folk
REM DATE 2003
REM DISCID DA0E2C10
REM COMMENT "ExactAudioCopy v1.0b3"
PERFORMER "Teresa Teng"
TITLE "Mandarin Collection Series Vol3"
FILE "Teresa Teng - Mandarin Collection Series Vol3.flac" WAVE
TRACK 01 AUDIO
TITLE "The SpringOf The Northland"
PERFORMER "Teresa Teng"
INDEX 01 00:00:00
TRACK 02 AUDIO
TITLE "Ask The Oneself"
PERFORMER "Teresa Teng"
INDEX 01 03:54:54
TRACK 03 AUDIO
TITLE "The Lover's Concern"
PERFORMER "Teresa Teng"
INDEX 01 08:18:64
TRACK 04 AUDIO
TITLE "The Think Of The Small Village"
PERFORMER "Teresa Teng"
INDEX 01 12:08:35
TRACK 05 AUDIO
TITLE "The Miss Of Night Fog Bottom"
PERFORMER "Teresa Teng"
INDEX 00 15:47:62
INDEX 01 15:48:11
TRACK 06 AUDIO
TITLE "The Old Dream Looks For Here"
PERFORMER "Teresa Teng"
INDEX 01 20:15:01
TRACK 07 AUDIO
TITLE "The Night Of Hong Kong"
PERFORMER "Teresa Teng"
INDEX 01 24:14:54
TRACK 08 AUDIO
TITLE "The Tonight Reminds Of You"
PERFORMER "Teresa Teng"
INDEX 00 27:54:05
INDEX 01 27:54:29
TRACK 09 AUDIO
TITLE "The Previous Incarnation Decrees By Destiny"
PERFORMER "Teresa Teng"
INDEX 00 31:43:50
INDEX 01 31:43:74
TRACK 10 AUDIO
TITLE "In Fine Threads Light Rain"
PERFORMER "Teresa Teng"
INDEX 00 35:28:62
INDEX 01 35:29:11
TRACK 11 AUDIO
TITLE "That Promise"
PERFORMER "Teresa Teng"
INDEX 00 39:06:20
INDEX 01 39:06:44
TRACK 12 AUDIO
TITLE "Front Of The Garment Spit"
PERFORMER "Teresa Teng"
INDEX 00 42:59:38
INDEX 01 42:59:62
TRACK 13 AUDIO
TITLE "Is Not Spring Rain To Be Had No"
PERFORMER "Teresa Teng"
INDEX 01 47:17:35
TRACK 14 AUDIO
TITLE "Sweet Light Rain"
PERFORMER "Teresa Teng"
INDEX 01 49:46:70
TRACK 15 AUDIO
TITLE "The Romance Of The Winter"
PERFORMER "Teresa Teng"
INDEX 01 53:09:44
TRACK 16 AUDIO
TITLE "Take A Stroll Person's Way Out"
PERFORMER "Teresa Teng"
INDEX 01 56:51:12
Зарегистрирован:
  • 23-Июл-12 19:41
  • Скачан: 666 раз

Скачать .torrent

18 KB

Тип: обычная
Статус: проверено
Размер: 422.5 MB  ·  magnet9F81507F51F2177389CD7A4FBEECCDD843EB066E
  • Свернуть поддиректории
  • Развернуть
  • Переключить
  • Увел./умен. окно
загружается...

dsjkghh

Стаж: 7 лет 6 месяцев

Сообщений: 7

flag

dsjkghh · 05-Янв-13 19:25 (спустя 5 месяцев 12 дней)

Большое спасибо за диск. Красиво поет женщина.
 
All rights reserved © 2017-2018
Loading...
Error