Мегрэ у министра (Вячеслав Бровкин) [1987, детектив, экранизация, DVB]

Статистика раздачи
Размер:  3.7 GB   |   Зарегистрирован:  6 лет 1 месяц   |   .torrent скачан:  1,452 раза
Сиды:  1   Личи:  1
Автор
Сообщение

Cheef mate

Стаж: 10 лет 9 месяцев

Сообщений: 2811

flag

Cheef mate · 04-Окт-12 13:05 (6 лет 1 месяц назад)

 

Мегрэ у министра (2 серии)
Жанр: детектив, экранизация
Год выпуска: 1987
Продолжительность: 01:12:34 + 01:04:19
Режиссёр: Вячеслав Бровкин
В ролях: Армен Джигарханян, Пётр Вельяминов, Борис Химичев, Владимир Изотов, Аркадий Песелев, Игорь Кашинцев, Игорь Верник, Геннадий Коротков, Инна Кара-Моско, Галикс (Георгий) Колчицкий, Юрий Волков, Сергей Тарамаев, Людмила Аринина, Николай Салант, Светлана Мизери, Елена Мольченко (Фатюшина), Виталий Варганов, Виктор Вишняк
Описание: По роману Жоржа Сименона (перевод Э.Космаш).
Однажды вечером в доме комиссара Мегрэ раздается звонок. Министр строительства Пуан просит комиссара срочно приехать к нему на квартиру, сохраняя эту просьбу в тайне от полицейского начальства. При встрече выясняется, что из квартиры министра исчез доклад, с которым Пуан должен был через два дня выступать на заседании правительства.
Доп. информация: Запись потока *.ts со спутника EUTELSAT, ремукс в *.mpg программой VideoReDo.
Качество видео: DVB
Формат видео: MPEG-PS
Аудио кодек: MP2
Видео кодек: MPEG-2
Видео: MPEG Video, 720x576 (4 : 3), 25,000 кадров/сек, 3593 Кбит/сек
Аудио: MPEG Audio, 48,0 КГц, 192 Кбит/сек, 2 канала
MediaInfo
Общее
Полное имя : E:\Torrent\Мегрэ у министра\1.mpg
Формат : MPEG-PS
Размер файла : 1,96 Гбайт
Продолжительность : 1 ч. 12 м.
Режим общего битрейта : Переменный
Общий поток : 3862 Кбит/сек
Видео
Идентификатор : 224 (0xE0)
Формат : MPEG Video
Версия формата : Version 2
Профиль формата : Main@Main
Параметр BVOP формата : Да
Параметр матрицы формата : По умолчанию
Параметр GOP формата : M=3, N=12
Продолжительность : 1 ч. 12 м.
Вид битрейта : Переменный
Битрейт : 3593 Кбит/сек
Максимальный битрейт : 5000 Кбит/сек
Ширина : 720 пикселей
Высота : 576 пикселей
Соотношение сторон : 4:3
Частота кадров : 25,000 кадров/сек
Стандарт вещания : PAL
Цветовое пространство : YUV
Субдискретизация насыщенности : 4:2:0
Битовая глубина : 8 бит
Тип развёртки : Чересстрочная
Порядок развёртки : Верхнее поле первое
Метод сжатия : С потерями
Бит/(Пиксели*Кадры) : 0.347
Размер потока : 1,82 Гбайт (93%)
Аудио
Идентификатор : 192 (0xC0)
Формат : MPEG Audio
Версия формата : Version 1
Профиль формата : Layer 2
Продолжительность : 1 ч. 12 м.
Вид битрейта : Постоянный
Битрейт : 192 Кбит/сек
Каналы : 2 канала
Частота : 48,0 КГц
Метод сжатия : С потерями
Размер потока : 99,6 Мбайт (5%)
Общее
Полное имя : E:\Torrent\Мегрэ у министра\2.mpg
Формат : MPEG-PS
Размер файла : 1,75 Гбайт
Продолжительность : 1 ч. 4 м.
Режим общего битрейта : Переменный
Общий поток : 3885 Кбит/сек
Видео
Идентификатор : 224 (0xE0)
Формат : MPEG Video
Версия формата : Version 2
Профиль формата : Main@Main
Параметр BVOP формата : Да
Параметр матрицы формата : По умолчанию
Параметр GOP формата : M=3, N=12
Продолжительность : 1 ч. 4 м.
Вид битрейта : Переменный
Битрейт : 3615 Кбит/сек
Максимальный битрейт : 5000 Кбит/сек
Ширина : 720 пикселей
Высота : 576 пикселей
Соотношение сторон : 4:3
Частота кадров : 25,000 кадров/сек
Стандарт вещания : PAL
Цветовое пространство : YUV
Субдискретизация насыщенности : 4:2:0
Битовая глубина : 8 бит
Тип развёртки : Чересстрочная
Порядок развёртки : Верхнее поле первое
Метод сжатия : С потерями
Бит/(Пиксели*Кадры) : 0.349
Размер потока : 1,62 Гбайт (93%)
Аудио
Идентификатор : 192 (0xC0)
Формат : MPEG Audio
Версия формата : Version 1
Профиль формата : Layer 2
Продолжительность : 1 ч. 4 м.
Вид битрейта : Постоянный
Битрейт : 192 Кбит/сек
Каналы : 2 канала
Частота : 48,0 КГц
Метод сжатия : С потерями
Размер потока : 88,3 Мбайт (5%)
Скриншоты
Зарегистрирован:
  • 04-Окт-12 13:05
  • Скачан: 1,452 раза

Скачать .torrent

19 KB

Тип: обычная
Статус: проверено
Размер: 3.7 GB  ·  magnet5161197037644FEB934DF44CA3D0DEB0D0602D0F
  • Свернуть поддиректории
  • Развернуть
  • Переключить
  • Увел./умен. окно
загружается...
Раздаю до первых 5 сидов. Раздачи не поддерживаю. Пишите ЛС скачавшим. Ники пользователей под спойлером "Спасибо" кликабельны.

dmitry2264

VIP (Заслуженный)

Стаж: 10 лет 1 месяц

Сообщений: 7849

flag

dmitry2264 · 04-Окт-12 19:07 (спустя 6 часов)

Cheef mate
Спасибо!
проверено

dmitry2264

VIP (Заслуженный)

Стаж: 10 лет 1 месяц

Сообщений: 7849

flag

dmitry2264 · 04-Окт-12 19:07 (спустя 9 сек., ред. 06-Окт-12 06:10)

  1. Вы можете обсудить данное видео создав тему в разделе "Поиск и обсуждение фильмов" ⇒

Микотрокс

Стаж: 7 лет 7 месяцев

Сообщений: 2860


Микотрокс · 01-Дек-13 23:18 (спустя 1 год 1 месяц)

Отличный спектакль, качайте эту версию - очень хорошее качество
 
All rights reserved © 2017-2018
Loading...
Error