(Melodic Hard Rock/AOR) Ten - Дискография 1996-2017 (Японские издания, 20 альбомов), FLAC (image+.cue), lossless

Статистика раздачи
Размер:  11.11 GB   |   Зарегистрирован:  1 год 4 месяца   |   .torrent скачан:  1,339 раз
Сиды:  6   Личи:  3
Автор
Сообщение

kolushew

Стаж: 9 лет 10 месяцев

Сообщений: 2403

flag

kolushew · 10-Окт-12 15:16 (6 лет 1 месяц назад, ред. 01-Июл-17 19:42)

 

Дискография 1996-2017Жанр: Melodic Hard Rock/AOR
Страна-производитель дисков: Japan
Страна: England
Аудиокодек: FLAC (*.flac)
Тип рипа: image+.cue
Битрейт аудио: lossless
Продолжительность: много
Источник: собственные рипы с личных CD
Наличие сканов в содержимом раздачи: да
О группе
Манчестерская AOR-команда "Ten" без особых проблем покорила японский рынок, однако Европа и Америка поначалу не обращали на нее особого внимания. Что касается домашних успехов, то наивысшим достижением "десятки" являлось регулярное появление в качестве хедлайнера на клубных гастролях "The Gods", организуемых ее лейблом "Now & Then Records". В начале 90-х вокалист Гэри Хьюз выпустил пару сольных альбомов, а когда собрался записывать третью пластинку, к нему присоединились два выходца из "Dare", гитарист Винни Бернс и барабанщик Грег Морган. Так уж вышло, что сессии приобрели командный характер, и новорожденный проект получил название "Ten". Альбом, спродюсированный Майком Стоуном ("Journey", "Queen", "Foreigner"), сильно взбаламутил японскую публику, и на островах было раскуплено свыше 20000 копий пластинки.
Тем временем Хьюз доукомплектовал состав с помощью гитариста Джона Холливелла, клавишника Геда Райландса и басиста Мартина Шелтона, и группа быстренько смоталась в первое корпоративное турне. Осенью 1996-го в продажу поступила вторая полнометражка и сразу же началась работа над третьим альбомом.
Если на "The Name Of The Rose" Хьюз потеснил Стоуна в продюсировании, оставив на долю последнего лишь микширование, то на "The Robe" постановкой звука и другими "хозработами" он единолично. Третий студийник стал для "Ten" большим шагом вперед – ведь на нем музыканты продемонстрировали тягу к созданию эпической и величественной атмосферы. Тем временем в стане басистов успели пройти две замены: сначала четырехструнка отошла к Эндрю Веббу, а затем инструмент достался Стиву МакКенне. Очередные гастроли никак не могли пройти без посещения Японии, а по итогам визита на острова был выпущен двойной концертник "Never Say Goodbye". Если после первой пластинки "Ten" постепенно продвигались к более жесткому звучанию, то на "Spellbound" музыканты представили разноплановый материал и разбавили прямолинейные рокешники балладами и кельтскими мотивами.
Данный альбом стал последним для Геда Райландса (подавшегося в проект "Arabia"), и на очередных сессиях и в туре 2000 года "десятку" выручил экс-участник "Rainbow" Дон Эйри. Концептуальная работа "Babylon", записанная с легендарным клавишником, звучала тяжелее предшествующего релиза, однако "Ten" сохранили фирменную мелодичность.
Уже после выхода диска вместо Эйри в команде на официальной основе появился Пол Ходсон, ранее сотрудничавший с "Hard Rain". Изданный в 2001 году альбом "Far Beyond The World" обозначил возвращение группы к раннему саунду времен "The Name Of The Rose" и "The Robe". К сожалению, когда команда собралась на промо-гастроли, о своей отставке объявил один из основателей коллектива, Винни Бернс. Замена ему нашлась довольно быстро, и уже в начале 2002-го гитару подхватил Крис Фрэнсис, но выход очередного студийника подзадержался. "Return To Evermore" получился довольно мягким и наиболее подходящим под определение AOR релизом, а вслед за этим альбомом в свет вышла юбилейная коллекция "The Essential Collection 1995–2005".
Старые вещи здесь были перезаписаны заново, причем на первом диске присутствовали только рокешники, а на втором – только баллады. К своему восьмому студийнику "Ten" пришли без официальной ритм-секции, и если басовые партии на "The Twilight Chronicles" исполнил Фрэнсис, то за ударными сидел сессионщик.
Почти 5 лет понадобилось Хьюзу, чтобы реанимировать свое детище. Из старых коллег на записи нового альбома Stormwarning принял участие только клавишник Пол Ходсон. В остальном состав группы полностью обновился, зато за ударной установкой место занял Марк Зондер из Fates Warning.
Самым верным решением Хьюза в этот раз стало то, что звукорежиссуру он отдал в руки мастеру Дэнису Варду. Так уж вышло, что звук в последних работах британца был ниже всякой критики, а потому довериться специалисту - самый правильный ход.
Обложка от Луиса Ройо возвращает нас во времена пафосных и успешных «Spellbound» и «Babylon». И вообще чувствуется, что Хьюз очень хочет повернуть время вспять. В те годы, когда он был молод, а мелодичный рок правил хит-парадами.
Снова знакомая смесь из помп-рока Magnum, Rainbow времен Джо Линн Тернера, а также все фирменные наработки самих TEN за все их 15 лет карьеры. Может быть, того самого шторма, о котором нас предупреждает заголовок альбома, и не случилось, но со времен «Far Beyond the World» это определенно лучшая работа группы.
Плотный хард-рок в открывающих «Endless Symphony» и «Centre of My Universe», за счет оркестровок и продолжительности самих песен, больше напоминает Rhapsody. Зато баллады «Book of Secrets» и «Love Song» (ну так уже вступление напоминает «Send Her My Love» Journey) – это TEN в лучшем их виде. «The Hourglass and the Landslide» - лучшая песня альбома и один из самых сильных AOR-номеров этого года снимает все вопросы об авторском таланте Гэри Хьюза.
Окрыленный успехом, Хьюз не стал затягивать с записью следующего творения и TEN уже завершили работу над альбомом, получившим название "Heresy and Creed", выход которого намечен на осень 2012 на Frontiers Records. Продюсирование и сведение вновь провел Dennis Ward (Pink Cream 69, Sunstorm, Place Vendome). Gary Hughes: "Это особенно сильная подборка материала. Я считаю, что это, возможно, наша самая зрелая и разнообразная подборка песен за всю карьеру. Проще говоря, здесь есть все для всех и на любой вкус".
1996 (96-4-10) – Ten (X) (Zero, XRCN-1270)
Продолжительность: 62:15
Треклист:
1. i) - The Crusades
ii) - It's All About Love - 8:06
2. After The Love Has Gone - 5:27
3. Yesterday Lies In The Flames - 5:06
4. The Torch - 5:25
5. Stay With Me - 5:52
6. Close Your Eyes And Dream - 6:24
7. Eyes Of A Child - 5:02
8. Can't Slow Down - 5:29
9. Lamb To The Slaughter - 4:50
10. i) - Soliloquy
ii) - The Loneliest Place In The World - 10:32
Автор всех песен Gary Hughes, за исключением "The Crusaders" - авторы Gary Hughes и Vinny Burns
Продюсеры Gary Hughes и Mike Stone
Состав группы:
Ten это:
Gary Hughes - all lead & backing vocals
Vinny Burns - all electric & acoustic guitars
Greg Morgan - all drums & percussion
Дополнительные музыканты:
Mark Harrison - bass guitar
Lee Goulding - keyboards
Howard Smith - keyboards
Andy Thompson - keyboards
Francis Cummings, Peter Leighton-Jones, John Wade - first violins
Fiona Payne, Julia Parsons - second violins
Jean Ambrose, Anne Morrison - violas
Anna Frazer - cello
Лог создания рипа
Exact Audio Copy V1.0 beta 3 from 29. August 2011
EAC extraction logfile from 10. July 2012, 16:07
Ten / Ten
Used drive : SlimtypeDVD A DS8A5SH Adapter: 0 ID: 1
Read mode : Secure
Utilize accurate stream : Yes
Defeat audio cache : Yes
Make use of C2 pointers : No
Read offset correction : 6
Overread into Lead-In and Lead-Out : No
Fill up missing offset samples with silence : Yes
Delete leading and trailing silent blocks : No
Null samples used in CRC calculations : Yes
Used interface : Native Win32 interface for Win NT & 2000
Used output format : User Defined Encoder
Selected bitrate : 320 kBit/s
Quality : High
Add ID3 tag : No
Command line compressor : C:\Program Files (x86)\Exact Audio Copy\Flac\flac.exe
Additional command line options : -V -8 -T "Date=%year%" -T "Genre=%genre%" %source%
TOC of the extracted CD
Track | Start | Length | Start sector | End sector
---------------------------------------------------------
1 | 0:00.00 | 8:06.02 | 0 | 36451
2 | 8:06.02 | 5:27.10 | 36452 | 60986
3 | 13:33.12 | 5:06.13 | 60987 | 83949
4 | 18:39.25 | 5:25.60 | 83950 | 108384
5 | 24:05.10 | 5:52.22 | 108385 | 134806
6 | 29:57.32 | 6:24.23 | 134807 | 163629
7 | 36:21.55 | 5:02.50 | 163630 | 186329
8 | 41:24.30 | 5:29.37 | 186330 | 211041
9 | 46:53.67 | 4:50.40 | 211042 | 232831
10 | 51:44.32 | 10:30.25 | 232832 | 280106
Range status and errors
Selected range
Filename D:\My Music\Ten - 1996 Ten (X)\Ten - Ten.wav
Peak level 100.0 %
Extraction speed 4.7 X
Range quality 100.0 %
Test CRC 2ADF88DA
Copy CRC 2ADF88DA
Copy OK
No errors occurred
AccurateRip summary
Track 1 accurately ripped (confidence 2) [3AA092A5] (AR v1)
Track 2 accurately ripped (confidence 2) [F3D3E76C] (AR v1)
Track 3 accurately ripped (confidence 2) [4E4AC799] (AR v1)
Track 4 accurately ripped (confidence 2) [44781A0B] (AR v1)
Track 5 accurately ripped (confidence 2) [0C340481] (AR v1)
Track 6 accurately ripped (confidence 2) [C9E9C4A7] (AR v1)
Track 7 accurately ripped (confidence 2) [A093DCE5] (AR v1)
Track 8 accurately ripped (confidence 2) [DABE5497] (AR v1)
Track 9 accurately ripped (confidence 2) [36BA6E01] (AR v1)
Track 10 accurately ripped (confidence 2) [11D49769] (AR v1)
All tracks accurately ripped
End of status report
---- CUETools DB Plugin V2.1.3
[CTDB TOCID: jiEPqA0DOBFtQYZ2oQuWleUm8Rk-] found, Submit result: jiEPqA0DOBFtQYZ2oQuWleUm8Rk- has been confirmed
[c8bf488b] (1/1) Accurately ripped
==== Log checksum 0CC097A3B6DBB226347E64DA2C1B871046DD85E2FE2B836EA6D16ADE59A944FE ====
1996 (96-9-11) – The Name Of The Rose (Zero, XRCN-1284)
Продолжительность: 77:44
Треклист:
1. The Name Of The Rose - 8:31
2. Wildest Dreams - 5:33
3. Don't Cry - 5:00
4. Turn Around - 3:52
5. The Pharaoh's Prelude: Ascension To The Afterlife - 3:54
6. Wait For You - 5:31
7. The Rainbow - 6:03
8. Through The Fire - 8:19
9. Goodnight Saigon - 7:02
10. Wings Of The Storm - 5:02
11. Standing In Your Light - 7:16
12. The Quest (bonus track) - 4:52
13. You're My Religion (bonus track) - 6:49
Автор всех песен Gary Hughes
Продюсеры Gary Hughes и Mike Stone
Состав группы:
Ten это:
Gary Hughes - vocals
Vinny Burns - guitars
Ged Rylands - keyboards
John Halliwell - guitars
Shelley - bass guitar
Greg Morgan - drums & percussion
Дополнительные музыканты:
Mark Harrison - bass guitar
Brian Cox, Howard Smith, Andy Thompson - keyboards
Jason Thanos - backing vocals on "Goodnight Saigon"
Jee Jacquet, Thierry Cardinet, Oliver Bourdin & Damien Guasp - the "Rocktime Chorus" on "Standing In Your Light"
Лог создания рипа
Exact Audio Copy V1.0 beta 3 from 29. August 2011
EAC extraction logfile from 8. June 2012, 23:28
Ten / The Name Of The Rose
Used drive : SlimtypeDVD A DS8A5SH Adapter: 0 ID: 1
Read mode : Secure
Utilize accurate stream : Yes
Defeat audio cache : Yes
Make use of C2 pointers : No
Read offset correction : 6
Overread into Lead-In and Lead-Out : No
Fill up missing offset samples with silence : Yes
Delete leading and trailing silent blocks : No
Null samples used in CRC calculations : Yes
Used interface : Native Win32 interface for Win NT & 2000
Used output format : User Defined Encoder
Selected bitrate : 320 kBit/s
Quality : High
Add ID3 tag : No
Command line compressor : C:\Program Files (x86)\Exact Audio Copy\Flac\flac.exe
Additional command line options : -V -8 -T "Date=%year%" -T "Genre=%genre%" %source%
TOC of the extracted CD
Track | Start | Length | Start sector | End sector
---------------------------------------------------------
1 | 0:00.00 | 8:31.22 | 0 | 38346
2 | 8:31.22 | 5:33.13 | 38347 | 63334
3 | 14:04.35 | 5:00.15 | 63335 | 85849
4 | 19:04.50 | 3:52.65 | 85850 | 103314
5 | 22:57.40 | 3:54.60 | 103315 | 120924
6 | 26:52.25 | 5:31.52 | 120925 | 145801
7 | 32:24.02 | 6:03.40 | 145802 | 173066
8 | 38:27.42 | 8:19.58 | 173067 | 210549
9 | 46:47.25 | 7:02.42 | 210550 | 242241
10 | 53:49.67 | 5:02.25 | 242242 | 264916
11 | 58:52.17 | 7:18.50 | 264917 | 297816
12 | 66:10.67 | 4:52.60 | 297817 | 319776
13 | 71:03.52 | 6:48.48 | 319777 | 350424
Range status and errors
Selected range
Filename D:\My Music\Ten (lossless)\Ten - 1996 The Name Of The Rose\Ten - The Name Of The Rose.wav
Peak level 100.0 %
Extraction speed 5.2 X
Range quality 100.0 %
Test CRC 6898FE31
Copy CRC 6898FE31
Copy OK
No errors occurred
AccurateRip summary
Track 1 accurately ripped (confidence 4) [DCE810AB] (AR v1)
Track 2 accurately ripped (confidence 4) [1D007E2F] (AR v1)
Track 3 accurately ripped (confidence 4) [75D6DE0B] (AR v1)
Track 4 accurately ripped (confidence 4) [9534D7EA] (AR v1)
Track 5 accurately ripped (confidence 4) [820F7203] (AR v1)
Track 6 accurately ripped (confidence 4) [51625DB7] (AR v1)
Track 7 accurately ripped (confidence 4) [3FCE658C] (AR v1)
Track 8 accurately ripped (confidence 4) [8899A13F] (AR v1)
Track 9 accurately ripped (confidence 4) [5532D50C] (AR v1)
Track 10 accurately ripped (confidence 4) [7C31A69D] (AR v1)
Track 11 accurately ripped (confidence 4) [8F6A66C6] (AR v1)
Track 12 accurately ripped (confidence 4) [785DF25B] (AR v1)
Track 13 accurately ripped (confidence 4) [F3822BFE] (AR v1)
All tracks accurately ripped
End of status report
==== Log checksum C14B6E63AAE78E934510D807F3C83C9049F31B7DA7D4B0BB5DD5F3C0215B2FFF ====
1996 (96-12-4) – The Name Of The Rose EP (Zero, XRCN-1291)
Продолжительность: 34:49
Треклист:
1. The Name Of The Rose (edit version) - 6:16
2. When Only Love Can Ease The Pain (previousley unreleased) - 5:59
3. After The Long Has Gone (live version) - 5:21
4. Can't Slow Down (live version) - 6:18
5. The Name Of The Rose (karaoke version) - 8:43
6. Message From Gary Hughes - 2:11
Автор всех песен Gary Hughes
Продюсеры Gary Hughes и Mike Stone
Состав группы:
Gary Hughes - vocals
Vinny Burns - guitars
Ged Rylands - keyboards
John Halliwell - guitars
Shelley - bass guitar
Greg Morgan - drums & percussion
Лог создания рипа
Exact Audio Copy V1.0 beta 3 from 29. August 2011
EAC extraction logfile from 29. May 2012, 23:46
Ten / The Name Of The Rose EP
Used drive : SlimtypeDVD A DS8A5SH Adapter: 0 ID: 1
Read mode : Secure
Utilize accurate stream : Yes
Defeat audio cache : Yes
Make use of C2 pointers : No
Read offset correction : 6
Overread into Lead-In and Lead-Out : No
Fill up missing offset samples with silence : Yes
Delete leading and trailing silent blocks : No
Null samples used in CRC calculations : Yes
Used interface : Native Win32 interface for Win NT & 2000
Used output format : User Defined Encoder
Selected bitrate : 320 kBit/s
Quality : High
Add ID3 tag : No
Command line compressor : C:\Program Files (x86)\Exact Audio Copy\Flac\flac.exe
Additional command line options : -V -8 -T "Date=%year%" -T "Genre=%genre%" %source%
TOC of the extracted CD
Track | Start | Length | Start sector | End sector
---------------------------------------------------------
1 | 0:00.00 | 6:15.50 | 0 | 28174
2 | 6:15.50 | 5:59.10 | 28175 | 55109
3 | 12:14.60 | 5:21.00 | 55110 | 79184
4 | 17:35.60 | 6:18.20 | 79185 | 107554
5 | 23:54.05 | 8:43.35 | 107555 | 146814
6 | 32:37.40 | 2:11.37 | 146815 | 156676
Range status and errors
Selected range
Filename D:\My Music\Ten (lossless)\Ten - 1996 The Name Of The Rose (ep)\Ten - The Name Of The Rose EP.wav
Peak level 100.0 %
Extraction speed 3.9 X
Range quality 100.0 %
Test CRC FBAC977D
Copy CRC FBAC977D
Copy OK
No errors occurred
AccurateRip summary
Track 1 accurately ripped (confidence 1) [3247A7C0] (AR v1)
Track 2 accurately ripped (confidence 1) [517C8B0B] (AR v1)
Track 3 accurately ripped (confidence 1) [41370B44] (AR v1)
Track 4 accurately ripped (confidence 1) [59B0F365] (AR v1)
Track 5 accurately ripped (confidence 1) [602624F2] (AR v1)
Track 6 accurately ripped (confidence 1) [E6A3C77A] (AR v1)
All tracks accurately ripped
End of status report
==== Log checksum B4222E8B7EC8E886682F113B9423DA0BC1A7FBE6F2696840A0E6528BFD3936BB ====
1997 (97-9-26) – The Robe (Zero, XRCN-2009)
Продолжительность: 65:31
Треклист:
1. The Robe - 9:04
2. Bright On The Blade - 4:50
3. Standing On The Edge Of Time - 5:01
4. Virtual Reality - 5:48
5. Arcadia - 7:34
6. Battlelines - 4:17
7. You're In My Heart - 6:38
8. Fly Like An Eagle - 7:12
9. Ten Fathoms Deep - 7:09
10. Someday - 7:58
Автор всех песен Gary Hughes, за исключением "Standing On The Edge Of Time" and "Someday" - авторы Gary Hughes и Vinny Burns
Продюсер Gary Hughes
Состав группы:
Ten это:
Gary Hughes - vocals
Vinny Burns - guitars
Ged Rylands - keyboards
John Halliwell - guitars
Greg Morgan - drums
Дополнительные музыканты:
Andrew Webb - bass guitar
Ed Collins - Trumpet and flugethorn
Oru Baker - tenor and alto saxaphones
Jason Thanos - backing vocals
Ray Brobhy - backing vocals
Dave Chadwick - voiceovers
Лог создания рипа
Exact Audio Copy V1.0 beta 3 from 29. August 2011
EAC extraction logfile from 3. June 2012, 17:34
Ten / The Robe
Used drive : SlimtypeDVD A DS8A5SH Adapter: 0 ID: 1
Read mode : Secure
Utilize accurate stream : Yes
Defeat audio cache : Yes
Make use of C2 pointers : No
Read offset correction : 6
Overread into Lead-In and Lead-Out : No
Fill up missing offset samples with silence : Yes
Delete leading and trailing silent blocks : No
Null samples used in CRC calculations : Yes
Used interface : Native Win32 interface for Win NT & 2000
Used output format : User Defined Encoder
Selected bitrate : 320 kBit/s
Quality : High
Add ID3 tag : No
Command line compressor : C:\Program Files (x86)\Exact Audio Copy\Flac\flac.exe
Additional command line options : -V -8 -T "Date=%year%" -T "Genre=%genre%" %source%
TOC of the extracted CD
Track | Start | Length | Start sector | End sector
---------------------------------------------------------
1 | 0:00.00 | 9:04.45 | 0 | 40844
2 | 9:04.45 | 4:51.55 | 40845 | 62724
3 | 13:56.25 | 5:49.10 | 62725 | 88909
4 | 19:45.35 | 5:03.07 | 88910 | 111641
5 | 24:48.42 | 6:38.33 | 111642 | 141524
6 | 31:27.00 | 7:13.20 | 141525 | 174019
7 | 38:40.20 | 7:34.65 | 174020 | 208134
8 | 46:15.10 | 7:10.22 | 208135 | 240406
9 | 53:25.32 | 4:18.73 | 240407 | 259829
10 | 57:44.30 | 7:58.50 | 259830 | 295729
Range status and errors
Selected range
Filename D:\My Music\Ten (lossless)\Ten - 1997 The Robe\Ten - The Robe.wav
Peak level 98.8 %
Extraction speed 5.0 X
Range quality 100.0 %
Test CRC 9C7DFDFE
Copy CRC 9C7DFDFE
Copy OK
No errors occurred
AccurateRip summary
Track 1 accurately ripped (confidence 3) [0202219D] (AR v1)
Track 2 accurately ripped (confidence 3) [9EE54350] (AR v1)
Track 3 accurately ripped (confidence 3) [F1E51F08] (AR v1)
Track 4 accurately ripped (confidence 3) [28FB3BB1] (AR v1)
Track 5 accurately ripped (confidence 3) [346969EE] (AR v1)
Track 6 accurately ripped (confidence 3) [A3F7B6BA] (AR v1)
Track 7 accurately ripped (confidence 3) [ECE39FEE] (AR v1)
Track 8 accurately ripped (confidence 3) [29F9EE06] (AR v1)
Track 9 accurately ripped (confidence 3) [4D4F0D9E] (AR v1)
Track 10 accurately ripped (confidence 3) [0163053A] (AR v1)
All tracks accurately ripped
End of status report
==== Log checksum BAA5D4570543E4AA98C8CB2473EF3703BC2C587051C58572A7AD0BE730F25E4D ====
1997 (97-9-18) – The Robe EP (Zero, XRCN-2008)
Продолжительность: 25:13
Треклист:
1. The Robe (EP Version) - 5:33
2. Warpath (For EP Only) - 3:50
3. Venus And Mars (For EP Only) - 4:35
4. Give Me A Piece Of Your Heart (For Ep Only) - 5:42
5. The Robe (karaoke version) - 5:31
Автор всех песен Gary Hughes, за исключением "Give Me A Piece Of Your Heart" - авторы Gary Hughes и Vinny Burns
Продюсер Gary Hughes
Состав группы:
Gary Hughes - vocals
Vinny Burns - guitars
Ged Rylands - keyboards
John Halliwell - guitars
Greg Morgan - drums & percussion
Лог создания рипа
Exact Audio Copy V1.0 beta 3 from 29. August 2011
EAC extraction logfile from 29. May 2012, 23:18
Ten / The Robe EP
Used drive : SlimtypeDVD A DS8A5SH Adapter: 0 ID: 1
Read mode : Secure
Utilize accurate stream : Yes
Defeat audio cache : Yes
Make use of C2 pointers : No
Read offset correction : 6
Overread into Lead-In and Lead-Out : No
Fill up missing offset samples with silence : Yes
Delete leading and trailing silent blocks : No
Null samples used in CRC calculations : Yes
Used interface : Native Win32 interface for Win NT & 2000
Used output format : User Defined Encoder
Selected bitrate : 320 kBit/s
Quality : High
Add ID3 tag : No
Command line compressor : C:\Program Files (x86)\Exact Audio Copy\Flac\flac.exe
Additional command line options : -V -8 -T "Date=%year%" -T "Genre=%genre%" %source%
TOC of the extracted CD
Track | Start | Length | Start sector | End sector
---------------------------------------------------------
1 | 0:00.00 | 5:33.02 | 0 | 24976
2 | 5:33.02 | 3:50.70 | 24977 | 42296
3 | 9:23.72 | 4:35.23 | 42297 | 62944
4 | 13:59.20 | 5:42.17 | 62945 | 88611
5 | 19:41.37 | 5:31.58 | 88612 | 113494
Range status and errors
Selected range
Filename D:\My Music\Ten (lossless)\Ten - 1997 The Robe (ep)\Ten - The Robe EP.wav
Peak level 100.0 %
Extraction speed 3.6 X
Range quality 99.9 %
Test CRC 8AEFDB59
Copy CRC 8AEFDB59
Copy OK
No errors occurred
AccurateRip summary
Track 1 accurately ripped (confidence 1) [923A95AB] (AR v1)
Track 2 accurately ripped (confidence 1) [5F8A404C] (AR v1)
Track 3 accurately ripped (confidence 1) [04B861E1] (AR v1)
Track 4 accurately ripped (confidence 1) [27D535D8] (AR v1)
Track 5 accurately ripped (confidence 1) [5C5CD8C8] (AR v1)
All tracks accurately ripped
End of status report
==== Log checksum 8B67A2D47B9D4E5BBC208D7F4EB279051BD67C2B37820546713ABD2515600BC1 ====
1997 (97-11-12) – You're In My Heart EP (Zero, XRCN-2015)
Продолжительность: 27:59
Треклист:
1. You're In My Heart (EP version) - 5:33
2. If Only For A Day (for EP only) - 8:13
3. Black Moon Rising (for EP only) - 4:06
4. To Die For (for EP only) - 4:34
5. You're In My Heart (karaoke version) - 5:33
Автор всех песен Gary Hughes, за исключением "To Die For" - авторы Gary Hughes и Vinny Burns
Продюсер Gary Hughes
Состав группы:
Gary Hughes - vocals
Vinny Burns - guitars
Ged Rylands - keyboards
John Halliwell - guitars
Greg Morgan - drums & percussion
Лог создания рипа
Exact Audio Copy V1.0 beta 3 from 29. August 2011
EAC extraction logfile from 22. May 2012, 14:18
TEN / You're In My Heart
Used drive : SlimtypeDVD A DS8A5SH Adapter: 0 ID: 1
Read mode : Secure
Utilize accurate stream : Yes
Defeat audio cache : Yes
Make use of C2 pointers : No
Read offset correction : 6
Overread into Lead-In and Lead-Out : No
Fill up missing offset samples with silence : Yes
Delete leading and trailing silent blocks : No
Null samples used in CRC calculations : Yes
Used interface : Native Win32 interface for Win NT & 2000
Used output format : User Defined Encoder
Selected bitrate : 320 kBit/s
Quality : High
Add ID3 tag : No
Command line compressor : C:\Program Files (x86)\Exact Audio Copy\Flac\flac.exe
Additional command line options : -V -8 -T "Date=%year%" -T "Genre=%genre%" %source%
TOC of the extracted CD
Track | Start | Length | Start sector | End sector
---------------------------------------------------------
1 | 0:00.00 | 5:33.42 | 0 | 25016
2 | 5:33.42 | 8:13.70 | 25017 | 62061
3 | 13:47.37 | 4:06.00 | 62062 | 80511
4 | 17:53.37 | 4:34.55 | 80512 | 101116
5 | 22:28.17 | 5:32.58 | 101117 | 126074
Range status and errors
Selected range
Filename D:\My Music\Ten (lossless)\Ten - 1997 You're In My Heart (ep)\TEN - You're In My Heart.wav
Peak level 98.8 %
Extraction speed 3.7 X
Range quality 100.0 %
Test CRC FAF5B056
Copy CRC FAF5B056
Copy OK
No errors occurred
AccurateRip summary
Track 1 accurately ripped (confidence 1) [A641FA93] (AR v1)
Track 2 accurately ripped (confidence 1) [A01A4C8E] (AR v1)
Track 3 accurately ripped (confidence 1) [22150D99] (AR v1)
Track 4 accurately ripped (confidence 1) [11B9AE01] (AR v1)
Track 5 accurately ripped (confidence 1) [AC940840] (AR v1)
All tracks accurately ripped
End of status report
==== Log checksum 989BC277D9210C60660906022B4260D36F7C0E8F4562FC63198074795DB7B50E ====
1998 (98-2-25) – Never Say Goodbye (live, 2CD) (Zero, XRCN-2021-2)
Треклист CD1:
Продолжительность: 71:05
1. The Robe - 9:12
2. Bright On The Blade - 4:52
3. Wildest Dreams - 5:24
4. The Torch - 5:47
5. Yesterday Lies In The Flames - 5:23
6. The Rainbow - 6:25
7. Goodnight Saigon - 6:58
8. Arcadia - 7:45
9. You're In My Heart (Acoustic) - 3:54
10. Close Your Eyes And Dream (Acoustic) - 2:24
11. Turn Around (Acoustic) - 1:36
12. The Loneliest Place In The World - 11:27
Треклист CD2:
Продолжительность: 63:49
1. The Crusades - 1:56
2. Don't Cry - 6:12
3. Ten Fathoms Deep - 7:09
4. After The Love Has Gone - 5:19
5. Stay With Me - 5:20
6. Standing On The Edge Of Time - 5:08
7. Fly Like An Eagle - 7:40
8. Drum Solo - 1:17
9. Battlelines - 4:22
10. The Pharaoh's Prelude - 3:59
11. Wait For You - 5:59
12. The Name Of The Rose - 9:28
Автор всех песен Gary Hughes, за исключением "The Crusades" и "Standing On The Edge Of Time" - авторы Gary Hughes и Vinny Burns
Состав группы:
Gary Hughes - vocals
Vinny Burns - guitars
Ged Rylands - keyboards, backing vocals
John Halliwell - guitars, backing vocals
Steve McKenna - bass guitar, backing vocals
Greg Morgan - drums
Лог создания рипа CD1
Exact Audio Copy V1.0 beta 3 from 29. August 2011
EAC extraction logfile from 30. May 2012, 0:26
Ten / Never Say Goodbye CD1
Used drive : SlimtypeDVD A DS8A5SH Adapter: 0 ID: 1
Read mode : Secure
Utilize accurate stream : Yes
Defeat audio cache : Yes
Make use of C2 pointers : No
Read offset correction : 6
Overread into Lead-In and Lead-Out : No
Fill up missing offset samples with silence : Yes
Delete leading and trailing silent blocks : No
Null samples used in CRC calculations : Yes
Used interface : Native Win32 interface for Win NT & 2000
Used output format : User Defined Encoder
Selected bitrate : 320 kBit/s
Quality : High
Add ID3 tag : No
Command line compressor : C:\Program Files (x86)\Exact Audio Copy\Flac\flac.exe
Additional command line options : -V -8 -T "Date=%year%" -T "Genre=%genre%" %source%
TOC of the extracted CD
Track | Start | Length | Start sector | End sector
---------------------------------------------------------
1 | 0:00.00 | 9:12.02 | 0 | 41401
2 | 9:12.02 | 4:52.43 | 41402 | 63344
3 | 14:04.45 | 5:24.40 | 63345 | 87684
4 | 19:29.10 | 5:47.32 | 87685 | 113741
5 | 25:16.42 | 5:23.08 | 113742 | 137974
6 | 30:39.50 | 6:25.15 | 137975 | 166864
7 | 37:04.65 | 6:58.70 | 166865 | 198284
8 | 44:03.60 | 7:45.55 | 198285 | 233214
9 | 51:49.40 | 3:54.67 | 233215 | 250831
10 | 55:44.32 | 2:24.28 | 250832 | 261659
11 | 58:08.60 | 1:36.57 | 261660 | 268916
12 | 59:45.42 | 11:26.45 | 268917 | 320411
Range status and errors
Selected range
Filename D:\My Music\Ten (lossless)\Ten - 1998 Never Say Goodbye (live 2 CD)\CD 1\Ten - Never Say Goodbye CD1.wav
Peak level 98.8 %
Extraction speed 5.1 X
Range quality 99.9 %
Test CRC B066A734
Copy CRC B066A734
Copy OK
No errors occurred
AccurateRip summary
Track 1 not present in database
Track 2 not present in database
Track 3 not present in database
Track 4 not present in database
Track 5 not present in database
Track 6 not present in database
Track 7 not present in database
Track 8 not present in database
Track 9 not present in database
Track 10 not present in database
Track 11 not present in database
Track 12 not present in database
None of the tracks are present in the AccurateRip database
End of status report
==== Log checksum C6C098D2EC8B0AA98C66107472C60FB70200E1EA427A8C07479056EE29141E51 ====
Лог создания рипа CD2
Exact Audio Copy V1.0 beta 3 from 29. August 2011
EAC extraction logfile from 30. May 2012, 1:00
Ten / Never Say Goodbye CD2
Used drive : SlimtypeDVD A DS8A5SH Adapter: 0 ID: 1
Read mode : Secure
Utilize accurate stream : Yes
Defeat audio cache : Yes
Make use of C2 pointers : No
Read offset correction : 6
Overread into Lead-In and Lead-Out : No
Fill up missing offset samples with silence : Yes
Delete leading and trailing silent blocks : No
Null samples used in CRC calculations : Yes
Used interface : Native Win32 interface for Win NT & 2000
Used output format : User Defined Encoder
Selected bitrate : 320 kBit/s
Quality : High
Add ID3 tag : No
Command line compressor : C:\Program Files (x86)\Exact Audio Copy\Flac\flac.exe
Additional command line options : -V -8 -T "Date=%year%" -T "Genre=%genre%" %source%
TOC of the extracted CD
Track | Start | Length | Start sector | End sector
---------------------------------------------------------
1 | 0:00.00 | 1:56.37 | 0 | 8736
2 | 1:56.37 | 6:12.73 | 8737 | 36709
3 | 8:09.35 | 7:09.27 | 36710 | 68911
4 | 15:18.62 | 5:19.10 | 68912 | 92846
5 | 20:37.72 | 5:20.73 | 92847 | 116919
6 | 25:58.70 | 5:08.72 | 116920 | 140091
7 | 31:07.67 | 7:40.13 | 140092 | 174604
8 | 38:48.05 | 1:17.67 | 174605 | 180446
9 | 40:05.72 | 4:22.60 | 180447 | 200156
10 | 44:28.57 | 3:59.55 | 200157 | 218136
11 | 48:28.37 | 5:59.15 | 218137 | 245076
12 | 54:27.52 | 9:28.13 | 245077 | 287689
Range status and errors
Selected range
Filename D:\My Music\Ten (lossless)\Ten - 1998 Never Say Goodbye (live 2 CD)\CD 2\Ten - Never Say Goodbye CD2.wav
Peak level 98.8 %
Extraction speed 4.8 X
Range quality 100.0 %
Test CRC 9A3E9D60
Copy CRC 9A3E9D60
Copy OK
No errors occurred
AccurateRip summary
Track 1 not present in database
Track 2 not present in database
Track 3 not present in database
Track 4 not present in database
Track 5 not present in database
Track 6 not present in database
Track 7 not present in database
Track 8 not present in database
Track 9 not present in database
Track 10 not present in database
Track 11 not present in database
Track 12 not present in database
None of the tracks are present in the AccurateRip database
End of status report
==== Log checksum 0556988E579EC0D100597883C4329DEAC8DA3B4BB570107CE490D52C0CDEEBE6 ====
1998 (98-12-23) – Spellbound (Mercury, PHCR-1678)
Продолжительность: 54:01
Треклист:
1. March Of The Argonauts (Instrumental) - 2:14
2. Fear The Force - 5:36
3. Inside The Pyramid Of Light - 4:17
4. Spellbound - 5:15
5. We Rule The Night - 5:29
6. Remembrance For The Brave (Instrumental) - 1:18
7. Red - 4:15
8. The Alchemist - 5:09
9. Wonderland - 5:01
10. Eclipse - 4:14
11. The Phantom - 6:15
12. Till The End Of Time - 4:58
Автор всех песен Gary Hughes, за исключением "inside The Pyramid Of Light" - авторы Gary Hughes и Vinny Burns
Продюсер Gary Hughes
Состав группы:
Ten это:
Gary Hughes - vocals
Vinny Burns - guitars
Ged Rylands - keyboards
John Halliwell - guitars
Steve McKenna - bass guitar
Greg Morgan - drums & percussion
Дополнительные музыканты:
Francis Cummings - violin
Fiona Payne - violin
Anne Morison - viola
Anna Frazer - cello
Mike McGoldric - ulleann pipes, low whistle ans bamboo flute
Jason Thanos - additional backing vocals
Sue Willets, Bob Catley and Rafe Mckenna - additional backing vocals on "We Rule The Night"
Лог создания рипа
Exact Audio Copy V1.0 beta 3 from 29. August 2011
EAC extraction logfile from 4. May 2012, 19:34
Ten / Spellbound
Used drive : SlimtypeDVD A DS8A5SH Adapter: 0 ID: 1
Read mode : Secure
Utilize accurate stream : Yes
Defeat audio cache : Yes
Make use of C2 pointers : No
Read offset correction : 6
Overread into Lead-In and Lead-Out : No
Fill up missing offset samples with silence : Yes
Delete leading and trailing silent blocks : No
Null samples used in CRC calculations : Yes
Used interface : Native Win32 interface for Win NT & 2000
Used output format : User Defined Encoder
Selected bitrate : 320 kBit/s
Quality : High
Add ID3 tag : No
Command line compressor : C:\Program Files (x86)\Exact Audio Copy\Flac\flac.exe
Additional command line options : -V -8 -T "Date=%year%" -T "Genre=%genre%" %source%
TOC of the extracted CD
Track | Start | Length | Start sector | End sector
---------------------------------------------------------
1 | 0:00.00 | 2:14.47 | 0 | 10096
2 | 2:14.47 | 5:36.15 | 10097 | 35311
3 | 7:50.62 | 4:17.18 | 35312 | 54604
4 | 12:08.05 | 5:15.25 | 54605 | 78254
5 | 17:23.30 | 5:29.45 | 78255 | 102974
6 | 22:53.00 | 1:18.25 | 102975 | 108849
7 | 24:11.25 | 4:15.00 | 108850 | 127974
8 | 28:26.25 | 5:09.52 | 127975 | 151201
9 | 33:36.02 | 5:01.43 | 151202 | 173819
10 | 38:37.45 | 4:14.30 | 173820 | 192899
11 | 42:52.00 | 6:15.10 | 192900 | 221034
12 | 49:07.10 | 4:58.60 | 221035 | 243444
Range status and errors
Selected range
Filename D:\My Music\Ten (lossless)\Ten - 1998 Spellbound\Ten - Spellbound.wav
Peak level 100.0 %
Extraction speed 1.8 X
Range quality 100.0 %
Test CRC F392D76D
Copy CRC F392D76D
Copy OK
No errors occurred
AccurateRip summary
Track 1 accurately ripped (confidence 2) [6124B93A] (AR v1)
Track 2 accurately ripped (confidence 2) [ACEFE346] (AR v1)
Track 3 accurately ripped (confidence 2) [8DD4B304] (AR v1)
Track 4 accurately ripped (confidence 2) [DE5768C3] (AR v1)
Track 5 accurately ripped (confidence 2) [FFA4BF43] (AR v1)
Track 6 accurately ripped (confidence 2) [550C638A] (AR v1)
Track 7 accurately ripped (confidence 2) [C713956C] (AR v1)
Track 8 accurately ripped (confidence 2) [75066BB6] (AR v1)
Track 9 accurately ripped (confidence 2) [C2AFD392] (AR v1)
Track 10 accurately ripped (confidence 2) [949B52BE] (AR v1)
Track 11 accurately ripped (confidence 2) [F9015459] (AR v1)
Track 12 accurately ripped (confidence 2) [A4D55440] (AR v1)
All tracks accurately ripped
End of status report
==== Log checksum 343D536E6A31E5B3BDE544FFE706279A77325CDA9A950A448F258025D5AB80A6 ====
1999 (99-10-6) – Fear The Force EP (Mercury, PHCR-3028)
Продолжительность: 28:46
Треклист:
1. Fear The Force - 5:37
2. Xanadu - 4:55
3. Rainbow In The Dark - 4:51
4. We Rule The Night (acoustic version) - 5:18
5. Red (acoustic version) - 4:15
6. Till The End Of Time (acoustic version) - 3:47
Автор всех песен Gary Hughes, за исключением "Xanadu" - авторы Gary Hughes и Vinny Burns
Продюсер Gary Hughes
Состав группы:
Gary Hughes - vocals
Vinny Burns - guitars
Ged Rylands - keyboards
John Halliwell - guitars
Steve McKenna - bass guitar
Greg Morgan - drums & percussion
Лог создания рипа
Exact Audio Copy V1.0 beta 3 from 29. August 2011
EAC extraction logfile from 24. May 2012, 19:44
Ten / Fear The Force
Used drive : SlimtypeDVD A DS8A5SH Adapter: 0 ID: 1
Read mode : Secure
Utilize accurate stream : Yes
Defeat audio cache : Yes
Make use of C2 pointers : No
Read offset correction : 6
Overread into Lead-In and Lead-Out : No
Fill up missing offset samples with silence : Yes
Delete leading and trailing silent blocks : No
Null samples used in CRC calculations : Yes
Used interface : Native Win32 interface for Win NT & 2000
Used output format : User Defined Encoder
Selected bitrate : 320 kBit/s
Quality : High
Add ID3 tag : No
Command line compressor : C:\Program Files (x86)\Exact Audio Copy\Flac\flac.exe
Additional command line options : -V -8 -T "Date=%year%" -T "Genre=%genre%" %source%
TOC of the extracted CD
Track | Start | Length | Start sector | End sector
---------------------------------------------------------
1 | 0:00.00 | 5:37.60 | 0 | 25334
2 | 5:37.60 | 4:55.33 | 25335 | 47492
3 | 10:33.18 | 4:51.65 | 47493 | 69382
4 | 15:25.08 | 5:18.05 | 69383 | 93237
5 | 20:43.13 | 4:15.52 | 93238 | 112414
6 | 24:58.65 | 3:47.45 | 112415 | 129484
Range status and errors
Selected range
Filename D:\My Music\Ten (lossless)\Ten - 1999 Fear The Force (ep)\Ten - Fear The Force.wav
Peak level 98.8 %
Extraction speed 3.8 X
Range quality 100.0 %
Test CRC 04F6677A
Copy CRC 04F6677A
Copy OK
No errors occurred
AccurateRip summary
Track 1 not present in database
Track 2 not present in database
Track 3 not present in database
Track 4 not present in database
Track 5 not present in database
Track 6 not present in database
None of the tracks are present in the AccurateRip database
End of status report
==== Log checksum DF3326BE57A7EEBC5A8EB756084EDA1CA158D66A31CEF918C1984C64FF07E4FD ====
2000 (00-8-9) – Babylon (Universal, PHCW-1082)
Продолжительность: 58:37
Треклист:
1. The Stranger - 7:20
2. Barricade - 5:22
3. Give In This Time - 5:24
4. Love Became The Law - 4:41
5. The Heat - 5:41
6. Silent Rain - 6:27
7. Timeless - 4:54
8. Black Hearted Woman - 5:35
9. Thunder In Heaven - 6:58
10. Valentine - 6:15
Автор всех песен Gary Hughes
Продюсер Gary Hughes
Состав группы:
Gary Hughes - vocals
Vinny Burns - guitar
John Halliwell - guitars
Steve McKenna - bass
Greg Morgan - drums
Специальный гость:
Don Airey (Deep Purple, Rainbow) - keyboards
Gavin Fernie - the voice of Meridian
Georgina Rudden - the voice of Cryotech and Lex's computer
Лог создания рипа
Exact Audio Copy V1.0 beta 3 from 29. August 2011
EAC extraction logfile from 1. May 2012, 17:16
Ten / Babylon
Used drive : SlimtypeDVD A DS8A5SH Adapter: 0 ID: 1
Read mode : Secure
Utilize accurate stream : Yes
Defeat audio cache : Yes
Make use of C2 pointers : No
Read offset correction : 6
Overread into Lead-In and Lead-Out : No
Fill up missing offset samples with silence : Yes
Delete leading and trailing silent blocks : No
Null samples used in CRC calculations : Yes
Used interface : Native Win32 interface for Win NT & 2000
Used output format : User Defined Encoder
Selected bitrate : 320 kBit/s
Quality : High
Add ID3 tag : No
Command line compressor : C:\Program Files (x86)\Exact Audio Copy\Flac\flac.exe
Additional command line options : -V -8 -T "Date=%year%" -T "Genre=%genre%" %source%
TOC of the extracted CD
Track | Start | Length | Start sector | End sector
---------------------------------------------------------
1 | 0:00.00 | 7:22.25 | 0 | 33174
2 | 7:22.25 | 5:22.37 | 33175 | 57361
3 | 12:44.62 | 5:25.15 | 57362 | 81751
4 | 18:10.02 | 4:41.43 | 81752 | 102869
5 | 22:51.45 | 5:41.22 | 102870 | 128466
6 | 28:32.67 | 6:26.53 | 128467 | 157469
7 | 34:59.45 | 4:54.30 | 157470 | 179549
8 | 39:54.00 | 5:35.20 | 179550 | 204694
9 | 45:29.20 | 6:58.50 | 204695 | 236094
10 | 52:27.70 | 6:14.12 | 236095 | 264156
Range status and errors
Selected range
Filename D:\My Music\Ten (lossless)\Ten - 2000 Babylon\Ten - Babylon.wav
Peak level 98.8 %
Extraction speed 4.5 X
Range quality 100.0 %
Test CRC 5291B05E
Copy CRC 5291B05E
Copy OK
No errors occurred
AccurateRip summary
Track 1 accurately ripped (confidence 4) [FEBC0BF5] (AR v1)
Track 2 accurately ripped (confidence 4) [28170377] (AR v1)
Track 3 accurately ripped (confidence 4) [1CF4E3EB] (AR v1)
Track 4 accurately ripped (confidence 4) [021A42C3] (AR v1)
Track 5 accurately ripped (confidence 4) [8390E223] (AR v1)
Track 6 accurately ripped (confidence 4) [5EE8DEE8] (AR v1)
Track 7 accurately ripped (confidence 4) [8954AF8C] (AR v1)
Track 8 accurately ripped (confidence 4) [DD2B91A8] (AR v1)
Track 9 accurately ripped (confidence 4) [00526474] (AR v1)
Track 10 accurately ripped (confidence 4) [1C90B548] (AR v1)
All tracks accurately ripped
End of status report
==== Log checksum 23F0E38F837E9543EEE7354C9E48450EA98D82E83FD09E1235A69E07B62E57F2 ====
2001 (01-11-21) – Far Beyond The World (Victor, VICP-61653)
Продолжительность: 68:27
Треклист:
1. Scarlet And The Grey - 5:29
2. Strange Land - 5:13
3. What About Me? - 5:34
4. Glimmer Of Evil - 5:48
5. Last Of The Lovers - 6:11
6. Heart Like A Lion - 5:16
7. Black Shadows - 5:29
8. High Tide - 5:46
9. Far Beyond The World - 5:09
10. Who Do You Want To Love? - 5:44
11. Outlawed And Notorious - 6:37
12. The Soldier (bonus Tracks for Japan) - 6:11
Автор всех песен Gary Hughes
Продюсер Gary Hughes
Состав группы:
Gary Hughes - vocals
Vinny Burns - guitar
John Halliwell - guitars
Steve McKenna - bass
Paul Hodson - keyboards
Greg Morgan - drums
Лог создания рипа
Exact Audio Copy V1.0 beta 3 from 29. August 2011
EAC extraction logfile from 29. March 2012, 20:50
Ten / Far Beyond The World
Used drive : SlimtypeDVD A DS8A5SH Adapter: 0 ID: 1
Read mode : Secure
Utilize accurate stream : Yes
Defeat audio cache : Yes
Make use of C2 pointers : No
Read offset correction : 6
Overread into Lead-In and Lead-Out : No
Fill up missing offset samples with silence : Yes
Delete leading and trailing silent blocks : No
Null samples used in CRC calculations : Yes
Used interface : Native Win32 interface for Win NT & 2000
Used output format : User Defined Encoder
Selected bitrate : 320 kBit/s
Quality : High
Add ID3 tag : No
Command line compressor : C:\Program Files (x86)\Exact Audio Copy\Flac\flac.exe
Additional command line options : -V -8 -T "Date=%year%" -T "Genre=%genre%" %source%
TOC of the extracted CD
Track | Start | Length | Start sector | End sector
---------------------------------------------------------
1 | 0:00.00 | 5:29.60 | 0 | 24734
2 | 5:29.60 | 5:13.15 | 24735 | 48224
3 | 10:43.00 | 5:34.17 | 48225 | 73291
4 | 16:17.17 | 5:48.33 | 73292 | 99424
5 | 22:05.50 | 6:11.62 | 99425 | 127311
6 | 28:17.37 | 5:16.53 | 127312 | 151064
7 | 33:34.15 | 5:29.52 | 151065 | 175791
8 | 39:03.67 | 5:46.33 | 175792 | 201774
9 | 44:50.25 | 5:09.35 | 201775 | 224984
10 | 49:59.60 | 5:44.65 | 224985 | 250849
11 | 55:44.50 | 6:37.47 | 250850 | 280671
12 | 62:22.22 | 6:11.03 | 280672 | 308499
Range status and errors
Selected range
Filename D:\My Music\Ten - 2001 Far Beyond The World\Ten - Far Beyond The World.wav
Peak level 99.8 %
Extraction speed 5.0 X
Range quality 100.0 %
Test CRC E3BECDC1
Copy CRC E3BECDC1
Copy OK
No errors occurred
AccurateRip summary
Track 1 accurately ripped (confidence 2) [8AFB60DC] (AR v1)
Track 2 accurately ripped (confidence 2) [7702703A] (AR v1)
Track 3 accurately ripped (confidence 2) [DF4492A8] (AR v1)
Track 4 accurately ripped (confidence 2) [CF881662] (AR v1)
Track 5 accurately ripped (confidence 2) [7FE0C861] (AR v1)
Track 6 accurately ripped (confidence 2) [79D04740] (AR v1)
Track 7 accurately ripped (confidence 2) [1CED04CD] (AR v1)
Track 8 accurately ripped (confidence 2) [194C3ADD] (AR v1)
Track 9 accurately ripped (confidence 2) [44FD27D0] (AR v1)
Track 10 accurately ripped (confidence 2) [E110D4C4] (AR v1)
Track 11 accurately ripped (confidence 2) [532A3A34] (AR v1)
Track 12 accurately ripped (confidence 2) [69ABD0F9] (AR v1)
All tracks accurately ripped
End of status report
==== Log checksum A9F8D076979326AE68CCB6E0A57E56EE1D4BA34BDE2685D9A8893C6AF75272D5 ====
2004 (04-6-23) – Return To Evermore (Avalon, MICP-10444)
Продолжительность: 70:24
Треклист:
1. Apparition - 8:34
2. Dreamtide - 6:29
3. Evermore - 4:37
4. Sail Away - 5:12
5. Temple Of Love - 4:46
6. Even The Ghosts Cry - 5:52
7. Strangers In The Night - 5:19
8. Evil's On Top In The World - 4:31
9. The One - 5:33
10. Lost Soul - 5:29
11. Stay A While - 4:42
12. Tearing My Heart Out - 5:42
13. It's You I Adore (bonus track for Japan) - 3:38
Автор всех песен Gary Hughes
Продюсер Gary Hughes
Состав группы:
Ten это:
Gary Hughes - vocals
Chris Francis - guitars
John Halliwell - guitars
Paul Hodson - keyboards
Steve McKenna - bass guitar
Greg Morgan - drums
Дополнительные музыканты:
Peter "Yngwie Pipesteen" Coleman - english pipes on "Evermore"
Jason Thanos - backing vocals
Лог создания рипа
Exact Audio Copy V1.0 beta 3 from 29. August 2011
EAC extraction logfile from 3. June 2012, 16:44
Ten / Return To Evermore
Used drive : SlimtypeDVD A DS8A5SH Adapter: 0 ID: 1
Read mode : Secure
Utilize accurate stream : Yes
Defeat audio cache : Yes
Make use of C2 pointers : No
Read offset correction : 6
Overread into Lead-In and Lead-Out : No
Fill up missing offset samples with silence : Yes
Delete leading and trailing silent blocks : No
Null samples used in CRC calculations : Yes
Used interface : Native Win32 interface for Win NT & 2000
Used output format : User Defined Encoder
Selected bitrate : 320 kBit/s
Quality : High
Add ID3 tag : No
Command line compressor : C:\Program Files (x86)\Exact Audio Copy\Flac\flac.exe
Additional command line options : -V -8 -T "Date=%year%" -T "Genre=%genre%" %source%
TOC of the extracted CD
Track | Start | Length | Start sector | End sector
---------------------------------------------------------
1 | 0:00.00 | 8:34.45 | 0 | 38594
2 | 8:34.45 | 6:29.02 | 38595 | 67771
3 | 15:03.47 | 4:37.59 | 67772 | 88605
4 | 19:41.31 | 5:12.74 | 88606 | 112079
5 | 24:54.30 | 4:46.63 | 112080 | 133592
6 | 29:41.18 | 5:52.60 | 133593 | 160052
7 | 35:34.03 | 5:19.04 | 160053 | 183981
8 | 40:53.07 | 4:31.62 | 183982 | 204368
9 | 45:24.69 | 5:33.74 | 204369 | 229417
10 | 50:58.68 | 5:29.30 | 229418 | 254122
11 | 56:28.23 | 4:42.73 | 254123 | 275345
12 | 61:11.21 | 5:42.41 | 275346 | 301036
13 | 66:53.62 | 3:37.73 | 301037 | 317384
Range status and errors
Selected range
Filename D:\My Music\Ten (lossless)\Ten - 2004 Return To Evermore\Ten - Return To Evermore.wav
Peak level 100.0 %
Extraction speed 5.2 X
Range quality 100.0 %
Test CRC 47A8F948
Copy CRC 47A8F948
Copy OK
No errors occurred
AccurateRip summary
Track 1 not present in database
Track 2 not present in database
Track 3 not present in database
Track 4 not present in database
Track 5 not present in database
Track 6 not present in database
Track 7 not present in database
Track 8 not present in database
Track 9 not present in database
Track 10 not present in database
Track 11 not present in database
Track 12 not present in database
Track 13 not present in database
None of the tracks are present in the AccurateRip database
End of status report
==== Log checksum 34EE4E178820AD2A0396D95BD7D0FD5E9023ADED64BB3F107F4E0E59A0434712 ====
2005 (05-11-23) – The Essential Collection 1995-2005 (compilation, 2CD) (Avalon, MICP-90020)
Треклист:
CD1 - Rockers
Продолжительность: 72:05
1. The Name of The Rose / Wildest Dreams - 14:03
2. The March of The Argonauts / Fear The Force - 7:53
3. Ten Fathoms Deep - 7:10
4. Apparition - 8:46
5. After The Love Has Gone - 5:52
6. Remember for The Brave / Red - 8:08
7. Spellbound - 5:16
8. The Robe - 10:09
9. Evermore - 4:48
CD1 - Ballads
Продолжительность: 58:15
1. Till The End of Time - 5:03
2. You're in My Heart - 6:31
3. Yesterday Lies in The Flames - 5:18
4. Virtual Reality - 5:55
5. We Rule The Night - 5:36
6. Silent Rain - 6:12
7. Through The Fire - 6:56
8. Sail Away - 5:12
9. Rainbow in The Dark (bonus track for Japan) - 5:25
10. Valentine - 6:07
Автор всех песен Gary Hughes
Продюсер Gary Hughes
Состав группы:
Gary Hughes - vocals
Chris Francis - guitars
John Halliwell - guitars
Paul Hodson - keyboards
Steve McKenna - bass guitar
Lee Morris - drums
Лог создания рипа CD1-Rockers
Exact Audio Copy V1.0 beta 3 from 29. August 2011
EAC extraction logfile from 9. July 2012, 22:01
Ten / Essential Collection 1995-2005 (CD1 Rockers)
Used drive : SlimtypeDVD A DS8A5SH Adapter: 0 ID: 1
Read mode : Secure
Utilize accurate stream : Yes
Defeat audio cache : Yes
Make use of C2 pointers : No
Read offset correction : 6
Overread into Lead-In and Lead-Out : No
Fill up missing offset samples with silence : Yes
Delete leading and trailing silent blocks : No
Null samples used in CRC calculations : Yes
Used interface : Native Win32 interface for Win NT & 2000
Used output format : User Defined Encoder
Selected bitrate : 320 kBit/s
Quality : High
Add ID3 tag : No
Command line compressor : C:\Program Files (x86)\Exact Audio Copy\Flac\flac.exe
Additional command line options : -V -8 -T "Date=%year%" -T "Genre=%genre%" %source%
TOC of the extracted CD
Track | Start | Length | Start sector | End sector
---------------------------------------------------------
1 | 0:00.00 | 14:03.43 | 0 | 63267
2 | 14:03.43 | 7:53.30 | 63268 | 98772
3 | 21:56.73 | 7:10.56 | 98773 | 131078
4 | 29:07.54 | 8:46.02 | 131079 | 170530
5 | 37:53.56 | 5:52.58 | 170531 | 196988
6 | 43:46.39 | 8:08.04 | 196989 | 233592
7 | 51:54.43 | 5:16.01 | 233593 | 257293
8 | 57:10.44 | 10:09.11 | 257294 | 302979
9 | 67:19.55 | 4:48.19 | 302980 | 324598
Range status and errors
Selected range
Filename D:\My Music\Ten - 2005 The Essential Collection 1995-2005\CD1 - Rockers\Ten - Essential Collection 1995-2005 (CD1 Rockers).wav
Peak level 99.8 %
Extraction speed 4.9 X
Range quality 99.9 %
Test CRC BE0FB513
Copy CRC BE0FB513
Copy OK
No errors occurred
AccurateRip summary
Track 1 cannot be verified as accurate (confidence 2) [0DB3D80C], AccurateRip returned [32596F15] (AR v2)
Track 2 cannot be verified as accurate (confidence 2) [634A8AED], AccurateRip returned [3B2C5B43] (AR v2)
Track 3 cannot be verified as accurate (confidence 2) [6B0F127C], AccurateRip returned [9BFB0CB7] (AR v2)
Track 4 cannot be verified as accurate (confidence 2) [96037420], AccurateRip returned [A5306C14] (AR v2)
Track 5 cannot be verified as accurate (confidence 2) [028D27BC], AccurateRip returned [341D69AE] (AR v2)
Track 6 cannot be verified as accurate (confidence 2) [FD39870B], AccurateRip returned [E7CAFB75] (AR v2)
Track 7 cannot be verified as accurate (confidence 2) [98FDDFB5], AccurateRip returned [B008AB69] (AR v2)
Track 8 cannot be verified as accurate (confidence 2) [D56F7A3C], AccurateRip returned [BF725BAB] (AR v2)
Track 9 not present in database
8 трек(и) не удалось проверить на точность
1 трек(и) не содержатся в базе AccurateRip
No tracks could be verified as accurate
You may have a different pressing from the one(s) in the database
End of status report
---- CUETools DB Plugin V2.1.3
[CTDB TOCID: yJ22YPz4dtWBObBl8EmaIW6P4Bg-] disk not present in database, Submit result: database access error: Запрос был прерван: Запрос отменен.
==== Log checksum 2EA4FA083E23C019BA3C89A7AB6F4F6A60849F102189AAF1AFD2658A681E81ED ====
Лог создания рипа CD1-Ballads
Exact Audio Copy V1.0 beta 3 from 29. August 2011
EAC extraction logfile from 9. July 2012, 23:23
Ten / Essential Collection 1995-2005 (CD2 Ballads)
Used drive : SlimtypeDVD A DS8A5SH Adapter: 0 ID: 1
Read mode : Secure
Utilize accurate stream : Yes
Defeat audio cache : Yes
Make use of C2 pointers : No
Read offset correction : 6
Overread into Lead-In and Lead-Out : No
Fill up missing offset samples with silence : Yes
Delete leading and trailing silent blocks : No
Null samples used in CRC calculations : Yes
Used interface : Native Win32 interface for Win NT & 2000
Used output format : User Defined Encoder
Selected bitrate : 320 kBit/s
Quality : High
Add ID3 tag : No
Command line compressor : C:\Program Files (x86)\Exact Audio Copy\Flac\flac.exe
Additional command line options : -V -8 -T "Date=%year%" -T "Genre=%genre%" %source%
TOC of the extracted CD
Track | Start | Length | Start sector | End sector
---------------------------------------------------------
1 | 0:00.00 | 5:03.05 | 0 | 22729
2 | 5:03.05 | 6:31.37 | 22730 | 52091
3 | 11:34.42 | 5:18.37 | 52092 | 75978
4 | 16:53.04 | 5:55.44 | 75979 | 102647
5 | 22:48.48 | 5:36.17 | 102648 | 127864
6 | 28:24.65 | 6:12.10 | 127865 | 155774
7 | 34:37.00 | 6:56.04 | 155775 | 186978
8 | 41:33.04 | 5:12.50 | 186979 | 210428
9 | 46:45.54 | 5:25.45 | 210429 | 234848
10 | 52:11.24 | 6:07.16 | 234849 | 262389
Range status and errors
Selected range
Filename D:\My Music\Ten - 2005 The Essential Collection 1995-2005\CD2 - Ballads\Ten - Essential Collection 1995-2005 (CD2 Ballads).wav
Peak level 99.8 %
Extraction speed 4.4 X
Range quality 100.0 %
Test CRC D31BC376
Copy CRC D31BC376
Copy OK
No errors occurred
AccurateRip summary
Track 1 cannot be verified as accurate (confidence 2) [47546964], AccurateRip returned [C15D1ACD] (AR v2)
Track 2 cannot be verified as accurate (confidence 2) [8E330B35], AccurateRip returned [640403DB] (AR v2)
Track 3 cannot be verified as accurate (confidence 2) [BF6E291B], AccurateRip returned [0A54DD4D] (AR v2)
Track 4 cannot be verified as accurate (confidence 2) [49BAF9B0], AccurateRip returned [9727CB31] (AR v2)
Track 5 cannot be verified as accurate (confidence 2) [6D317810], AccurateRip returned [7BD9C040] (AR v2)
Track 6 cannot be verified as accurate (confidence 2) [F80C75CE], AccurateRip returned [ED83BE68] (AR v2)
Track 7 cannot be verified as accurate (confidence 2) [8F4733D0], AccurateRip returned [D0143949] (AR v2)
Track 8 cannot be verified as accurate (confidence 2) [BAD8EDF9], AccurateRip returned [556DD10C] (AR v2)
Track 9 cannot be verified as accurate (confidence 2) [F8013DCF], AccurateRip returned [7133F72E] (AR v2)
Track 10 not present in database
9 трек(и) не удалось проверить на точность
1 трек(и) не содержатся в базе AccurateRip
No tracks could be verified as accurate
You may have a different pressing from the one(s) in the database
End of status report
---- CUETools DB Plugin V2.1.3
[CTDB TOCID: pZ7EkwiPjfFn_hue1Lbd1YNFBiQ-] disk not present in database, Submit result: database access error: Запрос был прерван: Запрос отменен.
==== Log checksum 77B773F5100B2FEEA737DF3315E22EFB28F19E3D06B66B09558F34356533D306 ====
2006 (06-7-26) – The Twilight Chronicles (Avalon, MICP-10582)
Продолжительность: 77:00
Треклист:
1. I) The Prologue (The Elysyan Fields-Part1)
II) Rome - 12:19
2. The Chronicles - 6:43
3. The Elysian Fields - 6:49
4. Hallowed Ground - 10:18
5. This Heart Goes On - 4:24
6. Oblivion - 7:03
7. The Twilight Masquerade - 6:37
8. Touriquet - 6:49
9. Born To The Grave - 5:00
10. I) When This Night Is Done
II) The Epilogue - 7:36
11. Fahrenheit (bonus tarack for Japan) - 5:56
Состав группы:
Gary Hughes – vocals, guitars, backing vocals
Chris Francis – guitars and bass
John Halliwell – guitars
Paul Hodson – keyboards and programming
Frank Basile – drums and percussion
Лог создания рипа
Exact Audio Copy V1.0 beta 3 from 29. August 2011
EAC extraction logfile from 29. May 2012, 22:45
Ten / Twilight Chronicles
Used drive : SlimtypeDVD A DS8A5SH Adapter: 0 ID: 1
Read mode : Secure
Utilize accurate stream : Yes
Defeat audio cache : Yes
Make use of C2 pointers : No
Read offset correction : 6
Overread into Lead-In and Lead-Out : No
Fill up missing offset samples with silence : Yes
Delete leading and trailing silent blocks : No
Null samples used in CRC calculations : Yes
Used interface : Native Win32 interface for Win NT & 2000
Used output format : User Defined Encoder
Selected bitrate : 320 kBit/s
Quality : High
Add ID3 tag : No
Command line compressor : C:\Program Files (x86)\Exact Audio Copy\Flac\flac.exe
Additional command line options : -V -8 -T "Date=%year%" -T "Genre=%genre%" %source%
TOC of the extracted CD
Track | Start | Length | Start sector | End sector
---------------------------------------------------------
1 | 0:00.00 | 12:19.61 | 0 | 55485
2 | 12:19.61 | 6:43.38 | 55486 | 85748
3 | 19:03.24 | 6:49.62 | 85749 | 116485
4 | 25:53.11 | 7:39.47 | 116486 | 150957
5 | 33:32.58 | 4:24.45 | 150958 | 170802
6 | 37:57.28 | 7:03.04 | 170803 | 202531
7 | 45:00.32 | 6:37.71 | 202532 | 232377
8 | 51:38.28 | 6:49.18 | 232378 | 263070
9 | 58:27.46 | 5:00.20 | 263071 | 285590
10 | 63:27.66 | 7:38.08 | 285591 | 319948
11 | 71:05.74 | 5:54.72 | 319949 | 346570
Range status and errors
Selected range
Filename D:\My Music\Ten (lossless)\Ten - 2006 The Twilight Chronicles\Ten - Twilight Chronicles.wav
Peak level 99.8 %
Extraction speed 5.2 X
Range quality 100.0 %
Test CRC 44AEC58C
Copy CRC 44AEC58C
Copy OK
No errors occurred
AccurateRip summary
Track 1 accurately ripped (confidence 2) [309F3EB8] (AR v1)
Track 2 accurately ripped (confidence 2) [D263FBE6] (AR v1)
Track 3 accurately ripped (confidence 2) [95E6BC0B] (AR v1)
Track 4 accurately ripped (confidence 2) [4E8E0C8C] (AR v1)
Track 5 accurately ripped (confidence 2) [B090ED81] (AR v1)
Track 6 accurately ripped (confidence 2) [FDB84304] (AR v1)
Track 7 accurately ripped (confidence 2) [6252852B] (AR v1)
Track 8 accurately ripped (confidence 2) [330C9DF6] (AR v1)
Track 9 accurately ripped (confidence 2) [B2777F50] (AR v1)
Track 10 accurately ripped (confidence 2) [8A2625EF] (AR v1)
Track 11 accurately ripped (confidence 2) [DA9286B6] (AR v1)
All tracks accurately ripped
End of status report
==== Log checksum 9238198345A6C7F496C2C3F196A3EF3C7D0DB5241EBAB4DA6852AFE0EE3AAD6F ====
2011 (11-1-19) – Stormwarning (Avalon, MICP-10972)
Продолжительность: 63:42
Треклист:
1. Endless Symphony - 7:26
2. Centre Of My Universe - 6:06
3. Kingdom Come - 5:34
4. Book Of Secrets - 5:18
5. Stormwarning - 5:39
6. Invisible - 5:37
7. Love Song - 7:06
8. The Hourglass And The Landslide - 4:48
9. Destiny - 6:12
10. The Wave - 5:32
11. The Darkness (bonus track for Japan) - 4:19
Автор вcех песен Gary Hughes
Продюсер Dennis Ward (Pink Cream 69, Unisonic)
Состав группы:
Gary Hughes – vocals, guitars, backing vocals
Neil Fraser – guitars
John Halliwell – guitars, acoustic guitars
Paul Hodson – keyboards and synthesisers, programming
Mark Sumner – bass guitars
Mark Zonder – drums and percussion
дополнительные музыканты:
Dennis Ward - guitar
Johnny Gibbons - guitar
Jason Thanos - guitar
Лог создания рипа
Exact Audio Copy V1.0 beta 3 from 29. August 2011
EAC extraction logfile from 2. May 2012, 17:45
Ten / Stormwarning
Used drive : SlimtypeDVD A DS8A5SH Adapter: 0 ID: 1
Read mode : Secure
Utilize accurate stream : Yes
Defeat audio cache : Yes
Make use of C2 pointers : No
Read offset correction : 6
Overread into Lead-In and Lead-Out : No
Fill up missing offset samples with silence : Yes
Delete leading and trailing silent blocks : No
Null samples used in CRC calculations : Yes
Used interface : Native Win32 interface for Win NT & 2000
Used output format : User Defined Encoder
Selected bitrate : 320 kBit/s
Quality : High
Add ID3 tag : No
Command line compressor : C:\Program Files (x86)\Exact Audio Copy\Flac\flac.exe
Additional command line options : -V -8 -T "Date=%year%" -T "Genre=%genre%" %source%
TOC of the extracted CD
Track | Start | Length | Start sector | End sector
---------------------------------------------------------
1 | 0:00.00 | 7:26.11 | 0 | 33460
2 | 7:26.11 | 6:06.62 | 33461 | 60972
3 | 13:32.73 | 5:34.73 | 60973 | 86095
4 | 19:07.71 | 5:18.02 | 86096 | 109947
5 | 24:25.73 | 5:39.13 | 109948 | 135385
6 | 30:05.11 | 5:37.73 | 135386 | 160733
7 | 35:43.09 | 7:06.36 | 160734 | 192719
8 | 42:49.45 | 4:48.71 | 192720 | 214390
9 | 47:38.41 | 6:12.57 | 214391 | 242347
10 | 53:51.23 | 5:32.31 | 242348 | 267278
11 | 59:23.54 | 4:19.14 | 267279 | 286717
Range status and errors
Selected range
Filename D:\My Music\Ten (lossless)\Ten - 2011 Stormwarning\Ten - Stormwarning.wav
Peak level 98.8 %
Extraction speed 4.6 X
Range quality 100.0 %
Test CRC 70F227D2
Copy CRC 70F227D2
Copy OK
No errors occurred
AccurateRip summary
Track 1 accurately ripped (confidence 2) [9F4EBDB4] (AR v2)
Track 2 accurately ripped (confidence 2) [9F5FEFA0] (AR v2)
Track 3 accurately ripped (confidence 2) [C9E14B0F] (AR v2)
Track 4 accurately ripped (confidence 2) [2B8CE7DB] (AR v2)
Track 5 accurately ripped (confidence 2) [B308F9C3] (AR v2)
Track 6 accurately ripped (confidence 2) [8F369C66] (AR v2)
Track 7 accurately ripped (confidence 2) [DC7CA25E] (AR v2)
Track 8 accurately ripped (confidence 2) [45D87F6A] (AR v2)
Track 9 accurately ripped (confidence 2) [72B6714C] (AR v2)
Track 10 accurately ripped (confidence 2) [6CBCA7DB] (AR v2)
Track 11 accurately ripped (confidence 2) [91732D42] (AR v2)
All tracks accurately ripped
End of status report
==== Log checksum 2AA878C899403421F78DFAB767ABE62F5ABE88DD01D29AFC0CF57F300BD185F3 ====
2012 (12-9-26) – Heresy And Creed (Avalon, MICP-11064)
Продолжительность: 69:37
Треклист:
1. The Gates Of Jerusalem (Instrumental) - 1:36
2. Arabian Knights - 6:27
3. Gunrunning - 5:54
4. The Lights Go Down - 6:14
5. Raven's Eye - 5:45
6. Right Now - 5:30
7. Game Of Hearts - 4:22
8. The Last Time - 6:38
9. The Priestess - 5:16
10. Insatiable - 4:09
11. Another Rainy Day - 5:00
12. Unbelievable - 4:10
13. The Riddle - 5:33
14. I Found Love (bonus track for Japan) - 3:03
Автор вcех песен Gary Hughes
Продюсеры Dennis Ward (Pink Cream 69, Unisonic) и Gary Hughes
Состав группы:
Gary Hughes – vocals, guitars, backing vocals
Dan Mitchel – guitars
John Halliwell – guitars, acoustic guitars
Darrel Treece-Birch – keyboards and synthesisers, programming
Steve McKenna – bass guitars
Max Yates – drums and percussion
Лог создания рипа
Exact Audio Copy V1.0 beta 3 from 29. August 2011
EAC extraction logfile from 9. October 2012, 19:20
Ten / Heresy And Creed
Used drive : SlimtypeDVD A DS8A5SH Adapter: 0 ID: 1
Read mode : Secure
Utilize accurate stream : Yes
Defeat audio cache : Yes
Make use of C2 pointers : No
Read offset correction : 6
Overread into Lead-In and Lead-Out : No
Fill up missing offset samples with silence : Yes
Delete leading and trailing silent blocks : No
Null samples used in CRC calculations : Yes
Used interface : Native Win32 interface for Win NT & 2000
Used output format : User Defined Encoder
Selected bitrate : 320 kBit/s
Quality : High
Add ID3 tag : No
Command line compressor : C:\Program Files (x86)\Exact Audio Copy\Flac\flac.exe
Additional command line options : -V -8 -T "Date=%year%" -T "Genre=%genre%" %source%
TOC of the extracted CD
Track | Start | Length | Start sector | End sector
---------------------------------------------------------
1 | 0:00.00 | 1:36.26 | 0 | 7225
2 | 1:36.26 | 6:26.47 | 7226 | 36222
3 | 8:02.73 | 5:54.11 | 36223 | 62783
4 | 13:57.09 | 6:14.09 | 62784 | 90842
5 | 20:11.18 | 5:45.32 | 90843 | 116749
6 | 25:56.50 | 5:29.47 | 116750 | 141471
7 | 31:26.22 | 4:22.21 | 141472 | 161142
8 | 35:48.43 | 6:38.30 | 161143 | 191022
9 | 42:26.73 | 5:15.40 | 191023 | 214687
10 | 47:42.38 | 4:08.48 | 214688 | 233335
11 | 51:51.11 | 5:00.03 | 233336 | 255838
12 | 56:51.14 | 4:09.45 | 255839 | 274558
13 | 61:00.59 | 5:32.64 | 274559 | 299522
14 | 66:33.48 | 3:02.69 | 299523 | 313241
Range status and errors
Selected range
Filename D:\My Music\Ten - 2012 Heresy And Creed\Ten - Heresy And Creed.wav
Peak level 99.6 %
Extraction speed 5.0 X
Range quality 99.9 %
Test CRC 57EEFF2C
Copy CRC 57EEFF2C
Copy OK
No errors occurred
AccurateRip summary
Track 1 not present in database
Track 2 not present in database
Track 3 not present in database
Track 4 not present in database
Track 5 not present in database
Track 6 not present in database
Track 7 not present in database
Track 8 not present in database
Track 9 not present in database
Track 10 not present in database
Track 11 not present in database
Track 12 not present in database
Track 13 not present in database
Track 14 not present in database
None of the tracks are present in the AccurateRip database
End of status report
==== Log checksum F29C1531FA815C54D62AD8F08F77EC5682B3E00BA802A69E2CD5D069C8A2E6C9 ====
2014 (14-11-11) – Albion (Avalon, MICP-11194)
Продолжительность: 58:27
Треклист:
1. Alone In The Dark Tonight - 4:23
2. Battlefield - 5:00
3. It's Alive - 5:00
4. Albion Born - 5:20
5. Sometimes Love Takes The Long Way Home - 5:06
6. A Smuggler's Tale- 5:54
7. Die For Me - 7:25
8. It Ends This Day - 5:37
9. Gioco D'Amore - 4:51
10. Wild Horses - 5:57
bonus track for Japan:
11. Good God In Heaven What Hell Is This - 3:56
Автор вcех песен Gary Hughes
Продюсеры Dennis Ward (Pink Cream 69, Unisonic) и Gary Hughes
Состав группы:
Gary Hughes – vocals, guitars & programming
Dann Rosingana – guitars
John Halliwell – guitars
Steve Grocott - guitars
Darrel Treece-Birch – keyboards
Steve McKenna – bass guitars
Max Yates – drums and percussion
Karen Fell - additional backing vocals
Лог создания рипа
Exact Audio Copy V1.0 beta 3 from 29. August 2011
EAC extraction logfile from 27. November 2014, 23:06
Ten / Albion
Used drive : SlimtypeDVD A DS8A5SH Adapter: 0 ID: 1
Read mode : Secure
Utilize accurate stream : Yes
Defeat audio cache : Yes
Make use of C2 pointers : No
Read offset correction : 6
Overread into Lead-In and Lead-Out : No
Fill up missing offset samples with silence : Yes
Delete leading and trailing silent blocks : No
Null samples used in CRC calculations : Yes
Used interface : Native Win32 interface for Win NT & 2000
Used output format : User Defined Encoder
Selected bitrate : 320 kBit/s
Quality : High
Add ID3 tag : No
Command line compressor : C:\Program Files (x86)\Exact Audio Copy\Flac\flac.exe
Additional command line options : -V -8 -T "Date=%year%" -T "Genre=%genre%" %source%
TOC of the extracted CD
Track | Start | Length | Start sector | End sector
---------------------------------------------------------
1 | 0:00.00 | 4:22.58 | 0 | 19707
2 | 4:22.58 | 4:59.62 | 19708 | 42194
3 | 9:22.45 | 5:00.25 | 42195 | 64719
4 | 14:22.70 | 5:19.64 | 64720 | 88708
5 | 19:42.59 | 5:06.07 | 88709 | 111665
6 | 24:48.66 | 5:53.57 | 111666 | 138197
7 | 30:42.48 | 7:24.44 | 138198 | 171541
8 | 38:07.17 | 5:37.03 | 171542 | 196819
9 | 43:44.20 | 4:50.49 | 196820 | 218618
10 | 48:34.69 | 5:56.63 | 218619 | 245381
11 | 54:31.57 | 3:55.39 | 245382 | 263045
Range status and errors
Selected range
Filename D:\My Music\Ten - 2014 Albion\Ten - Albion.wav
Peak level 98.2 %
Extraction speed 1.8 X
Range quality 100.0 %
Test CRC 2D76A259
Copy CRC 2D76A259
Copy OK
No errors occurred
AccurateRip summary
Track 1 not present in database
Track 2 not present in database
Track 3 not present in database
Track 4 not present in database
Track 5 not present in database
Track 6 not present in database
Track 7 not present in database
Track 8 not present in database
Track 9 not present in database
Track 10 not present in database
Track 11 not present in database
None of the tracks are present in the AccurateRip database
End of status report
==== Log checksum 540E8B6E09D04BCBD2A51DA24C5DC0725C0231B37B0C44CC824A968E1E3DFDF8 ====
2015 (15-5-20) – Isla De Muerta (Avalon, MICP-11210)
Продолжительность: 61:42
Треклист:
1. (i) Buccaneers (Instrumental) / (ii) Dead Men Tell No Tales - 6:20
2. Revolution - 5:56
3. Acquiesce - 4:45
4. The Dragon And Saint George - 5:16
5. Intensify - 6:40
6. This Love - 4:43
7. (i) Karnak (Instrumental) / (ii) The Valley Of The Kings - 8:11
8. Tell Me What To Do - 4:16
9. Angel Of Darkness - 3:57
10. The Last Pretender - 6:40
bonus track for Japan:
11. Assault And Battery - 4:54
Автор вcех песен и проюсер Gary Hughes
Состав группы:
Gary Hughes – vocals, guitars & programming
Dann Rosingana – guitars
John Halliwell – guitars
Steve Grocott - guitars
Darrel Treece-Birch – keyboards
Steve McKenna – bass guitars
Max Yates – drums and percussion
Karen Fell - additional backing vocals
Лог создания рипа
Exact Audio Copy V1.0 beta 3 from 29. August 2011
EAC extraction logfile from 1. November 2015, 20:41
Ten / Isla De Muerta
Used drive : SlimtypeDVD A DS8A5SH Adapter: 0 ID: 0
Read mode : Secure
Utilize accurate stream : Yes
Defeat audio cache : Yes
Make use of C2 pointers : No
Read offset correction : 6
Overread into Lead-In and Lead-Out : No
Fill up missing offset samples with silence : Yes
Delete leading and trailing silent blocks : No
Null samples used in CRC calculations : Yes
Used interface : Installed external ASPI interface
Used output format : User Defined Encoder
Selected bitrate : 320 kBit/s
Quality : High
Add ID3 tag : No
Command line compressor : C:\Program Files (x86)\Exact Audio Copy\Flac\flac.exe
Additional command line options : -V -8 -T "Date=%year%" -T "Genre=%genre%" %source%
TOC of the extracted CD
Track | Start | Length | Start sector | End sector
---------------------------------------------------------
1 | 0:00.00 | 6:20.29 | 0 | 28528
2 | 6:20.29 | 5:56.37 | 28529 | 55265
3 | 12:16.66 | 4:45.35 | 55266 | 76675
4 | 17:02.26 | 5:16.57 | 76676 | 100432
5 | 22:19.08 | 6:40.67 | 100433 | 130499
6 | 29:00.00 | 4:43.18 | 130500 | 151742
7 | 33:43.18 | 8:11.25 | 151743 | 188592
8 | 41:54.43 | 4:16.07 | 188593 | 207799
9 | 46:10.50 | 3:57.30 | 207800 | 225604
10 | 50:08.05 | 6:40.46 | 225605 | 255650
11 | 56:48.51 | 4:53.35 | 255651 | 277660
Range status and errors
Selected range
Filename D:\My Music\Ten - 2015 Isla De Muerta\Ten - Isla De Muerta.wav
Peak level 98.2 %
Extraction speed 4.5 X
Range quality 99.9 %
Test CRC 34805018
Copy CRC 34805018
Copy OK
No errors occurred
AccurateRip summary
Track 1 accurately ripped (confidence 2) [200E0570] (AR v2)
Track 2 accurately ripped (confidence 2) [EA43A8F2] (AR v2)
Track 3 accurately ripped (confidence 2) [C0483C0A] (AR v2)
Track 4 accurately ripped (confidence 2) [9B2E11B5] (AR v2)
Track 5 accurately ripped (confidence 2) [D0691BA0] (AR v2)
Track 6 accurately ripped (confidence 2) [1C6B3C79] (AR v2)
Track 7 accurately ripped (confidence 2) [51F872D5] (AR v2)
Track 8 accurately ripped (confidence 2) [42C4F91C] (AR v2)
Track 9 accurately ripped (confidence 2) [D25F5D9C] (AR v2)
Track 10 accurately ripped (confidence 2) [C7A35C29] (AR v2)
Track 11 accurately ripped (confidence 2) [0303AFAB] (AR v2)
All tracks accurately ripped
End of status report
==== Log checksum 6EBDFE517627B2C3A4561808870C26B6F85555A84C3CAAAFAEADA2FAD411D0D5 ====
2015 (15-9-4) – The Dragon And Saint George EP (Rocktopia Records, UK, RTP004EP) - альбом в Японии не издавался
Продолжительность: 27:50
Треклист:
1. The Dragon And Saint George – 5:16
2. Musketeers: Soldiers Of The King (non-album track) – 4:07
3. Is There Anyone With Sense (non-album track) – 5:15
4. The Prodigal Saviour (non-album track) – 4:12
5. Albion Born - 5:24
6. We Can Be As One (non-album track) – 3:28
Автор вcех песен и продюсер Gary Hughes
Состав группы:
Gary Hughes – vocals, guitars & programming
Dann Rosingana – guitars
John Halliwell – guitars
Steve Grocott - guitars
Darrel Treece-Birch – keyboards
Steve McKenna – bass guitars
Max Yates – drums and percussion
Karen Fell - additional backing vocals
Лог создания рипа
Exact Audio Copy V1.0 beta 3 from 29. August 2011
EAC extraction logfile from 1. November 2015, 19:42
Ten / The Dragon And Saint George
Used drive : SlimtypeDVD A DS8A5SH Adapter: 0 ID: 0
Read mode : Secure
Utilize accurate stream : Yes
Defeat audio cache : Yes
Make use of C2 pointers : No
Read offset correction : 6
Overread into Lead-In and Lead-Out : No
Fill up missing offset samples with silence : Yes
Delete leading and trailing silent blocks : No
Null samples used in CRC calculations : Yes
Used interface : Installed external ASPI interface
Used output format : User Defined Encoder
Selected bitrate : 320 kBit/s
Quality : High
Add ID3 tag : No
Command line compressor : C:\Program Files (x86)\Exact Audio Copy\Flac\flac.exe
Additional command line options : -V -8 -T "Date=%year%" -T "Genre=%genre%" %source%
TOC of the extracted CD
Track | Start | Length | Start sector | End sector
---------------------------------------------------------
1 | 0:00.00 | 5:18.68 | 0 | 23917
2 | 5:18.68 | 4:09.18 | 23918 | 42610
3 | 9:28.11 | 5:17.01 | 42611 | 66386
4 | 14:45.12 | 4:14.62 | 66387 | 85498
5 | 18:59.74 | 5:21.19 | 85499 | 109592
6 | 24:21.18 | 3:29.08 | 109593 | 125275
Range status and errors
Selected range
Filename D:\My Music\Ten - 2015 The Dragon And Saint George (ep)\Ten - The Dragon And Saint George.wav
Peak level 98.2 %
Extraction speed 1.5 X
Range quality 100.0 %
Test CRC 13359764
Copy CRC 13359764
Copy OK
No errors occurred
AccurateRip summary
Track 1 not present in database
Track 2 not present in database
Track 3 not present in database
Track 4 not present in database
Track 5 not present in database
Track 6 not present in database
None of the tracks are present in the AccurateRip database
End of status report
==== Log checksum 94D5951E4DAE3512DD591A47B16B6CCBFBDB637A8F21CAB8CD78D6A92AF55466 ====
2017 (17-6-21) – Gothica (Avalon, MICP-11358)
Продолжительность: 61:42
Треклист:
1. The Grail - 8:06
2. Jekyll And Hyde - 4:41
3. Travellers - 5:11
4. A Man For All Seasons - 7:01
5. In My Dreams - 5:09
6. The Wild King Of Winter - 6:13
7. Paragon - 4:51
8. Welcome To The Freak Show - 5:36
9. La Luna Dra-Cu-La - 5:32
10. Into Darkness - 5:43
bonus track for Japan:
11. Paragon (bonus mix) - 3:38
Автор вcех песен и продюсер Gary Hughes
Состав группы:
Gary Hughes – lead & backing vocals, guitars, bass & programming
Dann Rosingana – guitar
John Halliwell – guitar
Steve Grocott - guitar
Darrel Treece-Birch – keyboards
Steve McKenna – bass guitar
Max Yates – drums and percussion
Karen Fell - additional backing vocals
Лог создания рипа
Exact Audio Copy V1.0 beta 3 from 29. August 2011
EAC extraction logfile from 30. June 2017, 23:27
Ten / Gothica
Used drive : SlimtypeDVD A DS8A5SH Adapter: 0 ID: 0
Read mode : Secure
Utilize accurate stream : Yes
Defeat audio cache : Yes
Make use of C2 pointers : No
Read offset correction : 6
Overread into Lead-In and Lead-Out : No
Fill up missing offset samples with silence : Yes
Delete leading and trailing silent blocks : No
Null samples used in CRC calculations : Yes
Used interface : Installed external ASPI interface
Used output format : User Defined Encoder
Selected bitrate : 320 kBit/s
Quality : High
Add ID3 tag : No
Command line compressor : C:\Program Files (x86)\Exact Audio Copy\Flac\flac.exe
Additional command line options : -V -8 -T "Date=%year%" -T "Genre=%genre%" %source%
TOC of the extracted CD
Track | Start | Length | Start sector | End sector
---------------------------------------------------------
1 | 0:00.00 | 8:06.21 | 0 | 36470
2 | 8:06.21 | 4:41.23 | 36471 | 57568
3 | 12:47.44 | 5:11.02 | 57569 | 80895
4 | 17:58.46 | 7:00.50 | 80896 | 112445
5 | 24:59.21 | 5:08.55 | 112446 | 135600
6 | 30:08.01 | 6:13.24 | 135601 | 163599
7 | 36:21.25 | 4:50.63 | 163600 | 185412
8 | 41:12.13 | 5:35.42 | 185413 | 210579
9 | 46:47.55 | 5:31.35 | 210580 | 235439
10 | 52:19.15 | 5:44.56 | 235440 | 261295
11 | 58:03.71 | 3:37.42 | 261296 | 277612
Range status and errors
Selected range
Filename D:\My Music\Ten - 2017 Gothica\Ten - Gothica.wav
Peak level 97.7 %
Extraction speed 4.6 X
Range quality 100.0 %
Test CRC 60EF4BC3
Copy CRC 60EF4BC3
Copy OK
No errors occurred
AccurateRip summary
Track 1 not present in database
Track 2 not present in database
Track 3 not present in database
Track 4 not present in database
Track 5 not present in database
Track 6 not present in database
Track 7 not present in database
Track 8 not present in database
Track 9 not present in database
Track 10 not present in database
Track 11 not present in database
None of the tracks are present in the AccurateRip database
End of status report
==== Log checksum A68E6ECA4F9B6AFEF5A6F3535264680F1EEF4F45B04F947AFA7309CE75111BBA ====
Gary Hughes - Дискография 1990-2007 (Японские издания, 7 альбомов), FLAC (image+.cue), losslessBob Catley - Дискография 1998-2008 (Японские издания, 7 альбомов), FLAC (image+.cue), lossless
Зарегистрирован:
  • 01-Июл-17 19:42
  • Скачан: 1,339 раз

Скачать .torrent

84 KB

Тип: обычная
Статус: проверено
Размер: 11.11 GB  ·  magnet6767CDD6F32847D74F3417A71DDD35837E750DD8
  • Свернуть поддиректории
  • Развернуть
  • Переключить
  • Увел./умен. окно
загружается...

19vovan70

Стаж: 9 лет 9 месяцев

Сообщений: 1120

flag

19vovan70 · 10-Окт-12 15:42 (спустя 26 мин., ред. 10-Окт-12 15:42)

Я знал, что этот релиз будет, тем не менее радуюсь свершившемуся ничуть не меньше...
kolushew
Виталя, просто супер, мега-раздача отличной команды! Спасибо огромное!

mikejazz

Стаж: 8 лет 6 месяцев

Сообщений: 243

flag

mikejazz · 10-Окт-12 17:17 (спустя 1 час 34 мин.)

Виталя,огромная благодарность за твой кропотливый,но очень нужный нам всем труд релизера!!!! Безмерное спасибо тебе!!!!!

booddoom

Top Seed 03* 160r

Стаж: 10 лет 7 месяцев

Сообщений: 425

flag

booddoom · 10-Окт-12 18:41 (спустя 1 час 23 мин.)

АХРЕНЕТЬ
Спасибо Виталий.

triolan64

Top Seed 04* 320r

Стаж: 9 лет 11 месяцев

Сообщений: 1767

flag

triolan64 · 10-Окт-12 18:47 (спустя 6 мин.)

kolushew
Присоединяюсь к восторженным кАмменТам,спасибо огромное Виталя.
Rock Forever!

budyjoe

Стаж: 8 лет 7 месяцев

Сообщений: 364

flag

budyjoe · 11-Окт-12 08:33 (спустя 13 часов)

всё качать слишком много, группу эту знаю плохо, подскажите, какие альбомы лучшие.

kolushew

Стаж: 9 лет 10 месяцев

Сообщений: 2403

flag

kolushew · 11-Окт-12 17:13 (спустя 8 часов)

Всем сказавшим спасибо - мое пожалуйста!
budyjoe писал(а):
55690170подскажите, какие альбомы лучшие.
Лучшие на мой взгляд The Name Of The Rose, Spellbound, Babylon и Far Beyond The World

crossovernickk

Стаж: 8 лет 1 месяц

Сообщений: 2896

flag

crossovernickk · 11-Окт-12 17:22 (спустя 9 мин.)

Как бы не прозвучало банально,но БОЛЬШОЕ СПАСИБО тебе ДРУЖИЩЕ!!!!
Просто великолепная японадискография, просто обалдел -такой труд вложен,а в ответ одни пасибы да благодарности.. Здоровья и только удачи на твоем поприще.Не прекращаешь радовать никогда своими обалденными релизами. Еще раз ГРАНД МЕРСИ Виталий! Пока возьму последний 2012,места на харде высвобожу..хапану и остальное))

kolushew

Стаж: 9 лет 10 месяцев

Сообщений: 2403

flag

kolushew · 11-Окт-12 20:16 (спустя 2 часа 53 мин.)

crossovernickk
Пожалуйста и Спасибо!
Ввел голосование за лучший альбом Ten.
Товарищи, настоятельно прошу принять участие.

Zak Stevens

Top Seed 02* 80r

Стаж: 9 лет 7 месяцев

Сообщений: 392

flag

Zak Stevens · 12-Окт-12 08:59 (спустя 12 часов)

kolushew
огромное спасибо!
беру все свои айронды и несу их в ведро

kolushew

Стаж: 9 лет 10 месяцев

Сообщений: 2403

flag

kolushew · 12-Окт-12 14:07 (спустя 5 часов)

eugene25
Zak Stevens
Пожалуйста!
Физические носители все же ценнее и роднее!

ringo13

Стаж: 8 лет 9 месяцев

Сообщений: 560

flag

ringo13 · 12-Окт-12 20:02 (спустя 5 часов)

TEN - одна из немногих групп, которых собираю полную дискографию.
Взял отсюда 3 вещи.
Большое спасибо за такую, я бы сказал, с любовью сделанную раздачу

liza2010

Стаж: 8 лет 11 месяцев

Сообщений: 647

flag

liza2010 · 12-Окт-12 21:58 (спустя 1 час 55 мин.)

Виталя, и я с удовольствием присоединяюсь к общему хору благодарностей, хотя до настоящего момента абсолютно не знаком с этой группой. Ознакомлюсь – отпишусь более подробно.

kolushew

Стаж: 9 лет 10 месяцев

Сообщений: 2403

flag

kolushew · 16-Окт-12 19:21 (спустя 3 дня)

ringo13
liza2010
SAXON4408
riversider
FearlesSMetaLWarrioR
Всем мое пожалуйста и благодарность за комментарии!
Товарищи, Дамы и Господа, убедительная просьба поучаствовать в голосовании!!! Из трехсот скачавших только 11 проголосовали. Не серьзно...

qazaqazaq666

Top Seed 01* 40r

Стаж: 10 лет 5 месяцев

Сообщений: 1911

flag

qazaqazaq666 · 17-Окт-12 17:51 (спустя 22 часа)

kolushew, большущее спасибо. На многие альбомы, судя по обложкам, натыкался, но если память не изменяет, так и не слышал.
Странный факт, но человек, который не понимает того, о чём вы ему говорите, считает тупым не себя, а вас.
РУССКОЯЗЫЧНЫЙ (!) КАЧЕСТВЕННЫЙ (!) ПРОГ-АРТ РОК: БолоБэнд (BoloBand / Сергей Болотников) - Сбой хамелеона - 2017, FLAC

Zak Stevens

Top Seed 02* 80r

Стаж: 9 лет 7 месяцев

Сообщений: 392

flag

Zak Stevens · 18-Окт-12 12:26 (спустя 18 часов)

хочется задать вопрос голосующим: вы первый вообще слышали?
результаты the name of the rose вполне ожидаемые, но ставить первый в один ряд со всеми остальными - говорит о том, что многие голосуют будучи знакомыми далеко не со всеми альбомами.
считаю, что бесспорные лидеры - это первые два и уверен, что большинство со мной согласятся
PS это для тех, кто начнет знакомство с Ten с других альбомов и разочаруясь, так и не дойдут до их шедевров

kolushew

Стаж: 9 лет 10 месяцев

Сообщений: 2403

flag

kolushew · 20-Окт-12 06:57 (спустя 1 день 18 часов)

Zak Stevens писал(а):
55818551многие голосуют будучи знакомыми далеко не со всеми альбомами.
Ну да! К примеру по рейтингу новый альбом на втором месте. Видать только его и послушали...

qazaqazaq666

Top Seed 01* 40r

Стаж: 10 лет 5 месяцев

Сообщений: 1911

flag

qazaqazaq666 · 20-Окт-12 22:44 (спустя 15 часов)

Zak Stevens
kolushew
Не голосовал, но скачал как раз два первых и последний, и ответственно заявляю, что последний - лучший из этих 3-х, на мой вкус.
Странный факт, но человек, который не понимает того, о чём вы ему говорите, считает тупым не себя, а вас.
РУССКОЯЗЫЧНЫЙ (!) КАЧЕСТВЕННЫЙ (!) ПРОГ-АРТ РОК: БолоБэнд (BoloBand / Сергей Болотников) - Сбой хамелеона - 2017, FLAC

Zak Stevens

Top Seed 02* 80r

Стаж: 9 лет 7 месяцев

Сообщений: 392

flag

Zak Stevens · 21-Окт-12 20:24 (спустя 21 час)

qazaqazaq666 писал(а):
55865396Zak Stevens
kolushew
Не голосовал, но скачал как раз два первых и последний, и ответственно заявляю, что последний - лучший из этих 3-х, на мой вкус.
вкусы имеют свойство меняться, в Вашем случае это произойдет очень скоро

qazaqazaq666

Top Seed 01* 40r

Стаж: 10 лет 5 месяцев

Сообщений: 1911

flag

qazaqazaq666 · 22-Окт-12 09:29 (спустя 13 часов, ред. 02-Ноя-15 20:17)

Zak Stevens
а чего вдруг на вы - вроде не раз общались ) откуда такая уверенность о скорой смене именно в моем случае? )
по поводу вкусов - действительно меняются, поэтому сейчас все чаще, помимо всего прочего, слушаю rockabilly и mdm не думаю, что когда-то оценю, в частности, первый альбом группы - мне нравится разная музыка, но даже легкая доля слащавости в 90% случаев вызывает отторжение.
Странный факт, но человек, который не понимает того, о чём вы ему говорите, считает тупым не себя, а вас.
РУССКОЯЗЫЧНЫЙ (!) КАЧЕСТВЕННЫЙ (!) ПРОГ-АРТ РОК: БолоБэнд (BoloBand / Сергей Болотников) - Сбой хамелеона - 2017, FLAC

Zak Stevens

Top Seed 02* 80r

Стаж: 9 лет 7 месяцев

Сообщений: 392

flag

Zak Stevens · 22-Окт-12 13:31 (спустя 4 часа)

qazaqazaq666
на "ВЫ" так получилось, сорри, привычка в рабочей переписке
Заметил, что многие меломаны со временем приобретают способность оценивать муз творения объективно, ну по крайне мере те, кто со стажем поэтому в твоем случае мне кажется "последний" может уступить место "первому", не факт, но скорее всего. Хотя с другой стороны многие отдают предпочтение the division bell, в то время как большинство проголосуют за the wall, или скажем, нострадамус понравится, а дефендерс остановят на первом треке...это я к тому, что классика есть классика, думаю что 1996 год уже может претендовать на это, всетки 16 лет прошло...
кстати, возьмем к примеру квинов: вроде бы британский...мелодично...мэя могу слушать - back to the light даже фирменный есть, а вот квин - никогда и не за что, ну не моё и все тут Но: я осознаю, именно осознаю, а не соглашаюсь с мнением большинства, что многие вещи реальные шедевры. мож я загнул немного в сравнении, но как говорится имхо.
пока писал столько примеров вспомнил
а что собственно понимается под слащавостью, ёмахо-ёмасо или в мелодичном смысле, или и в том и другом?
ps у меня как то в студенчестве была кассета, где на одной стороне bad boys blue-the fifth, а на другой megadeth-rust in peace, так мы с пацанами шли по улице с кассетником, "А" закончится, без всяких колебаний переворачивали на "B" и идем дальше...Это я про вкус, кто-то скажет, что его напрочь нет, а я скажу, что он у меня разносторонний

qazaqazaq666

Top Seed 01* 40r

Стаж: 10 лет 5 месяцев

Сообщений: 1911

flag

qazaqazaq666 · 22-Окт-12 14:49 (спустя 1 час 18 мин., ред. 22-Окт-12 14:49)

Zak Stevens писал(а):
55892483Хотя с другой стороны многие отдают предпочтение the division bell
я как раз из них )
что касается классики - тут я не спорю, если группа до сих пор востребована, значит что-то в ней несомненно для некоторого числа людей есть (кроме случаев, когда исполнители знамениты лишь за счет промоутеров). но вопросы о классике и личных предпочтениях для меня лежат в совершенно разных плоскостях. поэтому первый альбом мне как-то вообще не приглянулся, второй - уже лучше, но все-равно не откровение.
тут еще существенный момент заключается в том, когда ты услышал материал, и какой к тому времени был багаж прослушанной музыки, с которой непроизвольно сравниваешь новый для тебя альбом. То есть если человек прослушивает работы одного коллектива не в хронологическом порядке, объективной картины его творчества он уже не составит. Простой пример: первым полностью прослушанным мной альбомом Blind Guardian был "Imaginations from the other side". на его фоне все предыдущие альбомы, и часть последующих мне кажутся совершенно блеклыми, поскольку я начал слушать именно с него, до этого ничего похожего не знал, поэтому именно он стал для меня особенным. но в то же время прекрасно понимаю, что если бы начал слушать группу с дебютника, то считал бы их первые альбомы также очень хорошими, просто альбом за альбомом отмечал бы для себя эволюцию коллектива, но хранил бы в душе тепло по отношению к первому альбому, и периодически включал бы скорее по ностальгическим соображениям, обманывая себя сохраненным первым чувством, испытанным при первом прослушивании.
Zak Stevens писал(а):
55892483а что собственно понимается под слащавостью, ёмахо-ёмасо или в мелодичном смысле, или и в том и другом?
и в том, и в другом. всегда недолюбливал рок-музыку 80-90-х, в которой патлатые мальчики и их продюсеры заметно ориентируются на девочек-подростков как в текстах, так и в музыке, хотя тут тоже не без исключений - самые коммерческие альбомы scorpions и gotthard у меня несмотря ни на что на ура шли )
Странный факт, но человек, который не понимает того, о чём вы ему говорите, считает тупым не себя, а вас.
РУССКОЯЗЫЧНЫЙ (!) КАЧЕСТВЕННЫЙ (!) ПРОГ-АРТ РОК: БолоБэнд (BoloBand / Сергей Болотников) - Сбой хамелеона - 2017, FLAC

Zak Stevens

Top Seed 02* 80r

Стаж: 9 лет 7 месяцев

Сообщений: 392

flag

Zak Stevens · 22-Окт-12 22:07 (спустя 7 часов)

Во многом соглашусь с тобой, но с этим:
qazaqazaq666 писал(а):
всегда недолюбливал рок-музыку 80-90-х
просто не имею права: я рос на 80-х, и тогда было и сейчас - мне абсолютно все равно на кого ориентировались продюсеры и исполнители, и как ты говоришь, храню в душе тепло по сей день. Думаю, что у всех так... и поэтому стараюсь хоть иногда оценивать объективно то, что пытаются повторить...да, именно повторить современные команды. Но про них уже отдельная тема...и она меня не сильно интересует

qazaqazaq666

Top Seed 01* 40r

Стаж: 10 лет 5 месяцев

Сообщений: 1911

flag

qazaqazaq666 · 22-Окт-12 22:36 (спустя 28 мин., ред. 22-Окт-12 22:36)

Zak Stevens
ты меня не правильно понял
Цитата:
всегда недолюбливал рок-музыку 80-90-х, в которой патлатые мальчики и их продюсеры заметно ориентируются на девочек-подростков как в текстах, так и в музыке
это предложение нельзя делить, поскольку я сам вырос на роке 70-80-90-х - мне не нравятся именно слащавые, как правило насквозь коммерческие представители рок-музыки 80-х, в основном этим славились коллективы, играющие глэм и софт-рок - я как раз о них, остальные нравятся вроде теперь понятнее выразился )
Странный факт, но человек, который не понимает того, о чём вы ему говорите, считает тупым не себя, а вас.
РУССКОЯЗЫЧНЫЙ (!) КАЧЕСТВЕННЫЙ (!) ПРОГ-АРТ РОК: БолоБэнд (BoloBand / Сергей Болотников) - Сбой хамелеона - 2017, FLAC

lobashova

Стаж: 9 лет 11 месяцев

Сообщений: 6522

flag

lobashova · 23-Окт-12 02:06 (спустя 3 часа)

kolushew
Спасибо от души. Чумовая команда. Вот бы ещё с Talisman такую раздачу замутить)))

Zak Stevens

Top Seed 02* 80r

Стаж: 9 лет 7 месяцев

Сообщений: 392

flag

Zak Stevens · 23-Окт-12 09:39 (спустя 7 часов)

qazaqazaq666
да нет, думаю, что правильно я тебя понял мне тоже многие коммерческие представители не нравятся, но если они оттуда...т.е. из моего детства, юности, то вроде очень даже ничего, моё ведь, родное
и бон джови на веревке на сцене и девка на капоте у ковердейла - все эт мое, ну что я могу поделать

and-bel-63

Стаж: 9 лет 8 месяцев

Сообщений: 25

flag

and-bel-63 · 16-Ноя-12 00:09 (спустя 23 дня, ред. 16-Ноя-12 00:09)

Только с четвёртого раза записал 2012 - Heresy And Creed на CD-R болванку - в раздаче неправильный cue файл. Нужно исправить раздающему ( выбросить вот такие строки ISRC ITG271200297).

kolushew

Стаж: 9 лет 10 месяцев

Сообщений: 2403

flag

kolushew · 17-Ноя-12 19:13 (спустя 1 день 19 часов)

and-bel-63 писал(а):
56342879Только с четвёртого раза записал 2012 - Heresy And Creed на CD-R болванку - в раздаче неправильный cue файл. Нужно исправить раздающему ( выбросить вот такие строки ISRC ITG271200297).
С помощью CD-DA Extractor заболванил с первого раза. Это у вас проблемы...

crossovernickk

Стаж: 8 лет 1 месяц

Сообщений: 2896

flag

crossovernickk · 02-Дек-12 23:55 (спустя 15 дней, ред. 13-Ноя-14 13:37)

Мда, хочу высказать разочарование по поводу Heresy And Creed. Ну не понравился ни на йоту,сплошной мутор и непонятные темы, после Stormwarning который получился залихватски прог-роковым с роскошными мелодиями и прекрасными темами, на новом альбоме я такого не услышал,пошел крен в сторону крепкого харда и чего-то еще.. куда подевался AOR/Melodic Hard Rock до конца мне так и не ясно.
Единственные понравившиеся треки:
2. Arabian Knights - 6:27 - неплохая мелодичная тема
8. The Last Time - 6:38 - просто..лучшая вещь на альбоме и ШЕДЕВР однозначно!!!
Ну и еще несколько, начиная со второй половины диска. Неужели Хьюз так увлекся помощью Бобу Кэтли в написании его великолепных сольников, что совсем забросил своё детище. Лучшими считаю естественно два первых и 2004 - Return To Evermore
зы: может быть когда последний раз послушал для пред.заказа Heresy And Creed, просто не лег на ухо,тем не менее никому не навязываю своё видение и представление . Это моё сугубо личное мнение,которое может не совпадать с Вашим.
----------------------------------------------------------------
Забираю свои слова первой половины речи обратно. Альбом - шикарен!!!!! Просто вьехать с первого-второго раза не получалось, оттого
такой "диссонанс" в комментарии.

Zak Stevens

Top Seed 02* 80r

Стаж: 9 лет 7 месяцев

Сообщений: 392

flag

Zak Stevens · 03-Дек-12 14:30 (спустя 14 часов)

crossovernickk писал(а):
56634143Неужели Хьюз так увлекся помощью Бобу Кэтли в написании его великолепных сольников

у меня почему-то не получилось найти похожую раздачу с этим великолепным музыкантом
 
All rights reserved © 2017-2018
Loading...
Error