Обсуждение: Правила подраздела Аниме (плеерный раздел)

Автор
Сообщение

TolstiyMob

VIP (Заслуженный)

Стаж: 10 лет 1 месяц

Сообщений: 2971

flag

TolstiyMob · 02-Июн-13 20:22 (5 лет 5 месяцев назад)

kost12000 писал(а):
как обстоят дела с видео с разрешением ниже 720P
Никак. Этому место в основном, но никак не здесь.

formeis

Стаж: 5 лет 7 месяцев

Сообщений: 20

flag

formeis · 17-Июл-13 11:32 (спустя 1 месяц 14 дней)

К примеру. Есть раздача у которой есть только русская дорожка. Нету японской дорожки и нету субтитров. Для поглощения такой раздачи хватит добавление японской дорожки и субтитров? Или еще нужны сравнения скриншотов?

TolstiyMob

VIP (Заслуженный)

Стаж: 10 лет 1 месяц

Сообщений: 2971

flag

TolstiyMob · 17-Июл-13 18:29 (спустя 6 часов)

formeis писал(а):
Для поглощения такой раздачи хватит добавление японской дорожки и субтитров? Или еще нужны сравнения скриншотов?
Зависит от выкладываемого формата.

formeis

Стаж: 5 лет 7 месяцев

Сообщений: 20

flag

formeis · 17-Июл-13 19:46 (спустя 1 час 17 мин.)

TolstiyMob писал(а):
60129219
formeis писал(а):
Для поглощения такой раздачи хватит добавление японской дорожки и субтитров? Или еще нужны сравнения скриншотов?
Зависит от выкладываемого формата.
Формат .avi. И там, и там.

TolstiyMob

VIP (Заслуженный)

Стаж: 10 лет 1 месяц

Сообщений: 2971

flag

TolstiyMob · 17-Июл-13 22:56 (спустя 3 часа)

formeis писал(а):
Формат .avi. И там, и там.
Тогда хватит.

formeis

Стаж: 5 лет 7 месяцев

Сообщений: 20

flag

formeis · 18-Июл-13 07:44 (спустя 8 часов)

TolstiyMob писал(а):
60133218
formeis писал(а):
Формат .avi. И там, и там.
Тогда хватит.
Ясно. Спасибо.

Buka63

Moderator

Стаж: 7 лет 7 месяцев

Сообщений: 9336

flag

Buka63 · 26-Авг-13 08:21 (спустя 1 месяц 8 дней)

Хочу поднять вопрос о раздачах длинных, малопопулярных и плохо сидируемых.
В частности по моей раздаче Космобратьев http://GOSTRACKER.XYZ/viewtopic.php?t=4104302
Раздачу я завершил на 53 серии по причине ухода из проекта Eladiel (у нее были на то веские причины, здесь их описывать я не буду). Продолжать релиз с одноголоской от Shoker'а смысла не было - никто ее качать не станет, тем более, что дальше количество женских персонажей только увеличится.
Потому по просьбам пользователей с 54 серии была создана раздача http://GOSTRACKER.XYZ/viewtopic.php?t=4518128 с озвучкой от BadWolf и comina. Я понимаю, что создание раздачи с новой озвучкой не с начала сериала противоречит правилам. Но требование дублирования первой раздачи с новой озвучкой с самого начала считаю неприемлемым. Тем более, что манги хватит серий на 150 как минимум, а разделять тайтл на сезоны японцы явно не собираются. Потому возможен вариант, что где-нибудь в районе 120 серии будет новый дроп, и придется начинать раздачу с начала уже с третьей озвучкой.
На сегодня моя вторая раздача закрыта. Хотя вполне могла бы существовать с вечным статусом "Временно". Я же уверен, что никто другой данный тайтл в HWP релизить не станет.
Потому выношу данный вопрос на ваше, господа модераторы, рассмотрение. Жду ровно неделю, после чего удаляю закрытую раздачу и все рабочие материалы с жесткого диска и забываю про этот тайтл.

exTimecraft.

О дооформлении релизов прошу отписываться мне в личку с обязательным указанием ссылки.

TolstiyMob

VIP (Заслуженный)

Стаж: 10 лет 1 месяц

Сообщений: 2971

flag

TolstiyMob · 26-Авг-13 21:50 (спустя 13 часов)

Buka63 писал(а):
Хотя вполне могла бы существовать с вечным статусом "Временно".
Это было бы возможно только в случае если бы озвучки BadWolf и comina на первые серии не было.

charman

Стаж: 8 лет

Сообщений: 491

flag

charman · 27-Авг-13 17:17 (спустя 19 часов)

TolstiyMob, в HWP формате?

TolstiyMob

VIP (Заслуженный)

Стаж: 10 лет 1 месяц

Сообщений: 2971

flag

TolstiyMob · 27-Авг-13 18:27 (спустя 1 час 9 мин.)

charman писал(а):
TolstiyMob, в HWP формате?
Не только.

Buka63

Moderator

Стаж: 7 лет 7 месяцев

Сообщений: 9336

flag

Buka63 · 28-Авг-13 09:00 (спустя 14 часов, ред. 28-Авг-13 09:00)

TolstiyMob писал(а):
Это было бы возможно только в случае если бы озвучки BadWolf и comina на первые серии не было.
Я понимаю, все верно, так сказать, по букве правил.
Но тут случай особый же. Неужто ничего нельзя сделать?
Ну, допустим, сделаю я раздачу сначала, а потом буду пару месяцев раздавать 20 Гб. 5 человекам, из которых хорошо если двое останутся сидировать. Не вижу смысла.

exTimecraft.

О дооформлении релизов прошу отписываться мне в личку с обязательным указанием ссылки.

TolstiyMob

VIP (Заслуженный)

Стаж: 10 лет 1 месяц

Сообщений: 2971

flag

TolstiyMob · 28-Авг-13 22:21 (спустя 13 часов)

Buka63 писал(а):
Но тут случай особый же. Неужто ничего нельзя сделать?
В чем заключается его особенность?
Buka63 писал(а):
Ну, допустим, сделаю я раздачу сначала, а потом буду пару месяцев раздавать 20 Гб. 5 человекам, из которых хорошо если двое останутся сидировать. Не вижу смысла.
Странный аргумент, применимый к 80% всех раздач больше 20 гб по размеру. Ну не сидируйте тогда, что я еще могу вам сказать?

Persona99

VIP (Заслуженный)

Стаж: 12 лет 1 месяц

Сообщений: 12671

flag

Persona99 · 28-Авг-13 23:13 (спустя 51 мин., ред. 28-Авг-13 23:13)

Тыкс...
В плеерном есть только раздача Buka63
Согласно правилам, если озвучка брошена, можно продолжать другой.
Но. В данном случае есть другой полный вариант озвучки.
Но. В плеерном этого варианта нету.
ИМХО в данном случае можно разрешить Buka63
вторую плеерную раздачу с 54 серии с другой озвучкой.
В одну раздачу, конечно, низя.
Buka63 писал(а):
60623626Потому возможен вариант, что где-нибудь в районе 120 серии будет новый дроп, и придется начинать раздачу с начала уже с третьей озвучкой.
Это было бы печально. Но если есть полная озвучка хотя бы в одном варианте, то куски разных озвучек не приветствуются. Ну разве что полная вообще по качеству хуже некуда.


Критик, это тот, кто объясняет автору, как бы делал он сам... Если бы умел...
Собака лает, ветер носит, а караван идёт.

Ich Lauf

VIP (Заслуженный)

Стаж: 10 лет

Сообщений: 11537

Ich Lauf · 28-Авг-13 23:49 (спустя 36 мин.)

Persona99 писал(а):
60659018Согласно правилам, если озвучка брошена, можно продолжать другой.
Ни та, ни другая не брошены.
Persona99 писал(а):
60659018Но. В плеерном этого варианта нету.
Не аргумент, как и выше.
Persona99 писал(а):
60659018вторую плеерную раздачу с 54 серии с другой озвучкой.
Так тоже низя. Придираться к каждой букве, ходить на цыпочках и тут же самим сливать, увы, но не пойдет.
Отсутствую.

Persona99

VIP (Заслуженный)

Стаж: 12 лет 1 месяц

Сообщений: 12671

flag

Persona99 · 29-Авг-13 00:05 (спустя 15 мин.)

Khorad-Nur писал(а):
60659400Ни та, ни другая не брошены.
Да, сорри. Я так поняла сперва, что она брошена. Тогда да, тогда надо дополнять той, которая была.
Buka63 писал(а):
60623626Продолжать релиз с одноголоской от Shoker'а смысла не было - никто ее качать не станет,
Ну тут ты не прав. На одной Эладиэль свет клином не сошёлся, качают и одноголоски.


Критик, это тот, кто объясняет автору, как бы делал он сам... Если бы умел...
Собака лает, ветер носит, а караван идёт.

Buka63

Moderator

Стаж: 7 лет 7 месяцев

Сообщений: 9336

flag

Buka63 · 29-Авг-13 05:39 (спустя 5 часов)

Persona99 писал(а):
Ну тут ты не прав. На одной Эладиэль свет клином не сошёлся, качают и одноголоски.
Любую другую - да, но ты бы послушала одноголоску от Шокера, особенно женских персонажей
В общем позиция модсостава мне ясна. Я же умываю руки.

exTimecraft.

О дооформлении релизов прошу отписываться мне в личку с обязательным указанием ссылки.

kost12000

Стаж: 8 лет 5 месяцев

Сообщений: 8781

flag

kost12000 · 29-Авг-13 19:29 (спустя 13 часов)

Buka63 писал(а):
60660698
Persona99 писал(а):
Ну тут ты не прав. На одной Эладиэль свет клином не сошёлся, качают и одноголоски.
Любую другую - да, но ты бы послушала одноголоску от Шокера, особенно женских персонажей
В общем позиция модсостава мне ясна. Я же умываю руки.
я фанат этого аниме .я бы скачал , универсалска же ,не понравилась озвучка ,можно сабами посмотреть!

Buka63

Moderator

Стаж: 7 лет 7 месяцев

Сообщений: 9336

flag

Buka63 · 30-Авг-13 09:39 (спустя 14 часов)

kost12000
Почему бы вам тогда самому не сделать в плеерном раздачу с самого начала с озвучкой от Опендаба? Ведь опыт у вас есть.
И вопрос модераторам. Эти раздачи http://GOSTRACKER.XYZ/viewtopic.php?t=4263220 , http://GOSTRACKER.XYZ/viewtopic.php?t=4447485 по тех.данным случайно в плеерный не попадают?

exTimecraft.

О дооформлении релизов прошу отписываться мне в личку с обязательным указанием ссылки.

Ich Lauf

VIP (Заслуженный)

Стаж: 10 лет

Сообщений: 11537

Ich Lauf · 30-Авг-13 13:25 (спустя 3 часа)

Buka63 писал(а):
60674509по тех.данным случайно в плеерный не попадают?
Первая да, хотя сабов в срт бы. Вторая не уверен, надо бы через авдамп глянуть частоту кадров.
Отсутствую.

kost12000

Стаж: 8 лет 5 месяцев

Сообщений: 8781

flag

kost12000 · 31-Авг-13 16:57 (спустя 1 день 3 часа, ред. 31-Авг-13 16:57)

Buka63 писал(а):
60674509kost12000
Почему бы вам тогда самому не сделать в плеерном раздачу с самого начала с озвучкой от Опендаба? Ведь опыт у вас есть.
сейчас времени нету
я рипы для [HWP] не делал!
делал только [HD]
ps.делал рипы [HWP] с одной звуковой дорожкой и для себя и знакомых когда просили
потом после просмотра удалял!
плохо дружу с этой прогой VirtualDub
скрытый текст
Формат : AVI
Формат/Информация : Audio Video Interleave
Размер файла : 215 Мбайт
Продолжительность : 23 м.
Общий поток : 1268 Кбит/сек
Программа кодирования : VirtualDubMod 1.5.10.3
Библиотека кодирования : VirtualDubMod build 2550/release
Видео
Идентификатор : 0
Формат : MPEG-4 Visual
Профиль формата : Simple@L1
Параметр BVOP формата : Нет
Параметр QPel формата : Нет
Параметр GMC формата : Без точки перехода
Параметр матрицы формата : Default (H.263)
Идентификатор кодека : DIVX
Идентификатор кодека/Информация : Project Mayo
Идентификатор кодека/Подсказка : DivX 4
Продолжительность : 23 м.
Битрейт : 1130 Кбит/сек
Ширина : 720 пикселей
Высота : 408 или 392 пикселей
Соотношение сторон : 16:9
Частота кадров : 23,976 кадра/сек
Цветовое пространство : YUV
Субдискретизация насыщенности : 4:2:0
Битовая глубина : 8 бит
Тип развёртки : Прогрессивная
Метод сжатия : С потерями
Бит/(Пиксели*Кадры) : 0.161
Размер потока : 192 Мбайт (89%)
Библиотека кодирования : Lavc53.33.0
Аудио
Идентификатор : 1
Формат : MPEG Audio
Версия формата : Version 1
Профиль формата : Layer 3
Идентификатор кодека : 55
Идентификатор кодека/Подсказка : MP3
Продолжительность : 23 м.
Вид битрейта : Постоянный
Битрейт : 128 Кбит/сек
Каналы : 2 канала
Частота : 44,1 КГц
Метод сжатия : С потерями
Размер потока : 21,7 Мбайт (10%)
Выравнивание : Разделение по промежуткам
Продолжительность промежутка : 42 мс. (1,00 видеокадр)
Время предзагрузки промежутка : 500 мс.
Библиотека кодирования : LAME3.99r
Настройки программы : -m s -V 4 -q 2 -lowpass 17 -b 128
это совсем другая тема
не уверен подойдёт по правилам?
большинство рипов,такие у меня!

Buka63

Moderator

Стаж: 7 лет 7 месяцев

Сообщений: 9336

flag

Buka63 · 01-Сен-13 06:45 (спустя 13 часов)

kost12000
Если хотите, могу научить. Стукнитесь в личку вечером.

exTimecraft.

О дооформлении релизов прошу отписываться мне в личку с обязательным указанием ссылки.

kost12000

Стаж: 8 лет 5 месяцев

Сообщений: 8781

flag

kost12000 · 01-Сен-13 08:10 (спустя 1 час 24 мин.)

Buka63
Неплохо бы было

Buka63

Moderator

Стаж: 7 лет 7 месяцев

Сообщений: 9336

flag

Buka63 · 01-Сен-13 23:18 (спустя 15 часов)

kost12000
Завтра, верней уже сегодня, постараюсь скинуть все в личку.

exTimecraft.

О дооформлении релизов прошу отписываться мне в личку с обязательным указанием ссылки.

kost12000

Стаж: 8 лет 5 месяцев

Сообщений: 8781

flag

kost12000 · 03-Окт-13 19:30 (спустя 1 месяц 1 день, ред. 05-Окт-13 16:11)

Ich Lauf
скрытый текст
Формат : Matroska
Версия формата : Version 4 / Version 2
Размер файла : 251 Мбайт
Продолжительность : 20 м.
Общий поток : 1697 Кбит/сек
Дата кодирования : UTC 2013-09-20 09:32:16
Программа кодирования : mkvmerge v6.4.1 ('Omega Point') built on Sep 16 2013 22:05:10
Библиотека кодирования : libebml v1.3.0 + libmatroska v1.4.1
Видео
Идентификатор : 1
Формат : AVC
Формат/Информация : Advanced Video Codec
Профиль формата : High@L4.1
Параметр CABAC формата : Да
Параметр ReFrames формата : 4 кадра
Идентификатор кодека : V_MPEG4/ISO/AVC
Продолжительность : 20 м.
Ширина : 1280 пикселей
Высота : 720 пикселей
Соотношение сторон : 16:9
Режим частоты кадров : Постоянный
Частота кадров : 23,976 кадра/сек
Цветовое пространство : YUV
Субдискретизация насыщенности : 4:2:0
Битовая глубина : 8 бит
Тип развёртки : Прогрессивная
Библиотека кодирования : x264 core 125 r2200+677M 3a754e7
Настройки программы : cabac=1 / ref=4 / deblock=1:1:-1 / analyse=0x3:0x113 / me=umh / subme=9 / psy=1 / fade_compensate=0.00 / psy_rd=1.00:0.00 / mixed_ref=1 / me_range=24 / chroma_me=1 / trellis=2 / 8x8dct=1 / cqm=0 / deadzone=21,11 / fast_pskip=1 / chroma_qp_offset=-2 / threads=8 / lookahead_threads=1 / sliced_threads=0 / nr=0 / decimate=1 / interlaced=0 / bluray_compat=0 / constrained_intra=0 / fgo=0 / bframes=9 / b_pyramid=2 / b_adapt=2 / b_bias=0 / direct=1 / weightb=1 / open_gop=0 / weightp=2 / keyint=240 / keyint_min=24 / scenecut=40 / intra_refresh=0 / rc=crf / mbtree=0 / crf=19.0000 / qcomp=0.72 / qpmin=0 / qpmax=69 / qpstep=4 / ip_ratio=1.40 / pb_ratio=1.30 / aq=1:0.85
Default : Да
Forced : Нет
Основные цвета : BT.709
Характеристики трансфера : BT.709
Коэффициенты матрицы : BT.709
Аудио #1
Идентификатор : 2
Формат : AAC
Формат/Информация : Advanced Audio Codec
Профиль формата : HE-AAC / LC
Идентификатор кодека : A_AAC
Продолжительность : 20 м.
Каналы : 2 канала
Расположение каналов : Front: L R
Частота : 96,0 КГц / 48,0 КГц
Метод сжатия : С потерями
Заголовок : Zendos & Eladiel
Язык : Russian
Default : Да
Forced : Нет
Аудио #2
Идентификатор : 3
Формат : AAC
Формат/Информация : Advanced Audio Codec
Профиль формата : LC
Идентификатор кодека : A_AAC
Продолжительность : 20 м.
Каналы : 2 канала
Расположение каналов : Front: L R
Частота : 48,0 КГц
Метод сжатия : С потерями
Заголовок : Original
Язык : Japanese
Default : Нет
Forced : Нет
Текст #1
Идентификатор : 4
Формат : ASS
Идентификатор кодека : S_TEXT/ASS
Идентификатор кодека/Информация : Advanced Sub Station Alpha
Метод сжатия : Без потерь
Заголовок : Надписи
Язык : Russian
Default : Да
Forced : Да
Текст #2
Идентификатор : 5
Формат : ASS
Идентификатор кодека : S_TEXT/ASS
Идентификатор кодека/Информация : Advanced Sub Station Alpha
Метод сжатия : Без потерь
Заголовок : Полные [Akashiro]
Язык : Russian
Default : Нет
Forced : Нет
скрытый текст
Формат : Matroska
Версия формата : Version 4 / Version 2
Размер файла : 357 Мбайт
Продолжительность : 23 м.
Общий поток : 2106 Кбит/сек
Дата кодирования : UTC 2013-07-23 17:03:50
Программа кодирования : mkvmerge v6.3.0 ('You can't stop me!') built on Jun 28 2013 20:09:41
Библиотека кодирования : libebml v1.3.0 + libmatroska v1.4.0
Attachment : Yes
Видео
Идентификатор : 1
Формат : AVC
Формат/Информация : Advanced Video Codec
Профиль формата : High@L4.0
Параметр CABAC формата : Да
Параметр ReFrames формата : 6 кадров
Идентификатор кодека : V_MPEG4/ISO/AVC
Продолжительность : 23 м.
Номинальный битрейт : 1776 Кбит/сек
Ширина : 1280 пикселей
Высота : 720 пикселей
Соотношение сторон : 16:9
Режим частоты кадров : Постоянный
Частота кадров : 23,976 кадра/сек
Цветовое пространство : YUV
Субдискретизация насыщенности : 4:2:0
Битовая глубина : 8 бит
Тип развёртки : Прогрессивная
Бит/(Пиксели*Кадры) : 0.080
Библиотека кодирования : x264 core 120 r2120 0c7dab9
Настройки программы : cabac=1 / ref=6 / deblock=1:1:1 / analyse=0x3:0x113 / me=umh / subme=8 / psy=1 / psy_rd=0.40:0.00 / mixed_ref=1 / me_range=16 / chroma_me=1 / trellis=1 / 8x8dct=1 / cqm=0 / deadzone=21,11 / fast_pskip=1 / chroma_qp_offset=-2 / threads=4 / sliced_threads=0 / nr=0 / decimate=1 / interlaced=0 / bluray_compat=0 / constrained_intra=0 / bframes=3 / b_pyramid=2 / b_adapt=2 / b_bias=0 / direct=3 / weightb=1 / open_gop=0 / weightp=2 / keyint=250 / keyint_min=23 / scenecut=40 / intra_refresh=0 / rc_lookahead=50 / rc=2pass / mbtree=1 / bitrate=1776 / ratetol=1.0 / qcomp=0.60 / qpmin=0 / qpmax=69 / qpstep=4 / cplxblur=20.0 / qblur=0.5 / vbv_maxrate=3552 / vbv_bufsize=8880 / nal_hrd=none / ip_ratio=1.40 / aq=1:0.60
Default : Да
Forced : Да
Аудио #1
Идентификатор : 2
Формат : AAC
Формат/Информация : Advanced Audio Codec
Профиль формата : LC
Идентификатор кодека : A_AAC
Продолжительность : 23 м.
Каналы : 2 канала
Расположение каналов : Front: L R
Частота : 44,1 КГц
Метод сжатия : С потерями
Заголовок : AniLibria.TV
Язык : Russian
Default : Да
Forced : Да
Аудио #2
Идентификатор : 3
Формат : AAC
Формат/Информация : Advanced Audio Codec
Профиль формата : LC
Идентификатор кодека : A_AAC
Продолжительность : 23 м.
Каналы : 2 канала
Расположение каналов : Front: L R
Частота : 44,1 КГц
Метод сжатия : С потерями
Язык : Japanese
Default : Нет
Forced : Нет
Текст #1
Идентификатор : 4
Формат : ASS
Идентификатор кодека : S_TEXT/ASS
Идентификатор кодека/Информация : Advanced Sub Station Alpha
Метод сжатия : Без потерь
Заголовок : НАДПИСИ
Язык : Russian
Default : Да
Forced : Да
Текст #2
Идентификатор : 5
Формат : ASS
Идентификатор кодека : S_TEXT/ASS
Идентификатор кодека/Информация : Advanced Sub Station Alpha
Метод сжатия : Без потерь
Заголовок : Полные
Язык : Russian
Default : Нет
Forced : Нет
подойдут ли эти раздачи 720 p hd аниме плеерный раздел ?

CRASHpotapko

Стаж: 8 лет 5 месяцев

Сообщений: 168

flag

CRASHpotapko · 29-Дек-13 16:48 (спустя 2 месяца 25 дней, ред. 29-Дек-13 16:48)

Не смог разобраться, помогите, подойдут параметры под данный раздел
отчет МИ
Общее
Полное имя : E:\CHRNO CRUSADE (DVD 640x480 AVC AAC)\CHRNO CRUSADE - 01 (DVD 640x480 AVC AAC).mp4
Формат : MPEG-4
Профиль формата : Base Media / Version 2
Идентификатор кодека : mp42
Размер файла : 230 Мбайт
Продолжительность : 23 м.
Режим общего битрейта : Переменный
Общий поток : 1300 Кбит/сек
Дата кодирования : UTC 2013-12-21 12:47:01
Дата пометки : UTC 2013-12-21 12:47:01
Видео
Идентификатор : 1
Формат : AVC
Формат/Информация : Advanced Video Codec
Профиль формата : High@L3.0
Параметр CABAC формата : Да
Параметр ReFrames формата : 6 кадров
Идентификатор кодека : avc1
Идентификатор кодека/Информация : Advanced Video Coding
Продолжительность : 23 м.
Битрейт : 964 Кбит/сек
Максимальный битрейт : 10,9 Мбит/сек
Ширина : 640 пикселей
Высота : 480 пикселей
Соотношение сторон : 4:3
Режим частоты кадров : Переменный
Частота кадров : 24,937 кадров/сек
Частота кадров в оригинале : 29,970 кадров/сек
Минимальная частота кадров : 11,988 кадров/сек
Максимальная частота кадров : 119,880 кадров/сек
Цветовое пространство : YUV
Субдискретизация насыщенности : 4:2:0
Битовая глубина : 8 бит
Тип развёртки : Прогрессивная
Бит/(Пиксели*Кадры) : 0.126
Размер потока : 159 Мбайт (84%)
Заголовок : Video
Дата кодирования : UTC 2013-12-21 00:34:05
Дата пометки : UTC 2013-12-21 12:47:06
Аудио 1 - АС3 - 192
Аудио 2 - АС3 - 192
картинка отличная, пример

Buka63

Moderator

Стаж: 7 лет 7 месяцев

Сообщений: 9336

flag

Buka63 · 29-Дек-13 16:58 (спустя 9 мин.)

CRASHpotapko
Не подойдут.
Цитата:
Режим частоты кадров : Переменный
Частота кадров : 24,937 кадров/сек
Частота кадров в оригинале : 29,970 кадров/сек
Минимальная частота кадров : 11,988 кадров/сек
Максимальная частота кадров : 119,880 кадров/сек

exTimecraft.

О дооформлении релизов прошу отписываться мне в личку с обязательным указанием ссылки.

CRASHpotapko

Стаж: 8 лет 5 месяцев

Сообщений: 168

flag

CRASHpotapko · 29-Дек-13 17:00 (спустя 1 мин.)

Цитата:
Минимальная частота кадров : 11,988 кадров/сек
Максимальная частота кадров : 119,880 кадров/сек
только в ОП и ЕД.
Ок значит в основной оформлю

Ich Lauf

VIP (Заслуженный)

Стаж: 10 лет

Сообщений: 11537

Ich Lauf · 29-Дек-13 19:06 (спустя 2 часа 5 мин.)

CRASHpotapko писал(а):
62307978(DVD 640x480 AVC AAC)
Двдрип в х264 уже намекает, что нет.
CRASHpotapko писал(а):
62308223только в ОП и ЕД.
Не важно где, он должен быть постоянным на всю серию.
Отсутствую.

CRASHpotapko

Стаж: 8 лет 5 месяцев

Сообщений: 168

flag

CRASHpotapko · 29-Дек-13 19:29 (спустя 23 мин., ред. 29-Дек-13 19:29)

Ich Lauf- все таки выложу 640x480 Hi10P AC3 AC3 (картинка получше) и весит ~7Gb
Цитата:
Двдрип в х264 уже намекает, что нет.
- в смысле ?

Buka63

Moderator

Стаж: 7 лет 7 месяцев

Сообщений: 9336

flag

Buka63 · 29-Дек-13 20:46 (спустя 1 час 16 мин.)

CRASHpotapko писал(а):
- в смысле ?
ДВДРипы, если они не ХВП, раздаются в основном подразделе.

exTimecraft.

О дооформлении релизов прошу отписываться мне в личку с обязательным указанием ссылки.
 
All rights reserved © 2017-2018
Loading...
Error