Судьба: Начало / Fate/Zero (Аоки Эй) [TV] [13 из 13] [без хардсаба] [RUS(int), JAP+SUB] [2011, приключения, фэнтези, BDRip] [720p] [HD]

Статистика раздачи
Размер:  12.98 GB   |   Зарегистрирован:  5 лет 11 месяцев   |   .torrent скачан:  3,855 раз
Сиды:  3
Автор
Сообщение

Aglenn

Top Loader 06* 4TB

Стаж: 9 лет 6 месяцев

Сообщений: 6301

Aglenn · 22-Ноя-12 21:08 (5 лет 11 месяцев назад, ред. 10-Фев-13 18:39)

 


Год выпуска: 2011
Страна: Япония
Жанр: приключения, фэнтези
Продолжительность: 13 эп. по 24 мин.
Перевод:
  1. русские субтитры от Shift (Ex-Advantage) (полные/надписи/srt-версия)

Озвучка:
  1. двухголосая (жен./муж.) от Eladiel & Jam (Animedia/Anilibria)

Режиссер: Аоки Эй
Студия: UFO Table
Описание:
Двести лет назад три могущественных клана создали в далекой Японии на землях городка Фуюки арену магической битвы за Святой Грааль. Смысл ритуала прост – семеро участников-магов, которых зовут Мастерами, по воле Грааля призывают себе из Акаши, мирового эфира, бойцов-Слуг – героев былого и грядущего. Дальше правил нет, и остаться должен только один. Ему и достанется величайший артефакт, который выполнит любое желание победителя. Вот только первые три войны окончились тотальным истреблением сторон и не достигли цели. Грядет Четвертая война, и на этот раз все знамения говорят – Святой Грааль будет явлен и обретет хозяина!
Наследники основателей по-разному подошли к новому этапу игры. Токиоми, глава клана Тосака, находится в расцвете сил и намерен лично бороться за победу. Второй клан выродился, и его боец Кария Мато почти что лишен магических способностей. Клан Айнцберн, последний из троицы, для повышения шансов заранее принял в свои ряды знаменитого мага-убийцу по имени Кирицугу Эмия. А еще Грааль выбрал в число игроков английского лорда, его вороватого ученика, серийного маньяка и молодого священника. Трудно сказать насчет святости, но с политкорректностью у авторов сериала точно все в порядке!
© Hollow, World Art
Информационные ссылки: AniDB || World Art || MAL
Качество: BDRip Pantheon (DS с Salender-raws BDrip 1080)
Тип видео: без хардсаба
Формат: mkv
Видео: x264 (8), 1280x720, ~5000 Kbps, 23.976 fps
Аудио JAP: AC3, 48000Hz, ~640 Kbps, 2ch
Аудио RUS: AAC/AC3, 48000Hz, ~192 Kbps, 2ch
Отчеты по тех. данным
Bitrate Viewer
avdump
File: Z:\Anime\720p\Fate Zero [BD] [HDHWP] [720p]\Fate Zero 07 (BD 1280x720).mkv
Duration: 00:24:45 (1484.51)
Track #1: default video
lang: und (1)
codc: V_MPEG4/ISO/AVC -> H264/AVC (22)
reso: 1280x720 -> 16:9
fram: 23.976 fps
rate: 4985 kbps (4984.88)
dura: 00:24:44 (1484.44)
size: 882.12 MB (924969976)
Track #2: audio
lang: jpn -> Japanese (2)
codc: A_AC3 -> AC3 (2)
chan: 2 -> Stereo
samp: 48000 Hz
rate: 640 kbps (640.11)
dura: 00:24:44 (1484.32)
size: 113.26 MB (118766931)
Track #3: default audio
lang: rus -> Russian (15)
codc: A_AC3 -> AC3 (2)
chan: 2 -> Stereo
samp: 48000 Hz
rate: 192 kbps (192.05)
dura: 00:24:44 (1484.32)
size: 33.98 MB (35633459)
Sizes: (check sanity)
disk: 1.01 GB (1079761311)
trac: 1.01 GB (1079370366) [based on track size]
bitr: 1.01 GB (1079382707) [based on bitrate]
tdif: 381.78 KB (390945) 0.03%
bdif: 369.73 KB (378603) 0.03%
MediaInfo
Общее
Уникальный идентификатор : 231345097218475887639543069096026041033 (0xAE0B71ECF69E9FA7B19C4FEFE71BEAC9)
Полное имя : Z:\Anime\720p\Fate Zero [BD] [HDHWP] [720p]\Fate Zero 07 (BD 1280x720).mkv
Формат : Matroska
Версия формата : Version 2
Размер файла : 1,01 Гбайт
Продолжительность : 24 м.
Общий поток : 5819 Кбит/сек
Дата кодирования : UTC 2012-11-22 15:50:53
Программа кодирования : mkvmerge v2.9.8 ('C'est le bon') built on Aug 13 2009 12:49:06
Библиотека кодирования : libebml v0.7.7 + libmatroska v0.8.1
Видео
Идентификатор : 1
Формат : AVC
Формат/Информация : Advanced Video Codec
Профиль формата : High@L4.1
Параметр CABAC формата : Да
Параметр ReFrames формата : 9 кадров
Идентификатор кодека : V_MPEG4/ISO/AVC
Продолжительность : 24 м.
Битрейт : 4871 Кбит/сек
Ширина : 1280 пикселей
Высота : 720 пикселей
Соотношение сторон : 16:9
Режим частоты кадров : Постоянный
Частота кадров : 23,976 кадра/сек
Цветовое пространство : YUV
Субдискретизация насыщенности : 4:2:0
Битовая глубина : 8 бит
Тип развёртки : Прогрессивная
Бит/(Пиксели*Кадры) : 0.220
Размер потока : 862 Мбайт (84%)
Библиотека кодирования : x264 core 128 r2216 198a7ea
Настройки программы : cabac=1 / ref=9 / deblock=1:-2:-2 / analyse=0x3:0x133 / me=umh / subme=9 / psy=1 / psy_rd=0.90:0.00 / mixed_ref=1 / me_range=24 / chroma_me=1 / trellis=2 / 8x8dct=1 / cqm=0 / deadzone=21,11 / fast_pskip=1 / chroma_qp_offset=-2 / threads=6 / lookahead_threads=1 / sliced_threads=0 / nr=0 / decimate=0 / interlaced=0 / bluray_compat=0 / constrained_intra=0 / bframes=8 / b_pyramid=2 / b_adapt=2 / b_bias=0 / direct=1 / weightb=1 / open_gop=0 / weightp=2 / keyint=250 / keyint_min=23 / scenecut=40 / intra_refresh=0 / rc=crf / mbtree=0 / crf=15.8 / qcomp=0.70 / qpmin=9 / qpmax=40 / qpstep=4 / ip_ratio=1.40 / pb_ratio=1.30 / aq=1:0.90
Default : Да
Forced : Нет
Аудио #1
Идентификатор : 2
Формат : AC-3
Формат/Информация : Audio Coding 3
Расширение режима : CM (complete main)
Параметр Endianness формата : Big
Идентификатор кодека : A_AC3
Продолжительность : 24 м.
Вид битрейта : Постоянный
Битрейт : 640 Кбит/сек
Каналы : 2 канала
Расположение каналов : Front: L R
Частота : 48,0 КГц
Битовая глубина : 16 бит
Метод сжатия : С потерями
Размер потока : 113 Мбайт (11%)
Язык : Japanese
Default : Нет
Forced : Нет
Аудио #2
Идентификатор : 3
Формат : AC-3
Формат/Информация : Audio Coding 3
Расширение режима : CM (complete main)
Параметр Endianness формата : Big
Идентификатор кодека : A_AC3
Продолжительность : 24 м.
Вид битрейта : Постоянный
Битрейт : 192 Кбит/сек
Каналы : 2 канала
Расположение каналов : Front: L R
Частота : 48,0 КГц
Битовая глубина : 16 бит
Метод сжатия : С потерями
Размер потока : 34,0 Мбайт (3%)
Язык : Russian
Default : Да
Forced : Нет

Список эпизодов
01. Summoning of the Heroes
02. False Start
03. Land of Winter Trees
04. Blade of the Demon Spear
05. The Vicious Beast Roars
06. Night of Stratagems
07. Evil Forest
08. Mage-Killer
09. Master and Servant
10. Rin`s Adventure
11. The Grail Dialogue
12. The Grail`s Invitation
13. The Forbidden Banquet

Скриншоты

Зарегистрирован:
  • 22-Ноя-12 22:12
  • Скачан: 3,855 раз

Скачать .torrent

69 KB

Тип: обычная
Статус: проверено
Размер: 12.98 GB  ·  magnet676F7B77336708BB740C7774AE57846F3A76801C
  • Свернуть поддиректории
  • Развернуть
  • Переключить
  • Увел./умен. окно
загружается...
Winter RG Pantheon

Aglenn

Top Loader 06* 4TB

Стаж: 9 лет 6 месяцев

Сообщений: 6301

Aglenn · 22-Ноя-12 22:25 (спустя 1 час 17 мин.)

Пробуем. -__-
Winter RG Pantheon

Garalas

Стаж: 8 лет 8 месяцев

Сообщений: 396

flag

Garalas · 23-Ноя-12 09:02 (спустя 10 часов)

Aglenn
Спасибо) теперь посмотрю наконец (а не смотрел я по причине того что появились доп. сцены) ну теперь благодаря Eladiel & Jam глянем))
Очень рад что появился такой раздел)) прям в тему))

lord anime

Стаж: 6 лет 10 месяцев

Сообщений: 1165

flag

lord anime · 24-Ноя-12 03:07 (спустя 18 часов)

Спасибо,щас поставим на скачку,заодно проверю как будет работать на моем бюджетном BD samsung(к слову у меня по проигрыванию видео ограничения такие-Профиль формата не выше High@L4.1 и 8 бит,других проблем не замечал) .Хорошо бы и второй сезон.

iMifs

Стаж: 8 лет 9 месяцев

Сообщений: 154

flag

iMifs · 24-Ноя-12 08:40 (спустя 5 часов)

Cпасибо, теперь второй сезон бы=)

lord anime

Стаж: 6 лет 10 месяцев

Сообщений: 1165

flag

lord anime · 26-Ноя-12 00:03 (спустя 1 день 15 часов)

Потестил пока 3 серии и пока все норм на моем бюджетном девайсе.

kakaze

Стаж: 8 лет 9 месяцев

Сообщений: 497

flag

kakaze · 06-Дек-12 00:03 (спустя 9 дней)

В шапке нету тега 720p
всегда в поисках лучшего качества %)
DVDRip -_- | BDRip ^_^ | TVRip =_="
Возможность выбора решает (но переизбыточный выбор порой добивает...)
Надо бы завершить разбор полетов на x264 (AVC/H.264) Hi10P, 720p, DVDRip/BDRip...
с развитием H.265, Full HD (1080p) попрет)) (и опять придется разбирать и оттачивать настройки...)
я не вездесрущ) когда враг атакует, империя наносит ответный удар!)
рутрекер портят все больше и больше...

Arizona52

Стаж: 6 лет 4 месяца

Сообщений: 105

flag

Arizona52 · 27-Янв-13 19:17 (спустя 1 месяц 21 день, ред. 27-Янв-13 19:17)

Охох, анимешники будучи передовиками в массовом кодировании видео, начали обращать внимание, что не K-lite паками едины)) Это радует.
У самого SmartTV и невозможность найти HD бдрипы без вы*бонов с 10-бит/High@5.1/FLAC 2ch/AC3 порядком напрягает.
В любом случае, спасибо, что начали этим заниматься.

DrakonXIII

Стаж: 10 лет 9 месяцев

Сообщений: 26

flag

DrakonXIII · 22-Мар-14 23:35 (спустя 1 год 1 месяц)

незнаю как у вас, а у меня эпизодически пропадает перевод,
например, сирия 02 когда Кирицугу с дочкой по зимнему саду гуляет
серия 03 когда райдер сошла с самолета
смотреть с все время включенными сабами, напряжно, отвлекают они

Илья Герасимов

Стаж: 6 лет 6 месяцев

Сообщений: 5

flag

Илья Герасимов · 09-Апр-16 17:43 (спустя 2 года)

Аналогично пропадает перевод.
например в 6 серии с 17 56 до 18 50 перевода нет
 
All rights reserved © 2017-2018
Loading...
Error