Rock for the Rising Sun (Casey Tebo) [2013, музыка, BDRip HD (720p)] Original + SUB (eng)

Автор
Сообщение

yv_apple

Moderator

Стаж: 8 лет 5 месяцев

Сообщений: 5559

flag

yv_apple · 11-Авг-13 22:22 (5 лет 3 месяца назад, ред. 11-Авг-13 22:33)

 

Rock for the Rising Sun
«A concert film event.»
7.60 / 10

Год выпуска: 2013
Страна: США
Жанр: музыка
Продолжительность: 01:34:32
Перевод: Не требуется
Субтитры: Английские
Режиссер: Casey Tebo
В ролях: Том Хэмилтон, Джои Крамер, Джо Перри, Стивен Тайлер, Брэд Уитфорд
Мировая премьера: 4 июля 2013
Описание: In March 2011 Japan was beset by a huge earthquake, a monstrous tsunami and the subsequent meltdown of the Fukushima nuclear plant. In the autumn of 2011, despite advice to the contrary, Aerosmith brought their "Back On The Road" tour to Japan, a country with which they'd always had a special relationship. The Japanese fans came out in their droves and Aerosmith responded with some of the finest gigs of their distinguished career. This film follows the band on that tour combining full length live tracks with behind the scenes footage which is at times touching and emotional and at others humorous and insightful. More than anything else it demonstrates the Japanese fans' love affair with Aerosmith and their music.
Исходник: Blu-Ray
Контейнер: M4V
Видео кодек:AVC
Аудио кодек: AAC, AC3
Видео 720p Release: 960x720 anamorth 1280x720 at 29.970 fps, MPEG-4 AVC, ~7000 kbps avg
Аудио №1: Stereo ENG (320 kbps) / Оригинал
Аудио №2: AC-3 ENG (640 kbps) / Оригинал
Субтитры №1: English
iTunes MetaTags
Код:
Sort Name: Rock for the Rising Sun
XID: Apple:vendor_id:2013-753793
contentID: 658690720
Copyright: © 2013 Vindaloo Music, Inc.
Director: Casey Tebo
Cast: Том Хэмилтон, Джои Крамер, Джо Перри, Стивен Тайлер, Брэд Уитфорд
Studio: Aerosmith
Rating: 1
Long Description: In March 2011 Japan was beset by a huge earthquake, a monstrous tsunami and the subsequent meltdown of the Fukushima nuclear plant. In the autumn of 2011, despite advice to the contrary, Aerosmith brought their "Back On The Road" tour to Japan, a country with which they'd always had a special relationship. The Japanese fans came out in their droves and Aerosmith responded with some of the finest gigs of their distinguished career. This film follows the band on that tour combining full length live tracks with behind the scenes footage which is at times touching and emotional and at others humorous and insightful. More than anything else it demonstrates the Japanese fans' love affair with Aerosmith and their music.
Description: In March 2011 Japan was beset by a huge earthquake, a monstrous tsunami and the subsequent meltdown of the Fukushima nuclear plant. In the autumn of 2011, despite advice to the contrary, Aerosmith brought their "Back On The Road" tour to Japan, a country with which they'd always had a special relationship.
Release Date: 2013-07-04T08:00:00Z
Genre: Concert Films
Artist: Aerosmith, Steven Tyler, Joe Perry, Joe Perry, Tom Hamilton, Brad Whitford & Joey Kramer
Name: Rock for the Rising Sun
MediaInfo 720p Release
Код:
General
Complete name : /Users/yvu/Music/iTunes/iTunes Media/Movies/Rock for the Rising Sun (HD).m4v
Format : MPEG-4
Codec ID : M4V
File size : 5.28 GiB
Duration : 1h 34mn
Overall bit rate mode : Variable
Overall bit rate : 7 994 Kbps
Movie name : Rock for the Rising Sun
Performer : Aerosmith, Steven Tyler, Joe Perry, Joe Perry, Tom Hamilton, Brad Whitford & Joey Kramer
Genre : Concert Films
Recorded date : UTC 2013-07-04 08:00:00
Encoded date : UTC 2013-08-11 18:29:42
Tagged date : UTC 2013-08-11 18:56:57
Copyright : © 2013 Vindaloo Music, Inc.
Cover : Yes
sonm : Rock for the Rising Sun
desc : In March 2011 Japan was beset by a huge earthquake, a monstrous tsunami and the subsequent meltdown of the Fukushima nuclear plant. In the autumn of 2011, despite advice to the contrary, Aerosmith brought their "Back On The Road" tour to Japan, a country with which they'd always had a special relationship.
ldes : In March 2011 Japan was beset by a huge earthquake, a monstrous tsunami and the subsequent meltdown of the Fukushima nuclear plant. In the autumn of 2011, despite advice to the contrary, Aerosmith brought their "Back On The Road" tour to Japan, a country with which they'd always had a special relationship. The Japanese fans came out in their droves and Aerosmith responded with some of the finest gigs of their distinguished career. This film follows the band on that tour combining full length live tracks with behind the scenes footage which is at times touching and emotional and at others humorous and insightful. More than anything else it demonstrates the Japanese fans' love affair with Aerosmith and their music.
hdvd : 1
stik : 9
rtng : 0
cnID : 658690720
xid : Apple:vendor_id:2013-753793
iTunEXTC : mpaa|NR|000|
iTunMOVI : <?xml version="1.0" encoding="UTF-8"?> / <!DOCTYPE plist PUBLIC "-//Apple//DTD PLIST 1.0//EN" "http://www.apple.com/DTDs/PropertyList-1.0.dtd"> / <plist version="1.0"> / <dict> /  <key>cast</key> /  <array> /   <dict> /    <key>name</key> /    <string>Том Хэмилтон</string> /   </dict> /   <dict> /    <key>name</key> /    <string>Джои Крамер</string> /   </dict> /   <dict> /    <key>name</key> /    <string>Джо Перри</string> /   </dict> /   <dict> /    <key>name</key> /    <string>Стивен Тайлер</string> /   </dict> /   <dict> /    <key>name</key> /    <string>Брэд Уитфорд</string> /   </dict> /  </array> /  <key>directors</key> /  <array> /   <dict> /    <key>name</key> /    <string>Casey Tebo</string> /   </dict> /  </array> /  <key>studio</key> /  <string>Aerosmith</string> / </dict> / </plist>
Video #1
ID : 1
Format : AVC
Format/Info : Advanced Video Codec
Format profile : High@L3.1
Format settings, CABAC : No
Format settings, ReFrames : 3 frames
Codec ID : avc1
Codec ID/Info : Advanced Video Coding
Duration : 1h 34mn
Bit rate mode : Variable
Bit rate : 7 000 Kbps
Width : 960 pixels
Height : 720 pixels
Display aspect ratio : 16:9
Frame rate mode : Constant
Frame rate : 29.970 fps
Color space : YUV
Chroma subsampling : 4:2:0
Bit depth : 8 bits
Scan type : Progressive
Bits/(Pixel*Frame) : 0.338
Stream size : 4.61 GiB (87%)
Writing library : x264 core 125
Encoding settings : cabac=0 / ref=3 / deblock=1:-1:-3 / analyse=0x3:0x113 / me=umh / subme=9 / psy=1 / psy_rd=0.90:0.00 / mixed_ref=1 / me_range=32 / chroma_me=1 / trellis=0 / 8x8dct=1 / cqm=0 / deadzone=21,11 / fast_pskip=1 / chroma_qp_offset=-2 / threads=6 / lookahead_threads=1 / sliced_threads=0 / nr=0 / decimate=1 / interlaced=0 / bluray_compat=0 / constrained_intra=0 / bframes=3 / b_pyramid=0 / b_adapt=2 / b_bias=0 / direct=1 / weightb=0 / open_gop=0 / weightp=0 / keyint=300 / keyint_min=30 / scenecut=40 / intra_refresh=0 / rc_lookahead=40 / rc=2pass / mbtree=1 / bitrate=7000 / ratetol=1.0 / qcomp=0.80 / qpmin=0 / qpmax=69 / qpstep=4 / cplxblur=20.0 / qblur=0.5 / vbv_maxrate=9500 / vbv_bufsize=9500 / nal_hrd=none / ip_ratio=1.40 / aq=1:1.00
Language : English
Encoded date : UTC 2013-08-11 18:29:42
Tagged date : UTC 2013-08-11 18:35:51
Color primaries : BT.709
Transfer characteristics : BT.709
Matrix coefficients : BT.709
Video #2
ID : 6
Format : JPEG
Codec ID : jpeg
Duration : 1h 34mn
Bit rate mode : Variable
Bit rate : 1 120 bps
Width : 640 pixels
Height : 360 pixels
Display aspect ratio : 16:9
Frame rate mode : Variable
Frame rate : 0.003 fps
Minimum frame rate : 0.002 fps
Maximum frame rate : 0.014 fps
Color space : YUV
Chroma subsampling : 4:2:0
Bit depth : 8 bits
Compression mode : Lossy
Bits/(Pixel*Frame) : 1.620
Stream size : 820 KiB (0%)
Language : English
Encoded date : UTC 2013-08-11 18:37:04
Tagged date : UTC 2013-08-11 18:37:05
Audio #1
ID : 2
Format : AAC
Format/Info : Advanced Audio Codec
Format profile : LC
Codec ID : 40
Duration : 1h 34mn
Bit rate mode : Variable
Bit rate : 353 Kbps
Maximum bit rate : 494 Kbps
Channel(s) : 2 channels
Channel positions : Front: L R
Sampling rate : 48.0 KHz
Compression mode : Lossy
Delay relative to video : 33ms
Stream size : 241 MiB (4%)
Language : English
Encoded date : UTC 2013-08-11 18:29:42
Tagged date : UTC 2013-08-11 18:30:03
Audio #2
ID : 3
Format : AC-3
Format/Info : Audio Coding 3
Mode extension : CM (complete main)
Format settings, Endianness : Big
Codec ID : ac-3
Duration : 1h 34mn
Bit rate mode : Constant
Bit rate : 640 Kbps
Channel(s) : 6 channels
Channel positions : Front: L C R, Side: L R, LFE
Sampling rate : 48.0 KHz
Bit depth : 16 bits
Compression mode : Lossy
Delay relative to video : 33ms
Stream size : 433 MiB (8%)
Language : English
Encoded date : UTC 2013-08-11 18:29:42
Tagged date : UTC 2013-08-11 18:36:33
Text
ID : 4
Format : Timed Text
Muxing mode : sbtl
Codec ID : tx3g
Duration : 1h 33mn
Bit rate mode : Variable
Bit rate : 18 bps
Delay relative to video : 33ms
Stream size : 12.3 KiB (0%)
Language : English
Encoded date : UTC 2013-08-11 18:29:42
Tagged date : UTC 2013-08-11 18:36:33
Menu #1
00:00:00.000 : Main Titles
00:01:10.337 : Draw the Line
00:05:57.490 : Love in an Elevator
00:13:32.445 : Livin' on the Edge
00:19:10.316 : Hangman Jury
00:22:15.568 : No More No More
00:28:42.621 : Mama Kin
00:35:49.614 : Money on My Back
00:40:00.098 : Toys in the Attic
00:43:56.367 : Listen to the Thunder
00:48:58.803 : Sweet Emotion
00:59:08.478 : Boogie Man
01:01:40.897 : Rats in the Cellar
01:07:18.968 : Movin' Out
01:13:27.270 : Last Child
01:22:56.939 : S.O.S. (Too Bad)
01:26:32.020 : Walk This Way
01:33:00.041 : Train Kept A Rollin' (credits)
Menu #2
ID : 5
Codec ID : text
Duration : 1h 34mn
Language : English
Encoded date : UTC 2013-08-11 18:36:33
Tagged date : UTC 2013-08-11 18:36:33
Bit rate mode : VBR
00:00:00.000 : Main Titles
00:01:10.337 : Draw the Line
00:05:57.490 : Love in an Elevator
00:13:32.445 : Livin' on the Edge
00:19:10.316 : Hangman Jury
00:22:15.568 : No More No More
00:28:42.621 : Mama Kin
00:35:49.614 : Money on My Back
00:40:00.098 : Toys in the Attic
00:43:56.367 : Listen to the Thunder
00:48:58.803 : Sweet Emotion
00:59:08.478 : Boogie Man
01:01:40.897 : Rats in the Cellar
01:07:18.968 : Movin' Out
01:13:27.270 : Last Child
01:22:56.939 : S.O.S. (Too Bad)
01:26:32.020 : Walk This Way
01:33:00.041 : Train Kept A Rollin' (credits)
x264 log 720p Release
Код:
x264 [info]: frame I:1705  Avg QP:17.23  size: 81026  PSNR Mean Y:45.66 U:56.09 V:56.15 Avg:46.63 Global:44.99
x264 [info]: frame P:65964 Avg QP:18.70  size: 39716  PSNR Mean Y:43.91 U:56.73 V:56.90 Avg:44.97 Global:43.00
x264 [info]: frame B:102321 Avg QP:20.20  size: 21433  PSNR Mean Y:42.73 U:59.50 V:59.66 Avg:43.90 Global:41.19
x264 [info]: consecutive B-frames:  3.9% 32.9% 44.0% 19.2%
x264 [info]: mb I  I16..4: 12.9% 49.2% 37.9%
x264 [info]: mb P  I16..4:  5.2% 12.9%  7.2%  P16..4: 34.0% 22.2%  9.8%  0.0%  0.0%    skip: 8.7%
x264 [info]: mb B  I16..4:  1.2%  3.6%  1.3%  B16..8: 38.3% 15.9%  3.4%  direct:11.7%  skip:24.7%  L0:38.7% L1:45.4% BI:15.9%
x264 [info]: 8x8 transform intra:53.1% inter:42.4%
x264 [info]: coded y,uvDC,uvAC intra: 76.0% 63.4% 46.0% inter: 31.2% 26.8% 5.3%
x264 [info]: i16 v,h,dc,p: 53% 18% 13% 16%
x264 [info]: i8 v,h,dc,ddl,ddr,vr,hd,vl,hu:  9%  6% 11% 12% 14% 15% 12% 12%  9%
x264 [info]: i4 v,h,dc,ddl,ddr,vr,hd,vl,hu: 12%  7%  7% 12% 15% 16% 10% 12%  7%
x264 [info]: i8c dc,h,v,p: 62% 13% 18%  7%
x264 [info]: ref P L0: 72.2% 17.3% 10.5%
x264 [info]: ref B L0: 81.6% 18.4%
x264 [info]: SSIM Mean Y:0.9665765 (14.759db)
x264 [info]: PSNR Mean Y:43.218 U:58.391 V:58.551 Avg:44.342 Global:41.838 kb/s:6982.95
Скриншоты 720p Release



Релиз подготовлен для просмотра на Apple TV, iPad, iPhone, iPod Touch.
Для просмотра данного релиза на компьютере с ОС Windows рекомендуется использовать VLC media player
Attachment

Axl2010Axl

Стаж: 8 лет 2 месяца

Сообщений: 16


Axl2010Axl · 29-Мар-14 12:09 (спустя 7 месяцев)

Продолжите раздачу!!! плиз!
 
All rights reserved © 2017-2018
Loading...
Error