[Экстрим] Зимние игры в 3Д / Winter Games 3D (Attila Tenki) [2013, Документальный, Экстрим, BDRip-AVC] Eng, Half OverUnder / Вертикальная анаморфная стереопара

Автор
Сообщение

Ash61

Top Seed 04* 320r

Стаж: 9 лет 11 месяцев

Сообщений: 4790

Ash61 · 09-Мар-14 20:01 (4 года 8 месяцев назад, ред. 09-Мар-14 23:32)

Зимние игры
Winter Games

Год выпуска: 2013
Страна: Германия (Power Pictures Production)
Жанр: Документальный, Экстрим
Продолжительность: 01:05:53
Перевод: Отсутствует
Режиссер: Attila Tenki
Описание: В этом фильме показан широкий спектр зимних видов спорта - фрирайдеры, хоккеисты, кёрлингисты, трюкачи на снегоходах, ледолазы, сноубордисты, фигуристы и пр...

За исходный BD 3D спасибо и BLUE_LIFE!

Качество: BDRip (by Ash61)
Контейнер: MKV
Формат 3D: Half OverUnder / Вертикальная анаморфная стереопара
Порядок ракурсов: левый ракурс первый
Видео кодек: x264
Аудио кодек: AC3
Видео: AVC / 23,976 fps / 1920х1080p / 12.7 Mbps
Аудио: Английский / AC3 / 48 KHz / 5.1 ch / 640 Kbps (Original - BD 3D)
Субтитры: Отсутствуют
MediaInfo
General
Unique ID : 181452720441849981699360001003982781752 (0x888285D4D756C11DB1249E943B597D38)
Complete name : E:\WinterGames(2013)3D-halfOU(Ash61)Eng.mkv
Format : Matroska
Format version : Version 2
File size : 6.27 GiB
Duration : 1h 5mn
Overall bit rate : 13.6 Mbps
Movie name : Зимние игры / Winter Games (2013) 3D
Encoded date : UTC 2014-03-09 12:31:38
Writing application : mkvmerge v5.8.0 ('No Sleep / Pillow') built on Sep 2 2012 15:37:04
Writing library : libebml v1.2.3 + libmatroska v1.3.0
Video
ID : 1
Format : AVC
Format/Info : Advanced Video Codec
Format profile : High@L4.1
Format settings, CABAC : Yes
Format settings, ReFrames : 4 frames
Muxing mode : Header stripping
Codec ID : V_MPEG4/ISO/AVC
Duration : 1h 5mn
Bit rate : 12.7 Mbps
Width : 1 920 pixels
Height : 1 080 pixels
Display aspect ratio : 16:9
Frame rate mode : Constant
Frame rate : 23.976 fps
Color space : YUV
Chroma subsampling : 4:2:0
Bit depth : 8 bits
Scan type : Progressive
Bits/(Pixel*Frame) : 0.256
Stream size : 5.85 GiB (93%)
Title : BDRip by Ash61
Writing library : x264 core 129 r2245 bc13772
Encoding settings : cabac=1 / ref=4 / deblock=1:-1:-1 / analyse=0x3:0x113 / me=umh / subme=10 / psy=1 / psy_rd=1.00:0.15 / mixed_ref=1 / me_range=32 / chroma_me=1 / trellis=2 / 8x8dct=1 / cqm=0 / deadzone=21,11 / fast_pskip=1 / chroma_qp_offset=-3 / threads=12 / lookahead_threads=2 / sliced_threads=0 / nr=0 / decimate=1 / interlaced=0 / bluray_compat=0 / constrained_intra=0 / bframes=10 / b_pyramid=2 / b_adapt=2 / b_bias=0 / direct=3 / weightb=1 / open_gop=0 / weightp=2 / keyint=250 / keyint_min=23 / scenecut=40 / intra_refresh=0 / rc_lookahead=60 / rc=crf / mbtree=1 / crf=18.0 / qcomp=0.70 / qpmin=0 / qpmax=69 / qpstep=4 / vbv_maxrate=40000 / vbv_bufsize=30000 / crf_max=0.0 / nal_hrd=none / frame-packing=4 / ip_ratio=1.40 / aq=1:0.70
Language : German
Default : Yes
Forced : No
Audio
ID : 2
Format : AC-3
Format/Info : Audio Coding 3
Mode extension : CM (complete main)
Format settings, Endianness : Big
Muxing mode : Header stripping
Codec ID : A_AC3
Duration : 1h 5mn
Bit rate mode : Constant
Bit rate : 640 Kbps
Channel(s) : 6 channels
Channel positions : Front: L C R, Side: L R, LFE
Sampling rate : 48.0 KHz
Bit depth : 16 bits
Compression mode : Lossy
Stream size : 302 MiB (5%)
Language : English
Default : Yes
Forced : No
Menu
00:00:00.000 : :1
00:07:53.723 : :2
00:17:53.948 : :3
00:31:39.606 : :4
00:42:30.256 : :5
00:58:08.985 : :6
Скриншоты
Для оценки 3Д - Анимированные скрины











Download
Для скачивания .torrent файлов необходима регистрация
Сайт не распространяет и не хранит электронные версии произведений, а лишь предоставляет доступ к создаваемому пользователями каталогу ссылок на торрент-файлы, которые содержат только списки хеш-сумм
 
All rights reserved © 2017-2018
Loading...
Error