(JPop/JRock) Miwa - Faraway-Kiss you - 2013, FLAC (image+.cue), lossless

Статистика раздачи
Размер:  166.8 MB   |   Зарегистрирован:  4 года 4 месяца   |   .torrent скачан:  145 раз
Сиды:  2
Автор
Сообщение

X-Kira

RG Lucky Clover

Стаж: 9 лет

Сообщений: 2608

flag

X-Kira · 13-Июл-14 14:01 (4 года 4 месяца назад, ред. 19-Июл-14 17:36)

 

Miwa - Faraway-Kiss you

Жанр: JPop/JRock
Страна-производитель диска: Japan
Год издания диска: 2013
Страна: Japan
Аудиокодек: FLAC (*.flac)
Тип рипа: image+.cue
Битрейт аудио: lossless
Продолжительность: 01:03:50
Источник (релизер): jpopsuki
Наличие сканов в содержимом раздачи: Есть
Треклист:
01. Faraway
02. Kiss you
03. Delight -ballad version-
04. Faraway ~instrumental~
05. Kiss yo ~instrumental~
Лог создания рипа
Exact Audio Copy V1.0 beta 3 from 29. August 2011
EAC extraction logfile from 4. September 2013, 15:02
miwa&Naoki-T / Faraway/Kiss you
Used drive : PLEXTOR DVDR PX-650US Adapter: 0 ID: 0
Read mode : Secure
Utilize accurate stream : Yes
Defeat audio cache : Yes
Make use of C2 pointers : No
Read offset correction : 6
Overread into Lead-In and Lead-Out : No
Fill up missing offset samples with silence : Yes
Delete leading and trailing silent blocks : No
Null samples used in CRC calculations : Yes
Used interface : Native Win32 interface for Win NT & 2000
Used output format : Internal WAV Routines
Sample format : 44.100 Hz; 16 Bit; Stereo
TOC of the extracted CD
Track | Start | Length | Start sector | End sector
---------------------------------------------------------
1 | 0:00.00 | 4:00.23 | 0 | 18022
2 | 4:00.23 | 4:30.31 | 18023 | 38303
3 | 8:30.54 | 6:02.57 | 38304 | 65510
4 | 14:33.36 | 3:59.59 | 65511 | 83494
5 | 18:33.20 | 4:26.69 | 83495 | 103513
Range status and errors
Selected range
Filename C:\zxy900906\eac\cd_44.1\miwa&Naoki-T - Faraway,Kiss you.wav
Peak level 100.0 %
Extraction speed 3.6 X
Range quality 100.0 %
Copy CRC 9E4E4842
Copy OK
No errors occurred
AccurateRip summary
Track 1 not present in database
Track 2 not present in database
Track 3 not present in database
Track 4 not present in database
Track 5 not present in database
None of the tracks are present in the AccurateRip database
End of status report
---- CUETools DB Plugin V2.1.4
[CTDB TOCID: rKN39PEeMAo4dJjYMyN4BvjUptY-] found
Submit result: rKN39PEeMAo4dJjYMyN4BvjUptY- has been confirmed
Track | CTDB Status
1 | (3/3) Accurately ripped
2 | (3/3) Accurately ripped
3 | (3/3) Accurately ripped
4 | (3/3) Accurately ripped
5 | (3/3) Accurately ripped
==== Log checksum 48CB64D0E0B041A0D6B133C87CFACC603936102BA03E6FE44BAA1BB7C501E64C ====

Содержание индексной карты (.CUE)
REM GENRE Anime
REM DATE 2013
REM DISCID 2E056405
REM COMMENT "ExactAudioCopy v1.0b3"
PERFORMER "miwa&Naoki-T"
TITLE "Faraway/Kiss you"
FILE "miwa&Naoki-T - Faraway,Kiss you.flac" WAVE
TRACK 01 AUDIO
TITLE "Faraway"
PERFORMER "miwa&Naoki-T"
ISRC JPSR01301203
INDEX 01 00:00:00
TRACK 02 AUDIO
TITLE "Kiss you"
PERFORMER "miwa"
ISRC JPSR01300972
INDEX 00 03:59:08
INDEX 01 04:00:23
TRACK 03 AUDIO
TITLE "Delight <ballad version>"
PERFORMER "miwa&Naoki-T"
ISRC JPSR01301204
INDEX 00 08:26:34
INDEX 01 08:30:54
TRACK 04 AUDIO
TITLE "Faraway ~instrumental~"
PERFORMER "miwa&Naoki-T"
ISRC JPSR01301205
INDEX 00 14:30:18
INDEX 01 14:33:36
TRACK 05 AUDIO
TITLE "Kiss you ~instrumental~"
PERFORMER "miwa&Naoki-T"
ISRC JPSR01301206
INDEX 01 18:33:20
Зарегистрирован:
  • 19-Июл-14 17:36
  • Скачан: 145 раз

Скачать .torrent

14 KB

Тип: обычная
Статус: проверено
Размер: 166.8 MB  ·  magnet5E70152FCAF2353285C3E1A5326AFDCBA7EEAD5B
  • Свернуть поддиректории
  • Развернуть
  • Переключить
  • Увел./умен. окно
загружается...
 
All rights reserved © 2017-2018
Loading...
Error