Ариэтти из страны лилипутов / Добывайка Ариетти / Kari-gurashi no Arietti / The Borrower Arrietty [Movie] [Без хардсаба] [RUS(int), JAP+SUB] [2010, приключения, сказка, BDRip] [720p] [HD]

Статистика раздачи
Размер:  3.54 GB   |   Зарегистрирован:  4 года 2 месяца   |   .torrent скачан:  11,858 раз
Сиды:  62   Личи:  3
Автор
Сообщение

Reigar.

Top Loader 04* 1TB

Стаж: 7 лет 11 месяцев

Сообщений: 209

flag

Reigar. · 10-Сен-14 14:54 (4 года 2 месяца назад, ред. 10-Сен-14 20:55)

 

Ариэтти из страны лилипутов
Добывайка Ариетти
Kari-gurashi no Arietti
The Borrower Arrietty
Страна: Япония
Год выпуска: 2010 г.
Жанр: приключения, сказка
Тип: Movie
Продолжительность: 01:34:07
Режиссер: Хиромаса Ёнэбаяси
Студия:

Перевод:
  1. русские субтитры от CP-Digital (ass/srt)
  2. английские субтитры c BD (ass/srt)

Озвучка:
  1. полное дублирование от CP-Digital
  2. двухголосая (муж., жен.) от BBC Saint-Petersburg
  3. авторский одноголосый (муж.) от Ю. Сербин

Описание: История маленьких людей, которые живут рядом с нами, одалживая вещи по чуть-чуть. Их существование хранится в секрете. Но юная Ариэти нарушает запрет. Ее обнаруживает 12 летний Шо, и они становятся лучшими друзьями.
Качество: BDRip
Автор рипа: DeathN2
Тип релиза: Без хардсаба
Формат видео: MKV
Видео: AVC (8bit), 1280x692, 3096 kbps, 23,976 fps
Аудио RUS#1 (int.): AC3, 640 kbps, 48000 Hz, 6ch - CP-Digital
Аудио RUS#2 (int.): AC3, 448 kbps, 48000 Hz, 6ch - BBC Saint-Petersburg
Аудио RUS#3 (int.): AC3, 448 kbps, 48000 Hz, 6ch - Ю. Сербин
Аудио JAP: AC3, 640 kbps, 48000 Hz, 6ch
Подробные тех. данные
Формат : Matroska
Версия формата : Version 2
Размер файла : 3,54 Гбайт
Продолжительность : 1 ч. 34 м.
Общий поток : 5379 Кбит/сек
Дата кодирования : UTC 2014-09-10 11:11:16
Программа кодирования : mkvmerge v5.8.0 ('No Sleep / Pillow') built on Sep 2 2012 15:37:04
Библиотека кодирования : libebml v1.2.3 + libmatroska v1.3.0
Видео
Идентификатор : 1
Формат : AVC
Формат/Информация : Advanced Video Codec
Профиль формата : High@L4.1
Параметр CABAC формата : Да
Параметр ReFrames формата : 8 кадров
Идентификатор кодека : V_MPEG4/ISO/AVC
Продолжительность : 1 ч. 34 м.
Битрейт : 3096 Кбит/сек
Ширина : 1280 пикселей
Высота : 692 пикселя
Соотношение сторон : 1,85:1
Режим частоты кадров : Постоянный
Частота кадров : 23,976 кадра/сек
Цветовое пространство : YUV
Субдискретизация насыщенности : 4:2:0
Битовая глубина : 8 бит
Тип развёртки : Прогрессивная
Бит/(Пиксели*Кадры) : 0.146
Размер потока : 2,04 Гбайт (58%)
Библиотека кодирования : x264 core 115 r2008 4c552d8
Настройки программы : cabac=1 / ref=9 / deblock=1:-3:-2 / analyse=0x3:0x133 / me=umh / subme=10 / psy=1 / psy_rd=0.52:0.20 / mixed_ref=1 / me_range=24 / chroma_me=1 / trellis=2 / 8x8dct=1 / cqm=0 / deadzone=21,11 / fast_pskip=0 / chroma_qp_offset=-3 / threads=6 / sliced_threads=0 / nr=0 / decimate=0 / interlaced=0 / bluray_compat=0 / constrained_intra=0 / bframes=7 / b_pyramid=1 / b_adapt=2 / b_bias=0 / direct=3 / weightb=1 / open_gop=0 / weightp=2 / keyint=240 / keyint_min=24 / scenecut=40 / intra_refresh=0 / rc_lookahead=200 / rc=crf / mbtree=1 / crf=16.5 / qcomp=0.72 / qpmin=0 / qpmax=69 / qpstep=4 / ip_ratio=1.40 / aq=1:1.40
Язык : Japanese
Default : Нет
Forced : Нет
Основные цвета : BT.709
Характеристики трансфера : BT.709
Коэффициенты матрицы : BT.709
Аудио #1
Идентификатор : 2
Формат : AC-3
Формат/Информация : Audio Coding 3
Расширение режима : CM (complete main)
Параметр Endianness формата : Big
Идентификатор кодека : A_AC3
Продолжительность : 1 ч. 34 м.
Вид битрейта : Постоянный
Битрейт : 640 Кбит/сек
Каналы : 6 каналов
Расположение каналов : Front: L C R, Side: L R, LFE
Частота : 48,0 КГц
Битовая глубина : 16 бит
Метод сжатия : С потерями
Размер потока : 431 Мбайт (12%)
Заголовок : CP-Digital
Язык : Russian
Default : Да
Forced : Нет
Аудио #2
Идентификатор : 3
Формат : AC-3
Формат/Информация : Audio Coding 3
Расширение режима : CM (complete main)
Параметр Endianness формата : Big
Идентификатор кодека : A_AC3
Продолжительность : 1 ч. 34 м.
Вид битрейта : Постоянный
Битрейт : 448 Кбит/сек
Каналы : 6 каналов
Расположение каналов : Front: L C R, Side: L R, LFE
Частота : 48,0 КГц
Битовая глубина : 16 бит
Метод сжатия : С потерями
Размер потока : 302 Мбайт (8%)
Заголовок : BBC Saint-Petersburg
Язык : Russian
Default : Нет
Forced : Нет
Аудио #3
Идентификатор : 4
Формат : AC-3
Формат/Информация : Audio Coding 3
Расширение режима : CM (complete main)
Параметр Endianness формата : Big
Идентификатор кодека : A_AC3
Продолжительность : 1 ч. 34 м.
Вид битрейта : Постоянный
Битрейт : 448 Кбит/сек
Каналы : 6 каналов
Расположение каналов : Front: L C R, Side: L R, LFE
Частота : 48,0 КГц
Битовая глубина : 16 бит
Метод сжатия : С потерями
Размер потока : 302 Мбайт (8%)
Заголовок : Ю.Сербин
Язык : Russian
Default : Нет
Forced : Нет
Аудио #4
Идентификатор : 5
Формат : AC-3
Формат/Информация : Audio Coding 3
Расширение режима : CM (complete main)
Параметр Endianness формата : Big
Идентификатор кодека : A_AC3
Продолжительность : 1 ч. 34 м.
Вид битрейта : Постоянный
Битрейт : 640 Кбит/сек
Каналы : 6 каналов
Расположение каналов : Front: L C R, Side: L R, LFE
Частота : 48,0 КГц
Битовая глубина : 16 бит
Метод сжатия : С потерями
Размер потока : 431 Мбайт (12%)
Язык : Japanese
Default : Нет
Forced : Нет
Меню
00:00:00.000 : en:Chapter 1
00:09:24.981 : en:Chapter 2
00:17:45.481 : en:Chapter 3
00:25:06.880 : en:Chapter 4
00:34:15.095 : en:Chapter 5
00:41:19.852 : en:Chapter 6
00:46:31.622 : en:Chapter 7
00:52:47.456 : en:Chapter 8
01:02:35.377 : en:Chapter 9
01:08:48.249 : en:Chapter 10
01:17:15.005 : en:Chapter 11
01:24:14.132 : en:Chapter 12
01:34:06.641 : en:Chapter 13
Скриншоты
Зарегистрирован:
  • 10-Сен-14 14:54
  • Скачан: 11,858 раз

Скачать .torrent

18 KB

Тип: обычная
Статус: проверено
Размер: 3.54 GB  ·  magnet118EC8952745C501A086AA87B16D0C2DB2398E7C
  • Свернуть поддиректории
  • Развернуть
  • Переключить
  • Увел./умен. окно
загружается...

Buka63

Moderator

Стаж: 7 лет 7 месяцев

Сообщений: 9341

flag

Buka63 · 12-Сен-14 08:57 (спустя 1 день 18 часов)

Проверено

exTimecraft.

О дооформлении релизов прошу отписываться мне в личку с обязательным указанием ссылки.

ruin.and.desolation

Стаж: 5 лет

Сообщений: 2

flag

ruin.and.desolation · 04-Фев-15 21:57 (спустя 4 месяца 22 дня)

Какои програмои етот РИП сделан? Хандбраке?

Misaki Orihara

Стаж: 6 лет 7 месяцев

Сообщений: 134

Misaki Orihara · 21-Июл-15 08:54 (спустя 5 месяцев 16 дней)

 
All rights reserved © 2017-2018
Loading...
Error