Однажды в лесу / Il était une forêt / Once in the Forest / Once Upon a Forest (Люк Жаке) [2013, США, Франция, документальный, BDRip 720p] AVO + Original + Sub (GER)

Статистика раздачи
Размер:  3.94 GB   |   Зарегистрирован:  4 года 1 месяц   |   .torrent скачан:  1,017 раз

Полный источник: был вчера

Автор
Сообщение

ovsyannikov.ivan

VIP (Заслуженный)

Стаж: 8 лет 9 месяцев

Сообщений: 1921

flag

ovsyannikov.ivan · 01-Окт-14 12:00 (4 года 1 месяц назад, ред. 01-Окт-14 12:05)

 

Однажды в лесу / Il était une forêt
"Путешествие, которое перевернёт ваше представление о Земле"
7.188 / 10

Год выпуска: 2013
Страна: США, Франция
Жанр: документальный
Продолжительность: 78 мин.
Перевод: Профессиональный одноголосый перевод
Оригинальная аудиодорожка: Есть
Субтитры: Немецкие полные, немецкие полные SDH
Режиссёр: Люк Жаке
Сценарий: Люк Жаке, Франсис Алле
Продюсер: Ив Дарондо, Кристоф Лиюд, Эммануэль Приу
Оператор: Антуан Марто
Композитор: Эрик Невё
Монтаж: Стефан Мазалегю
В ролях: Франсис Алле
Роли дублировали: Мишель Папинески, Николай Дроздов
Мировая премьера: 28 сентября 2013
Премьера (РФ): 29 мая 2014, Наше Кино
Описание: Фильм приглашает Вас отправиться в путешествие по местам, ошеломительным по своей красоте, которые вы никогда не видели раньше. Опираясь на последние научные исследования авторам фильма удалось запечатлеть всю прелесть тропического леса, растущего прямо на глазах у зрителей. Фильм представляет собой полное погружение в мир первозданной природы, позволяющий зрителям открывать самые сокровенные тайны живой природы. Добро пожаловать в самое сердце жизни на Земле!


Качество исходника: Blu-Ray 1080p (http://hdclub.org/details.php?id=19292)
Качество: BDRip
Тип: 720p
Контейнер: m4v
Видео: 1280x720, 23.976 fps, MPEG-4 AVC, ~6000 kbps avg
Аудио#1: Russian: 48 kHz, ААС, 2/0 (L,R), ~192.00 kbps avg |Дубляж одноголосый, Николай Дроздов|
Аудио#2: German: 48 kHz, ААС, 2/0 (L,R), ~192.00 kbps avg |Дубляж одноголосый, Мишель Папинески|
Аудио#3: French: 48 kHz, ААС, 2/0 (L,R), ~192.00 kbps avg
Аудио#4: French: 48 kHz, AC3, 3/2 (L,C,R,l,r) + LFE ch, ~640 kbps avg
Субтитры №1: German |Полные|
Субтитры №2: German |Полные, SDH|


iTunes Meta Tags for country fr
Код:
Name: Il était une forêt
Artist: Luc Jacquet
Genre: Documentary
Release Date: 2013-09-28T08:00:00Z
Description: Фильм приглашает Вас отправиться в путешествие по местам, ошеломительным по своей красоте, которые вы никогда не видели раньше...
Long Description: Фильм приглашает Вас отправиться в путешествие по местам, ошеломительным по своей красоте, которые вы никогда не видели раньше. Опираясь на последние научные исследования авторам фильма удалось запечатлеть всю прелесть тропического леса, растущего прямо на глазах у зрителей. Фильм представляет собой полное погружение в мир первозданной природы, позволяющий зрителям открывать самые сокровенные тайны живой природы. Добро пожаловать в самое сердце жизни на Земле!
Rating: Tout public
Studio: Buena Vista International
Cast: Франсис Алле
Director: Люк Жаке
Producers: Ив Дарондо, Кристоф Лиюд, Эммануэль Приу
Screenwriters: Люк Жаке, Франсис Алле
Copyright: © 2013 Bonne Pioche Cinéma
contentID: 822158657
XID: Apple:vendor_id:2013-739655
Sort Name: Il était une forêt
MediaInfo 720p Release
Код:
Общее
Полное имя : /Users/ivan/Desktop/Il était une forêt (HD).m4v
Формат : MPEG-4
Идентификатор кодека : M4V
Размер файла : 3,94 Гбайт
Продолжительность : 1 ч. 18 м.
Режим общего битрейта : Переменный
Общий поток : 7212 Кбит/сек
Название фильма : Il était une forêt
Исполнитель : Luc Jacquet
Жанр : Documentary
Тип содержимого : Short Film
Описание : Фильм приглашает Вас отправиться в путешествие по местам, ошеломительным по своей красоте, которые вы никогда не видели раньше...
Дата записи : UTC 2013-09-28 08:00:00
Дата кодирования : UTC 2014-09-28 09:16:53
Дата пометки : UTC 2014-09-28 10:03:34
Правообладатель : © 2013 Bonne Pioche Cinéma
Обложка : Yes
Рейтинг : None
Title/Sort : Il était une forêt
LongDescription : Фильм приглашает Вас отправиться в путешествие по местам, ошеломительным по своей красоте, которые вы никогда не видели раньше. Опираясь на последние научные исследования авторам фильма удалось запечатлеть всю прелесть тропического леса, растущего прямо на глазах у зрителей. Фильм представляет собой полное погружение в мир первозданной природы, позволяющий зрителям открывать самые сокровенные тайны живой природы. Добро пожаловать в самое сердце жизни на Земле!
HDVideo : Yes
AppleStoreCatalogID : 822158657
Vendor : Apple:vendor_id:2013-739655
ContentRating : fr-movie|Tout public|000|
iTunMOVI : <?xml version="1.0" encoding="UTF-8"?> / <!DOCTYPE plist PUBLIC "-//Apple//DTD PLIST 1.0//EN" "http://www.apple.com/DTDs/PropertyList-1.0.dtd"> / <plist version="1.0"> / <dict> /  <key>cast</key> /  <array> /   <dict> /    <key>name</key> /    <string>Франсис Алле</string> /   </dict> /  </array> /  <key>directors</key> /  <array> /   <dict> /    <key>name</key> /    <string>Люк Жаке</string> /   </dict> /  </array> /  <key>producers</key> /  <array> /   <dict> /    <key>name</key> /    <string>Ив Дарондо</string> /   </dict> /   <dict> /    <key>name</key> /    <string>Кристоф Лиюд</string> /   </dict> /   <dict> /    <key>name</key> /    <string>Эммануэль Приу</string> /   </dict> /  </array> /  <key>screenwriters</key> /  <array> /   <dict> /    <key>name</key> /    <string>Люк Жаке</string> /   </dict> /   <dict> /    <key>name</key> /    <string>Франсис Алле</string> /   </dict> /  </array> /  <key>studio</key> /  <string>Buena Vista International</string> / </dict> / </plist>
Видео #1
Идентификатор : 1
Формат : AVC
Формат/Информация : Advanced Video Codec
Профиль формата : High@L3.1
Параметр CABAC формата : Нет
Параметр ReFrames формата : 3 кадра
Идентификатор кодека : avc1
Идентификатор кодека/Информация : Advanced Video Coding
Продолжительность : 1 ч. 18 м.
Битрейт : 6000 Кбит/сек
Ширина : 1280 пикселей
Высота : 720 пикселей
Соотношение сторон : 16:9
Режим частоты кадров : Переменный
Частота кадров : 23,976 кадра/сек
Минимальная частота кадров : 23,974 кадра/сек
Максимальная частота кадров : 90000,000 кадров/сек
Цветовое пространство : YUV
Субдискретизация насыщенности : 4:2:0
Битовая глубина : 8 бит
Тип развёртки : Прогрессивная
Бит/(Пиксели*Кадры) : 0.272
Размер потока : 3,26 Гбайт (83%)
Библиотека кодирования : x264 core 130 r2273 b3065e6
Настройки программы : cabac=0 / ref=3 / deblock=1:-2:-1 / analyse=0x3:0x113 / me=umh / subme=9 / psy=1 / psy_rd=0.90:0.20 / mixed_ref=1 / me_range=32 / chroma_me=1 / trellis=0 / 8x8dct=1 / cqm=0 / deadzone=21,11 / fast_pskip=0 / chroma_qp_offset=-2 / threads=12 / lookahead_threads=1 / sliced_threads=0 / nr=0 / decimate=0 / interlaced=0 / bluray_compat=0 / constrained_intra=0 / bframes=3 / b_pyramid=0 / b_adapt=2 / b_bias=0 / direct=1 / weightb=0 / open_gop=0 / weightp=0 / keyint=240 / keyint_min=24 / scenecut=40 / intra_refresh=0 / rc_lookahead=40 / rc=2pass / mbtree=1 / bitrate=6000 / ratetol=1.0 / qcomp=0.80 / qpmin=0 / qpmax=69 / qpstep=4 / cplxblur=20.0 / qblur=0.5 / vbv_maxrate=9500 / vbv_bufsize=9500 / nal_hrd=none / ip_ratio=1.20 / aq=1:0.80
Язык : French
Дата кодирования : UTC 2014-09-28 09:16:53
Дата пометки : UTC 2014-09-28 09:21:06
Основные цвета : BT.709
Характеристики трансфера : BT.709
Коэффициенты матрицы : BT.709
Видео #2
Идентификатор : 9
Формат : JPEG
Идентификатор кодека : jpeg
Продолжительность : 1 ч. 18 м.
Вид битрейта : Переменный
Битрейт : 1701 бит/сек
Ширина : 640 пикселей
Высота : 360 пикселей
Соотношение сторон : 16:9
Режим частоты кадров : Переменный
Частота кадров : 0,003 кадр/сек
Минимальная частота кадров : 0,002 кадр/сек
Максимальная частота кадров : 0,005 кадр/сек
Цветовое пространство : YUV
Субдискретизация насыщенности : 4:2:0
Битовая глубина : 8 бит
Метод сжатия : С потерями
Бит/(Пиксели*Кадры) : 2.461
Размер потока : 831 Кбайт (0%)
Язык : French
Дата кодирования : UTC 2014-09-28 09:21:29
Дата пометки : UTC 2014-09-28 09:21:29
Аудио #1
Идентификатор : 2
Формат : AAC
Формат/Информация : Advanced Audio Codec
Профиль формата : LC
Идентификатор кодека : 40
Продолжительность : 1 ч. 18 м.
Вид битрейта : Переменный
Битрейт : 179 Кбит/сек
Максимальный битрейт : 284 Кбит/сек
Каналы : 2 канала
Расположение каналов : Front: L R
Частота : 48,0 КГц
Метод сжатия : С потерями
Размер потока : 100 Мбайт (2%)
Язык : Russian
Дата кодирования : UTC 2014-09-28 09:16:53
Дата пометки : UTC 2014-09-28 09:21:24
Аудио #2
Идентификатор : 3
Формат : AAC
Формат/Информация : Advanced Audio Codec
Профиль формата : LC
Идентификатор кодека : 40
Продолжительность : 1 ч. 18 м.
Вид битрейта : Переменный
Битрейт : 203 Кбит/сек
Максимальный битрейт : 285 Кбит/сек
Каналы : 2 канала
Расположение каналов : Front: L R
Частота : 48,0 КГц
Метод сжатия : С потерями
Размер потока : 114 Мбайт (3%)
Язык : French
Дата кодирования : UTC 2014-09-28 09:16:53
Дата пометки : UTC 2014-09-28 09:21:22
Аудио #3
Идентификатор : 4
Формат : AAC
Формат/Информация : Advanced Audio Codec
Профиль формата : LC
Идентификатор кодека : 40
Продолжительность : 1 ч. 18 м.
Вид битрейта : Переменный
Битрейт : 200 Кбит/сек
Максимальный битрейт : 286 Кбит/сек
Каналы : 2 канала
Расположение каналов : Front: L R
Частота : 48,0 КГц
Метод сжатия : С потерями
Размер потока : 112 Мбайт (3%)
Язык : German
Дата кодирования : UTC 2014-09-28 09:16:53
Дата пометки : UTC 2014-09-28 09:21:22
Аудио #4
Идентификатор : 5
Формат : AC-3
Формат/Информация : Audio Coding 3
Расширение режима : CM (complete main)
Параметр Endianness формата : Big
Идентификатор кодека : ac-3
Продолжительность : 1 ч. 18 м.
Вид битрейта : Постоянный
Битрейт : 640 Кбит/сек
Каналы : 6 каналов
Расположение каналов : Front: L C R, Side: L R, LFE
Частота : 48,0 КГц
Битовая глубина : 16 бит
Метод сжатия : С потерями
Размер потока : 358 Мбайт (9%)
Язык : French
Дата кодирования : UTC 2014-09-28 09:16:53
Дата пометки : UTC 2014-09-28 09:17:16
Текст #1
Идентификатор : 6
Формат : Timed Text
Режим смешивания : sbtl
Идентификатор кодека : tx3g
Продолжительность : 1 ч. 14 м.
Вид битрейта : Переменный
Битрейт : 35 бит/сек
Размер потока : 19,2 Кбайт (0%)
Язык : German
Дата кодирования : UTC 2014-09-28 09:16:53
Дата пометки : UTC 2014-09-28 09:16:53
Текст #2
Идентификатор : 7
Формат : Timed Text
Режим смешивания : sbtl
Идентификатор кодека : tx3g
Продолжительность : 1 ч. 14 м.
Вид битрейта : Переменный
Битрейт : 44 бит/сек
Размер потока : 23,9 Кбайт (0%)
Язык : German
Дата кодирования : UTC 2014-09-28 09:16:53
Дата пометки : UTC 2014-09-28 09:16:53
Меню #1
00:00:00.000 : 1
00:06:27.804 : 2
00:12:44.555 : 3
00:17:59.287 : 4
00:26:41.099 : 5
00:33:10.238 : 6
00:41:09.967 : 7
00:48:24.527 : 8
00:54:33.061 : 9
01:01:44.826 : 10
01:10:08.204 : 11
01:15:00.538 : 12
Меню #2
Идентификатор : 8
Идентификатор кодека : text
Продолжительность : 1 ч. 18 м.
Язык : French
Дата кодирования : UTC 2014-09-28 09:21:24
Дата пометки : UTC 2014-09-28 09:21:24
00:00:00.000 : 1
00:06:27.804 : 2
00:12:44.555 : 3
00:17:59.287 : 4
00:26:41.099 : 5
00:33:10.238 : 6
00:41:09.967 : 7
00:48:24.527 : 8
00:54:33.061 : 9
01:01:44.826 : 10
01:10:08.204 : 11
01:15:00.538 : 12
Вид битрейта : VBR
x264 лог 720p Release
Код:
/Applications/Utilities/HandBrakeCLI -i "/Volumes/HFS/Movies Work/Das.Geheimnis.der.Baeume.2013.DOKU.DUAL.COMPLETE.BLURAY-TRexHD/BDMV/STREAM/00017.m2ts" -t 1 -o "/Volumes/HFS/Movies Work/Once Upon a Forest/Once Upon a Forest (HD).m4v"  -f mp4 -4  -O  -w 1280 -l 720 --crop 0:0:0:0 --modulus 16 -e x264 -b 6000 -2  -a none  -x cabac=0:ref=3:me=umh:b-pyramid=none:b-adapt=2:weightb=0:trellis=0:weightp=0:vbv-maxrate=9500:vbv-bufsize=9500:subq=9:merange=32:deblock=-2,-1:qcomp=0.80:qpmin=0:qpmax=69:fast_pskip=0:aq-strength=0.8:no-dct-decimate=1:psy-rd=0.90,0.20:ipratio=1.2:pbratio=1.2 --verbose=1
x264 [info]: frame I:806   Avg QP:19.14  size:170951  PSNR Mean Y:44.88 U:47.38 V:48.42 Avg:45.59 Global:43.72
x264 [info]: frame P:43092 Avg QP:21.20  size: 57622  PSNR Mean Y:42.07 U:45.41 V:46.65 Avg:42.94 Global:40.75
x264 [info]: frame B:68605 Avg QP:22.63  size: 12875  PSNR Mean Y:42.14 U:45.74 V:47.21 Avg:43.02 Global:40.90
x264 [info]: consecutive B-frames:  2.7% 34.7% 39.6% 23.0%
x264 [info]: mb I  I16..4:  7.8% 50.2% 42.0%
x264 [info]: mb P  I16..4:  1.4%  3.7%  2.1%  P16..4: 47.1% 27.1% 13.4%  0.0%  0.0%    skip: 5.1%
x264 [info]: mb B  I16..4:  0.3%  0.9%  0.5%  B16..8: 35.7%  9.6%  2.1%  direct: 7.6%  skip:43.4%  L0:29.6% L1:52.0% BI:18.4%
x264 [info]: 8x8 transform intra:51.7% inter:43.4%
x264 [info]: coded y,uvDC,uvAC intra: 77.9% 80.2% 58.1% inter: 32.5% 35.3% 21.3%
x264 [info]: i16 v,h,dc,p: 38% 17%  8% 38%
x264 [info]: i8 v,h,dc,ddl,ddr,vr,hd,vl,hu:  7%  8%  6% 11% 16% 14% 15% 11% 12%
x264 [info]: i4 v,h,dc,ddl,ddr,vr,hd,vl,hu:  9%  9%  4% 11% 17% 15% 15% 10% 10%
x264 [info]: i8c dc,h,v,p: 55% 17% 16% 12%
x264 [info]: ref P L0: 82.7% 10.8%  6.4%
x264 [info]: ref B L0: 85.4% 14.6%
x264 [info]: SSIM Mean Y:0.9799779 (16.985db)
x264 [info]: PSNR Mean Y:42.137 U:45.626 V:47.003 Avg:43.005 Global:40.855 kb/s:5974.29
Скриншоты 720p Release



Трейлер




Релиз подготовлен для просмотра на Apple TV, iPad, iPhone, iPod Touch.
Для просмотра данного релиза на компьютере с ОС Windows рекомендуется использовать VLC media player
Зарегистрирован:
  • 01-Окт-14 12:05
  • Скачан: 1,017 раз

Скачать .torrent

40 KB

Тип: обычная
Статус: проверено
Размер: 3.94 GB  ·  magnet1B0A68618F41EAD492CF4E3D241D012510889C49
  • Свернуть поддиректории
  • Развернуть
  • Переключить
  • Увел./умен. окно
загружается...
 
All rights reserved © 2017-2018
Loading...
Error