(JPop, JRock, Jazz) [CD] Maron Hamada - Huryo Shojo Elegy - 2012, FLAC (tracks+.cue), lossless

Статистика раздачи
Размер:  252.1 MB   |   Зарегистрирован:  4 года   |   .torrent скачан:  163 раза
Сиды:  2
Автор
Сообщение

fiks22

Top Seed 08* 5120r

Стаж: 11 лет

Сообщений: 9933

flag

fiks22 · 02-Ноя-14 23:53 (4 года назад, ред. 02-Ноя-14 23:55)

 

Maron Hamada - Huryo Shojo Elegy
Жанр: JPop, JRock, Jazz
Носитель: CD
Страна-производитель диска: Япония
Год издания: 2012
Издатель (лейбл): Boundee
Номер по каталогу: DQC-905
Аудиокодек: FLAC (*.flac)
Тип рипа: tracks+.cue
Битрейт аудио: lossless
Продолжительность: 41:15
Источник (релизер): Skyforsense (what)
Наличие сканов в содержимом раздачи: нет
Треклист:
01. Tameiki Strut Jomaku (3:17)
02. Watashi no Pistol Heisei Nijuuyo Nen Hen (4:04)
03. Karasu (4:09)
04. Kago no Naka no Hatsukanezumi (5:02)
05. Ame to Sekken no Nioi (5:50)
06. Himegoto Churucchuru (4:49)
07. Gozen Rei Ji no Chika Gekijou (3:22)
08. Kocchi He Oide (2:32)
09. Kusatta Kajitsu Heisei Nijuuyo Nen Hen (5:27)
10. Tameiki Strut Shuumaku (2:43)
Лог создания рипа
Exact Audio Copy V1.0 beta 2 from 29. April 2011
EAC extraction logfile from 18. April 2013, 21:03
浜田マロン / 不良少女エレジー
Used drive : HL-DT-STDVDRAM GH20NS10 Adapter: 4 ID: 0
Read mode : Secure
Utilize accurate stream : Yes
Defeat audio cache : Yes
Make use of C2 pointers : No
Read offset correction : 667
Overread into Lead-In and Lead-Out : No
Fill up missing offset samples with silence : Yes
Delete leading and trailing silent blocks : No
Null samples used in CRC calculations : Yes
Used interface : Native Win32 interface for Win NT & 2000
Gap handling : Appended to previous track
Used output format : User Defined Encoder
Selected bitrate : 32 kBit/s
Quality : High
Add ID3 tag : No
Command line compressor : C:\Program Files (x86)\FLAC\flac.exe
TOC of the extracted CD
Track | Start | Length | Start sector | End sector
---------------------------------------------------------
1 | 0:00.00 | 3:17.23 | 0 | 14797
2 | 3:17.23 | 4:03.54 | 14798 | 33076
3 | 7:21.02 | 4:08.66 | 33077 | 51742
4 | 11:29.68 | 5:01.45 | 51743 | 74362
5 | 16:31.38 | 5:50.03 | 74363 | 100615
6 | 22:21.41 | 4:48.45 | 100616 | 122260
7 | 27:10.11 | 3:22.22 | 122261 | 137432
8 | 30:32.33 | 2:31.44 | 137433 | 148801
9 | 33:04.02 | 5:27.32 | 148802 | 173358
10 | 38:31.34 | 2:42.41 | 173359 | 185549
Track 1
Filename C:\EAC Rips\01 溜息ストラット 序幕.wav
Pre-gap length 0:00:02.00
Peak level 63.8 %
Extraction speed 3.3 X
Track quality 100.0 %
Test CRC 9B4E3CA8
Copy CRC 9B4E3CA8
Track not present in AccurateRip database
Copy OK
Track 2
Filename C:\EAC Rips\02 私のピストル 平成二十四年編.wav
Peak level 100.0 %
Extraction speed 3.9 X
Track quality 100.0 %
Test CRC 3E48026A
Copy CRC 3E48026A
Track not present in AccurateRip database
Copy OK
Track 3
Filename C:\EAC Rips\03 カラス.wav
Peak level 100.0 %
Extraction speed 4.1 X
Track quality 100.0 %
Test CRC 3511F8CB
Copy CRC 3511F8CB
Track not present in AccurateRip database
Copy OK
Track 4
Filename C:\EAC Rips\04 籠の中のハツカネズミ.wav
Peak level 100.0 %
Extraction speed 3.8 X
Track quality 100.0 %
Test CRC BBB3CF5E
Copy CRC BBB3CF5E
Track not present in AccurateRip database
Copy OK
Track 5
Filename C:\EAC Rips\05 雨と石鹸の匂い.wav
Pre-gap length 0:00:01.00
Peak level 97.4 %
Extraction speed 5.0 X
Track quality 100.0 %
Test CRC 7FBBDF02
Copy CRC 7FBBDF02
Track not present in AccurateRip database
Copy OK
Track 6
Filename C:\EAC Rips\06 秘事チュルッチュル.wav
Peak level 100.0 %
Extraction speed 5.4 X
Track quality 100.0 %
Test CRC F954E7AC
Copy CRC F954E7AC
Track not present in AccurateRip database
Copy OK
Track 7
Filename C:\EAC Rips\07 午前0時の地下劇場.wav
Peak level 100.0 %
Extraction speed 5.5 X
Track quality 100.0 %
Test CRC 0CB95CBE
Copy CRC 0CB95CBE
Track not present in AccurateRip database
Copy OK
Track 8
Filename C:\EAC Rips\08 こっちへおいで.wav
Peak level 95.6 %
Extraction speed 5.4 X
Track quality 100.0 %
Test CRC 9AE70F10
Copy CRC 9AE70F10
Track not present in AccurateRip database
Copy OK
Track 9
Filename C:\EAC Rips\09 腐った果実 平成二十四年編.wav
Peak level 100.0 %
Extraction speed 6.2 X
Track quality 100.0 %
Test CRC 9490A1DC
Copy CRC 9490A1DC
Track not present in AccurateRip database
Copy OK
Track 10
Filename C:\EAC Rips\10 溜息ストラット 終幕.wav
Peak level 63.6 %
Extraction speed 5.6 X
Track quality 100.0 %
Test CRC 24AC329A
Copy CRC 24AC329A
Track not present in AccurateRip database
Copy OK
None of the tracks are present in the AccurateRip database
No errors occurred
End of status report
==== Log checksum 3340C93852B923A8CA3C9E17ACF7CF174F1DDAC8A42DAE3A715CC13D072345F7 ====
Содержание индексной карты (.CUE)
REM GENRE JRock
REM DATE 2012
REM DISCID 8D09AA0A
REM COMMENT "ExactAudioCopy v1.0b2"
PERFORMER "Maron Hamada"
TITLE "Huryo Shojo Elegy"
FILE "01 - Tameiki Strut Jomaku.wav" WAVE
TRACK 01 AUDIO
TITLE "Tameiki Strut Jomaku"
PERFORMER "Maron Hamada"
INDEX 01 00:00:00
FILE "02 - Watashi no Pistol Heisei Nijuuyo Nen Hen.wav" WAVE
TRACK 02 AUDIO
TITLE "Watashi no Pistol Heisei Nijuuyo Nen Hen"
PERFORMER "Maron Hamada"
INDEX 01 00:00:00
FILE "03 - Karasu.wav" WAVE
TRACK 03 AUDIO
TITLE "Karasu"
PERFORMER "Maron Hamada"
INDEX 01 00:00:00
FILE "04 - Kago no Naka no Hatsukanezumi.wav" WAVE
TRACK 04 AUDIO
TITLE "Kago no Naka no Hatsukanezumi"
PERFORMER "Maron Hamada"
INDEX 01 00:00:00
TRACK 05 AUDIO
TITLE "Ame to Sekken no Nioi"
PERFORMER "Maron Hamada"
INDEX 00 05:00:45
FILE "05 - Ame to Sekken no Nioi.wav" WAVE
INDEX 01 00:00:00
FILE "06 - Himegoto Churucchuru.wav" WAVE
TRACK 06 AUDIO
TITLE "Himegoto Churucchuru"
PERFORMER "Maron Hamada"
INDEX 01 00:00:00
FILE "07 - Gozen Rei Ji no Chika Gekijou.wav" WAVE
TRACK 07 AUDIO
TITLE "Gozen Rei Ji no Chika Gekijou"
PERFORMER "Maron Hamada"
INDEX 01 00:00:00
FILE "08 - Kocchi He Oide.wav" WAVE
TRACK 08 AUDIO
TITLE "Kocchi He Oide"
PERFORMER "Maron Hamada"
INDEX 01 00:00:00
FILE "09 - Kusatta Kajitsu Heisei Nijuuyo Nen Hen.wav" WAVE
TRACK 09 AUDIO
TITLE "Kusatta Kajitsu Heisei Nijuuyo Nen Hen"
PERFORMER "Maron Hamada"
INDEX 01 00:00:00
FILE "10 - Tameiki Strut Shuumaku.wav" WAVE
TRACK 10 AUDIO
TITLE "Tameiki Strut Shuumaku"
PERFORMER "Maron Hamada"
INDEX 01 00:00:00
Зарегистрирован:
  • 02-Ноя-14 23:53
  • Скачан: 163 раза

Скачать .torrent

21 KB

Тип: обычная
Статус: проверено
Размер: 252.1 MB  ·  magnetF575189BB8348223D125089CA0BC458E346FBDCA
  • Свернуть поддиректории
  • Развернуть
  • Переключить
  • Увел./умен. окно
загружается...
МОИ РАЗДАЧИ
Раздачи, перезалитые в рамках замены приватных раздач, сидирую только два месяца. НЕ УХОДИТЕ С РАЗДАЧ!!!
 
All rights reserved © 2017-2018
Loading...
Error