(AOR) Foreigner - Studio Discography - (Studio, Compilation Albums 1977-2010) - (10 albums, 17 issues, 17 CD) , FLAC (image+.cue), lossless

Статистика раздачи
Размер:  6.26 GB   |   Зарегистрирован:  3 года 4 месяца   |   .torrent скачан:  7,029 раз
Сиды:  10   Личи:  8
Автор
Сообщение

snakesharmer

Lossless Group

Стаж: 9 лет 5 месяцев

Сообщений: 663

flag

snakesharmer · 04-Янв-15 15:31 (3 года 10 месяцев назад, ред. 20-Июн-17 07:16)

 


Foreigner – Studio Discography (1977 - 2010)
Жанр: AOR
Страна-производитель диска: Japan, Germany, UK, EU
Год издания диска: 1980s - 2014
Издатель (лейбл): Atlantic, Warner, Arista, Ear Music
Номер по каталогу: См. каждый диск
Длительность: 13h24m25s
Страна:USA
Аудио кодек: FLAC (*.flac)
Тип рипа: image+.cue
Битрейт аудио: lossless
Источник (релизер): CD из коллекций участников Lossless Group
Наличие сканов в содержимом раздачи: даБлагодарности также уходят к alonzo и Olaf der Weisse , любезно предоставивших ряд материалов для настоящего релиза.
Рипы Olaf der Weisse:
Foreigner – Double Vision – 1978 (Atlantic 250 476, Germany), 1980s – 37.47:57
Foreigner – 4 – 1981 (Atlantic 250 796, Germany), 1980s – 42.33:05
Рипы alonzo:
Foreigner – Double Vision – 1978 (Atlantic 19999-2, Germany, Target CD), 1980s – 37.55:45
Foreigner – Head Games – 1979 (Atlantic 29999-2, Germany, Target CD), 1980s – 38.12:15
Foreigner – 4 – 1981 (Atlantic 7567-82795-2, Germany), 1980s – 42.41:25
Foreigner – The Very Best … And Beyond – 1992 (Atlantic 7567-89999-2, Germany), Compilation, 1992 – 01.13.09:87
Foreigner – Foreigner – 1977 (Warner 20P2-2018, Japan), 1988 - 39.28:77


Треклист:
01. Feels Like The First Time [0:03:53.27]
02. Cold As Ice [0:03:23.63]
03. Starrider [0:04:03.25]
04. Headknocker [0:03:05.17]
05. The Damage Is Done [0:04:17.53]
06. Long, Long Way From Home [0:02:56.60]
07. Woman Oh Woman [0:03:52.67]
08. At War With The World [0:04:26.23]
09. Fool For You Anyway [0:04:17.07]
10. I Need You [0:05:12.35]
Back, Matrix
EAC
Exact Audio Copy V1.0 beta 3 from 29. August 2011
EAC extraction logfile from 22. May 2015, 19:19
Foreigner / Foreigner
Used drive : PLEXTOR DVDR PX-L890SA Adapter: 3 ID: 1
Read mode : Secure
Utilize accurate stream : Yes
Defeat audio cache : Yes
Make use of C2 pointers : No
Read offset correction : 6
Overread into Lead-In and Lead-Out : No
Fill up missing offset samples with silence : Yes
Delete leading and trailing silent blocks : No
Null samples used in CRC calculations : Yes
Used interface : Native Win32 interface for Win NT & 2000
Used output format : User Defined Encoder
Selected bitrate : 768 kBit/s
Quality : High
Add ID3 tag : No
Command line compressor : C:\Program Files (x86)\Exact Audio Copy\Flac\flac.exe
Additional command line options : -V -8 -T "Date=%year%" -T "Genre=%genre%" %source%
TOC of the extracted CD
Track | Start | Length | Start sector | End sector
---------------------------------------------------------
1 | 0:00.00 | 3:53.27 | 0 | 17501
2 | 3:53.27 | 3:23.63 | 17502 | 32789
3 | 7:17.15 | 4:03.25 | 32790 | 51039
4 | 11:20.40 | 3:05.17 | 51040 | 64931
5 | 14:25.57 | 4:17.53 | 64932 | 84259
6 | 18:43.35 | 2:56.60 | 84260 | 97519
7 | 21:40.20 | 3:52.67 | 97520 | 114986
8 | 25:33.12 | 4:26.23 | 114987 | 134959
9 | 29:59.35 | 4:17.07 | 134960 | 154241
10 | 34:16.42 | 5:12.35 | 154242 | 177676
Range status and errors
Selected range
Filename H:\MUSIC\Foreigner\1977. Foreigner - Foreigner (Warner 20P2-2018, Japan)\Foreigner - Foreigner.wav
Peak level 89.1 %
Extraction speed 8.0 X
Range quality 100.0 %
Test CRC 9346C366
Copy CRC 9346C366
Copy OK
No errors occurred
AccurateRip summary
Track 1 accurately ripped (confidence 1) [98880731] (AR v2)
Track 2 accurately ripped (confidence 1) [9B91DEB9] (AR v2)
Track 3 accurately ripped (confidence 1) [DFE19D98] (AR v2)
Track 4 accurately ripped (confidence 1) [1E8B9D36] (AR v2)
Track 5 accurately ripped (confidence 1) [BF69E52B] (AR v2)
Track 6 accurately ripped (confidence 1) [FF72D184] (AR v2)
Track 7 accurately ripped (confidence 1) [8115C2FD] (AR v2)
Track 8 accurately ripped (confidence 1) [075F4BD1] (AR v2)
Track 9 accurately ripped (confidence 1) [75354007] (AR v2)
Track 10 accurately ripped (confidence 1) [B4106BC2] (AR v2)
All tracks accurately ripped
End of status report
==== Log checksum ADE61DDFA23FE01949BA2F4BA48DF6D19D8FE9204DB6F7637A18BF12516F5BCF ====
Foreigner – Foreigner – 1977 (Atlantic 8122795829-1, EU), Remastered, 2014 – 56.11:42


Треклист:
01. Feels Like The First Time [0:03:53.45]
02. Cold As Ice [0:03:23.65]
03. Starrider [0:04:03.32]
04. Headknocker [0:03:05.25]
05. The Damage Is Done [0:04:19.30]
06. Long, Long Way From Home [0:02:55.33]
07. Woman Oh Woman [0:03:53.00]
08. At War With The World [0:04:26.40]
09. Fool For You Anyway [0:04:17.22]
10. I Need You [0:05:18.18]
11. Feels Like The First Time (Demo) [0:03:40.20]
12. Woman Oh Woman (Demo) [0:04:14.40]
13. At War With The World (Demo) [0:05:00.30]
14. Take Me To Your Leader (Demo) [0:03:40.17]
Back, Matrix
EAC
Exact Audio Copy V1.0 beta 3 from 29. August 2011
EAC extraction logfile from 2. January 2015, 14:21
Foreigner / Foreigner
Used drive : PLEXTOR DVDR PX-L890SA Adapter: 2 ID: 1
Read mode : Secure
Utilize accurate stream : Yes
Defeat audio cache : Yes
Make use of C2 pointers : No
Read offset correction : 6
Overread into Lead-In and Lead-Out : No
Fill up missing offset samples with silence : Yes
Delete leading and trailing silent blocks : No
Null samples used in CRC calculations : Yes
Used interface : Native Win32 interface for Win NT & 2000
Used output format : User Defined Encoder
Selected bitrate : 768 kBit/s
Quality : High
Add ID3 tag : No
Command line compressor : G:\Program Files\Exact Audio Copy\FLAC\FLAC.EXE
Additional command line options : -V -8 -T "Date=%year%" -T "Genre=%genre%" %source%
TOC of the extracted CD
Track | Start | Length | Start sector | End sector
---------------------------------------------------------
1 | 0:00.00 | 3:53.45 | 0 | 17519
2 | 3:53.45 | 3:23.65 | 17520 | 32809
3 | 7:17.35 | 4:03.32 | 32810 | 51066
4 | 11:20.67 | 3:05.25 | 51067 | 64966
5 | 14:26.17 | 4:19.30 | 64967 | 84421
6 | 18:45.47 | 2:55.33 | 84422 | 97579
7 | 21:41.05 | 3:53.00 | 97580 | 115054
8 | 25:34.05 | 4:26.40 | 115055 | 135044
9 | 30:00.45 | 4:17.22 | 135045 | 154341
10 | 34:17.67 | 5:18.18 | 154342 | 178209
11 | 39:36.10 | 3:40.20 | 178210 | 194729
12 | 43:16.30 | 4:14.40 | 194730 | 213819
13 | 47:30.70 | 5:00.30 | 213820 | 236349
14 | 52:31.25 | 3:40.17 | 236350 | 252866
Range status and errors
Selected range
Filename H:\MUSIC\Foreigner\1977. Foreigner - Foreigner (Atlantic 8122795829-1, EU)\Foreigner - Foreigner.wav
Peak level 97.2 %
Extraction speed 5.9 X
Range quality 100.0 %
Test CRC CB41C64C
Copy CRC CB41C64C
Copy OK
No errors occurred
AccurateRip summary
Track 1 accurately ripped (confidence 5) [0A734A53] (AR v2)
Track 2 accurately ripped (confidence 5) [23FA73D7] (AR v2)
Track 3 accurately ripped (confidence 5) [845C6561] (AR v2)
Track 4 accurately ripped (confidence 5) [1912306B] (AR v2)
Track 5 accurately ripped (confidence 5) [272C15FA] (AR v2)
Track 6 accurately ripped (confidence 5) [5DA735C7] (AR v2)
Track 7 accurately ripped (confidence 5) [BB7C1A20] (AR v2)
Track 8 accurately ripped (confidence 5) [17A29E25] (AR v2)
Track 9 accurately ripped (confidence 5) [06A1FC0A] (AR v2)
Track 10 accurately ripped (confidence 5) [3BC1D137] (AR v2)
Track 11 accurately ripped (confidence 5) [6D878A82] (AR v2)
Track 12 accurately ripped (confidence 5) [3FF003EE] (AR v2)
Track 13 accurately ripped (confidence 5) [E5A4E38E] (AR v2)
Track 14 accurately ripped (confidence 5) [1F2E44C5] (AR v2)
All tracks accurately ripped
End of status report
==== Log checksum 560FCEDE6AE5CE7EB04A009B4F0E580A8185F8B84F2C9EF40A3395C470BCD601 ====
Foreigner – Double Vision – 1978 (Atlantic 19999-2, Germany, Target CD), 1980s – 37.55:45


Треклист:
01. Hot Blooded [0:04:26.25]
02. Blue Morning, Blue Day [0:03:12.00]
03. You're All I Am [0:03:24.38]
04. Back Where You Belong [0:03:14.17]
05. Love Has Taken Its Toll [0:03:28.53]
06. Double Vision [0:03:44.22]
07. Tramontane (Instrumental) [0:03:56.08]
08. I Have Waited So Long [0:04:06.57]
09. Lonely Children [0:03:37.15]
10. Spellbinder [0:04:45.03]
Back, Matrix
EAC
Exact Audio Copy V1.0 beta 3 from 29. August 2011
EAC extraction logfile from 15. April 2014, 23:47
Foreigner / Double Vision
Used drive : SONY BD RW BDX-S600U Adapter: 2 ID: 1
Read mode : Secure
Utilize accurate stream : Yes
Defeat audio cache : Yes
Make use of C2 pointers : No
Read offset correction : 48
Overread into Lead-In and Lead-Out : No
Fill up missing offset samples with silence : Yes
Delete leading and trailing silent blocks : No
Null samples used in CRC calculations : Yes
Used interface : Native Win32 interface for Win NT & 2000
Used output format : User Defined Encoder
Selected bitrate : 128 kBit/s
Quality : High
Add ID3 tag : No
Command line compressor : C:\Program Files (x86)\Exact Audio Copy\Flac\flac.exe
Additional command line options : -V -8 -T "Date=%year%" -T "Genre=%genre%" %source%
TOC of the extracted CD
Track | Start | Length | Start sector | End sector
---------------------------------------------------------
1 | 0:00.32 | 4:26.25 | 32 | 20006
2 | 4:26.57 | 3:12.00 | 20007 | 34406
3 | 7:38.57 | 3:24.38 | 34407 | 49744
4 | 11:03.20 | 3:14.17 | 49745 | 64311
5 | 14:17.37 | 3:28.53 | 64312 | 79964
6 | 17:46.15 | 3:44.22 | 79965 | 96786
7 | 21:30.37 | 3:56.08 | 96787 | 114494
8 | 25:26.45 | 4:06.57 | 114495 | 133001
9 | 29:33.27 | 3:37.15 | 133002 | 149291
10 | 33:10.42 | 4:45.03 | 149292 | 170669
Range status and errors
Selected range
Filename D:\Foreigner Discography\Studio\1978. Foreigner - Double Vision\1979. Foreigner - Double Vision (Atlantic Rec.(target) 19999-2,250 476,Germany)\Foreigner - Double Vision.wav
Peak level 91.4 %
Extraction speed 6.2 X
Range quality 100.0 %
Test CRC 46AE410D
Copy CRC 46AE410D
Copy OK
No errors occurred
AccurateRip summary
Track 1 accurately ripped (confidence 15) [30904F1D] (AR v2)
Track 2 accurately ripped (confidence 15) [805889A1] (AR v2)
Track 3 accurately ripped (confidence 15) [C95C8CA1] (AR v2)
Track 4 accurately ripped (confidence 15) [D8F028B4] (AR v2)
Track 5 accurately ripped (confidence 15) [E5214993] (AR v2)
Track 6 accurately ripped (confidence 15) [3E57FDA5] (AR v2)
Track 7 accurately ripped (confidence 15) [606BE261] (AR v2)
Track 8 accurately ripped (confidence 15) [FACA40E1] (AR v2)
Track 9 accurately ripped (confidence 15) [6C367588] (AR v2)
Track 10 accurately ripped (confidence 14) [0F876CF6] (AR v2)
All tracks accurately ripped
End of status report
---- CUETools DB Plugin V2.1.4
[CTDB TOCID: LGil..AOL4qQTmt6e26etX8zFNA-] found
Submit result: LGil..AOL4qQTmt6e26etX8zFNA- has been confirmed
Track | CTDB Status
1 | (1/1) Accurately ripped
2 | (1/1) Accurately ripped
3 | (1/1) Accurately ripped
4 | (1/1) Accurately ripped
5 | (1/1) Accurately ripped
6 | (1/1) Accurately ripped
7 | (1/1) Accurately ripped
8 | (1/1) Accurately ripped
9 | (1/1) Accurately ripped
10 | (1/1) Accurately ripped
==== Log checksum 37BD6C2669578F67CBB3F5FA2FFDB7ED74EE42E99CB2864152CEBE5545721804 ====
Foreigner – Double Vision – 1978 (Atlantic 250 476, Germany), 1980s – 37.47:57


Треклист:
01. Hot blooded [0:04:25.72]
02. Blue morning, blue day [0:03:09.58]
03. You're all I am [0:03:21.50]
04. Back where you belong [0:03:14.10]
05. Love has taken its toll [0:03:29.05]
06. Double vision [0:03:43.15]
07. Tramontane (Instrumental) [0:03:55.22]
08. I have waited so long [0:04:07.03]
09. Lonely children [0:03:35.65]
10. Spellbinder [0:04:45.57]
Back, Matrix
EAC
Exact Audio Copy V1.0 beta 1 from 15. November 2010
EAC extraction logfile from 19. December 2010, 18:02
Foreigner / Double Vision (19999-2)
Used drive : TEAC DV-W516GDM Adapter: 0 ID: 1
Read mode : Secure
Utilize accurate stream : Yes
Defeat audio cache : Yes
Make use of C2 pointers : No
Read offset correction : 6
Overread into Lead-In and Lead-Out : No
Fill up missing offset samples with silence : Yes
Delete leading and trailing silent blocks : No
Null samples used in CRC calculations : Yes
Used interface : Native Win32 interface for Win NT & 2000
Used output format : User Defined Encoder
Selected bitrate : 896 kBit/s
Quality : High
Add ID3 tag : No
Command line compressor : C:\Program Files\Exact Audio Copy 1.0\Flac\flac.exe
Additional command line options : -8 -V %s
TOC of the extracted CD
Track | Start | Length | Start sector | End sector
---------------------------------------------------------
1 | 0:00.00 | 4:25.72 | 0 | 19946
2 | 4:25.72 | 3:09.58 | 19947 | 34179
3 | 7:35.55 | 3:21.50 | 34180 | 49304
4 | 10:57.30 | 3:14.10 | 49305 | 63864
5 | 14:11.40 | 3:29.05 | 63865 | 79544
6 | 17:40.45 | 3:43.15 | 79545 | 96284
7 | 21:23.60 | 3:55.22 | 96285 | 113931
8 | 25:19.07 | 4:07.03 | 113932 | 132459
9 | 29:26.10 | 3:35.65 | 132460 | 148649
10 | 33:02.00 | 4:45.57 | 148650 | 170081
Range status and errors
Selected range
Filename C:\Olaf der Weisse\Foreigner . 1978 . Double Vision (19999-2)\Foreigner - Double Vision (19999-2).wav
Peak level 100.0 %
Extraction speed 0.2 X
Range quality 100.0 %
Test CRC 05B30FFB
Copy CRC 05B30FFB
Copy OK
No errors occurred
AccurateRip summary
Track 1 accurately ripped (confidence 3) [0B1A927F]
Track 2 accurately ripped (confidence 3) [B6FC9C0C]
Track 3 accurately ripped (confidence 3) [E44633BD]
Track 4 accurately ripped (confidence 2) [91C6F903]
Track 5 accurately ripped (confidence 3) [A965CB4C]
Track 6 accurately ripped (confidence 3) [71525C2E]
Track 7 accurately ripped (confidence 3) [DFF29528]
Track 8 accurately ripped (confidence 3) [6716575D]
Track 9 accurately ripped (confidence 2) [3A3DE258]
Track 10 accurately ripped (confidence 2) [788E601F]
All tracks accurately ripped
End of status report
Foreigner – Double Vision – 1978 (Atlantic 8122795829-2, EU), Remastered, 2014 – 52.00:92


Треклист:
01. Hot Blooded [0:04:28.52]
02. Blue Morning, Blue Day [0:03:12.73]
03. You're All I Am [0:03:24.60]
04. Back Where You Belong [0:03:15.55]
05. Love Has Taken Its Toll [0:03:31.52]
06. Double Vision [0:03:44.40]
07. Tramontane (Instrumental) [0:03:56.23]
08. I Have Waited So Long [0:04:07.00]
09. Lonely Children [0:03:37.12]
10. Spellbinder [0:04:55.45]
11. Hot Blooded (Live) [0:06:57.58]
12. Love Maker (Live) [0:06:48.72]
Back, Matrix
EAC
Exact Audio Copy V1.0 beta 3 from 29. August 2011
EAC extraction logfile from 2. January 2015, 15:11
Foreigner / The Complete Atlantic Studio Albums (CD 2 - Double Vision)
Used drive : PLEXTOR DVDR PX-L890SA Adapter: 2 ID: 1
Read mode : Secure
Utilize accurate stream : Yes
Defeat audio cache : Yes
Make use of C2 pointers : No
Read offset correction : 6
Overread into Lead-In and Lead-Out : No
Fill up missing offset samples with silence : Yes
Delete leading and trailing silent blocks : No
Null samples used in CRC calculations : Yes
Used interface : Native Win32 interface for Win NT & 2000
Used output format : User Defined Encoder
Selected bitrate : 768 kBit/s
Quality : High
Add ID3 tag : No
Command line compressor : G:\Program Files\Exact Audio Copy\FLAC\FLAC.EXE
Additional command line options : -V -8 -T "Date=%year%" -T "Genre=%genre%" %source%
TOC of the extracted CD
Track | Start | Length | Start sector | End sector
---------------------------------------------------------
1 | 0:00.00 | 4:28.52 | 0 | 20151
2 | 4:28.52 | 3:12.73 | 20152 | 34624
3 | 7:41.50 | 3:24.60 | 34625 | 49984
4 | 11:06.35 | 3:15.55 | 49985 | 64664
5 | 14:22.15 | 3:31.52 | 64665 | 80541
6 | 17:53.67 | 3:44.40 | 80542 | 97381
7 | 21:38.32 | 3:56.23 | 97382 | 115104
8 | 25:34.55 | 4:07.00 | 115105 | 133629
9 | 29:41.55 | 3:37.12 | 133630 | 149916
10 | 33:18.67 | 4:55.45 | 149917 | 172086
11 | 38:14.37 | 6:57.58 | 172087 | 203419
12 | 45:12.20 | 6:48.72 | 203420 | 234091
Range status and errors
Selected range
Filename H:\MUSIC\Foreigner\1978. Foreigner - Double Vision (Atlantic 8122795829-2, EU)\Foreigner - Double Vision.wav
Peak level 96.1 %
Extraction speed 5.6 X
Range quality 100.0 %
Test CRC 0A2ED50C
Copy CRC 0A2ED50C
Copy OK
No errors occurred
AccurateRip summary
Track 1 accurately ripped (confidence 5) [B5EF6605] (AR v2)
Track 2 accurately ripped (confidence 5) [8A199AC4] (AR v2)
Track 3 accurately ripped (confidence 5) [A1E3F888] (AR v2)
Track 4 accurately ripped (confidence 5) [29540446] (AR v2)
Track 5 accurately ripped (confidence 5) [2DAA64C4] (AR v2)
Track 6 accurately ripped (confidence 5) [5BE6446C] (AR v2)
Track 7 accurately ripped (confidence 5) [E44B6F39] (AR v2)
Track 8 accurately ripped (confidence 5) [D3D0A973] (AR v2)
Track 9 accurately ripped (confidence 5) [BA21D024] (AR v2)
Track 10 accurately ripped (confidence 5) [010A3CB3] (AR v2)
Track 11 accurately ripped (confidence 5) [A3855E9B] (AR v2)
Track 12 accurately ripped (confidence 4) [127B7482] (AR v2)
All tracks accurately ripped
End of status report
==== Log checksum 76299176CC16696F31D8C2A9CF9A70BE91584F37F20FAADB71B38982AFD1EF10 ====
Foreigner – Head Games – 1979 (Atlantic 29999-2, Germany, Target CD), 1980s – 38.12:15


Треклист:
01. Dirty White Boy [0:03:38.37]
02. Love On The Telephone [0:03:17.50]
03. Women [0:03:24.23]
04. I'll Get Even With You [0:03:41.22]
05. Seventeen [0:04:35.73]
06. Head Games [0:03:39.37]
07. The Modern Day [0:03:26.08]
08. Blinded By Science [0:04:55.20]
09. Do What You Like [0:03:58.60]
10. Rev On The Red Line [0:03:34.52]
Back, Matrix
EAC
Exact Audio Copy V1.0 beta 3 from 29. August 2011
EAC extraction logfile from 8. April 2014, 23:34
Foreigner / Head Games
Used drive : SONY BD RW BDX-S600U Adapter: 2 ID: 1
Read mode : Secure
Utilize accurate stream : Yes
Defeat audio cache : Yes
Make use of C2 pointers : No
Read offset correction : 48
Overread into Lead-In and Lead-Out : No
Fill up missing offset samples with silence : Yes
Delete leading and trailing silent blocks : No
Null samples used in CRC calculations : Yes
Used interface : Native Win32 interface for Win NT & 2000
Used output format : User Defined Encoder
Selected bitrate : 128 kBit/s
Quality : High
Add ID3 tag : No
Command line compressor : C:\Program Files (x86)\Exact Audio Copy\Flac\flac.exe
Additional command line options : -V -8 -T "Date=%year%" -T "Genre=%genre%" %source%
TOC of the extracted CD
Track | Start | Length | Start sector | End sector
---------------------------------------------------------
1 | 0:00.33 | 3:38.37 | 33 | 16419
2 | 3:38.70 | 3:17.50 | 16420 | 31244
3 | 6:56.45 | 3:24.23 | 31245 | 46567
4 | 10:20.68 | 3:41.22 | 46568 | 63164
5 | 14:02.15 | 4:35.73 | 63165 | 83862
6 | 18:38.13 | 3:39.37 | 83863 | 100324
7 | 22:17.50 | 3:26.08 | 100325 | 115782
8 | 25:43.58 | 4:55.20 | 115783 | 137927
9 | 30:39.03 | 3:58.60 | 137928 | 155837
10 | 34:37.63 | 3:34.52 | 155838 | 171939
Range status and errors
Selected range
Filename D:\Foreigner Discography\Studio\1979. Foreigner - Head Games\1979. Foreigner - Head Games (Atlantic Rec.(target) 29999-2,050 651,Germany)\Foreigner - Head Games.wav
Peak level 92.7 %
Extraction speed 6.2 X
Range quality 100.0 %
Test CRC 48113522
Copy CRC 48113522
Copy OK
No errors occurred
AccurateRip summary
Track 1 accurately ripped (confidence 18) [82036A9D] (AR v2)
Track 2 accurately ripped (confidence 18) [A42E1F9D] (AR v2)
Track 3 accurately ripped (confidence 18) [F8199EEB] (AR v2)
Track 4 accurately ripped (confidence 18) [2116A3A6] (AR v2)
Track 5 accurately ripped (confidence 18) [84F478F8] (AR v2)
Track 6 accurately ripped (confidence 18) [75BB4088] (AR v2)
Track 7 accurately ripped (confidence 18) [8D069A7E] (AR v2)
Track 8 accurately ripped (confidence 17) [82D7D0C6] (AR v2)
Track 9 accurately ripped (confidence 18) [75D7AE84] (AR v2)
Track 10 accurately ripped (confidence 18) [95B1AC61] (AR v2)
All tracks accurately ripped
End of status report
---- CUETools DB Plugin V2.1.4
[CTDB TOCID: XzVtTaL183mVVbZag5SHq2dAaNE-] found
Submit result: XzVtTaL183mVVbZag5SHq2dAaNE- has been confirmed
Track | CTDB Status
1 | (4/4) Accurately ripped
2 | (4/4) Accurately ripped
3 | (4/4) Accurately ripped
4 | (4/4) Accurately ripped
5 | (4/4) Accurately ripped
6 | (4/4) Accurately ripped
7 | (4/4) Accurately ripped
8 | (4/4) Accurately ripped
9 | (4/4) Accurately ripped
10 | (4/4) Accurately ripped
==== Log checksum AFA3F525E74D8178D92CA751774AFD4129BCD6821792F90C737D9FCE7F5C9DD4 ====
Foreigner – Head Games – 1979 (Atlantic 8122795829-3, EU), Remastered, 2014 – 40.49:55


Треклист:
01. Dirty White Boy [0:03:38.55]
02. Love On The Telephone [0:03:17.55]
03. Women [0:03:24.32]
04. I'll Get Even With You [0:03:39.48]
05. Seventeen [0:04:35.15]
06. Head Games [0:03:37.52]
07. The Modern Day [0:03:26.05]
08. Blinded By Science [0:04:55.55]
09. Do What You Like [0:03:58.60]
10. Rev On The Red Line [0:03:41.60]
11. Zalia [0:02:34.33]
Back, Matrix
EAC
Exact Audio Copy V1.0 beta 3 from 29. August 2011
EAC extraction logfile from 2. January 2015, 15:35
Foreigner / The Complete Atlantic Studio Albums (CD 3 - Head Games)
Used drive : PLEXTOR DVDR PX-L890SA Adapter: 2 ID: 1
Read mode : Secure
Utilize accurate stream : Yes
Defeat audio cache : Yes
Make use of C2 pointers : No
Read offset correction : 6
Overread into Lead-In and Lead-Out : No
Fill up missing offset samples with silence : Yes
Delete leading and trailing silent blocks : No
Null samples used in CRC calculations : Yes
Used interface : Native Win32 interface for Win NT & 2000
Used output format : User Defined Encoder
Selected bitrate : 768 kBit/s
Quality : High
Add ID3 tag : No
Command line compressor : G:\Program Files\Exact Audio Copy\FLAC\FLAC.EXE
Additional command line options : -V -8 -T "Date=%year%" -T "Genre=%genre%" %source%
TOC of the extracted CD
Track | Start | Length | Start sector | End sector
---------------------------------------------------------
1 | 0:00.00 | 3:38.55 | 0 | 16404
2 | 3:38.55 | 3:17.55 | 16405 | 31234
3 | 6:56.35 | 3:24.32 | 31235 | 46566
4 | 10:20.67 | 3:39.48 | 46567 | 63039
5 | 14:00.40 | 4:35.15 | 63040 | 83679
6 | 18:35.55 | 3:37.52 | 83680 | 100006
7 | 22:13.32 | 3:26.05 | 100007 | 115461
8 | 25:39.37 | 4:55.55 | 115462 | 137641
9 | 30:35.17 | 3:58.60 | 137642 | 155551
10 | 34:34.02 | 3:41.60 | 155552 | 172186
11 | 38:15.62 | 2:34.33 | 172187 | 183769
Range status and errors
Selected range
Filename H:\MUSIC\Foreigner\1979. Foreigner - Head Games (Atlantic 8122795829-3, EU)\Foreigner - Head Games.wav
Peak level 98.5 %
Extraction speed 5.3 X
Range quality 100.0 %
Test CRC 561F745B
Copy CRC 561F745B
Copy OK
No errors occurred
AccurateRip summary
Track 1 accurately ripped (confidence 5) [7F04A3E0] (AR v2)
Track 2 accurately ripped (confidence 5) [86A4FECA] (AR v2)
Track 3 accurately ripped (confidence 5) [DF1C8E65] (AR v2)
Track 4 accurately ripped (confidence 5) [8606A451] (AR v2)
Track 5 accurately ripped (confidence 5) [66932640] (AR v2)
Track 6 accurately ripped (confidence 5) [D2FA9567] (AR v2)
Track 7 accurately ripped (confidence 5) [1079FCF0] (AR v2)
Track 8 accurately ripped (confidence 5) [43B4683D] (AR v2)
Track 9 accurately ripped (confidence 5) [0A36A801] (AR v2)
Track 10 accurately ripped (confidence 5) [B542C05C] (AR v2)
Track 11 accurately ripped (confidence 5) [E825E979] (AR v2)
All tracks accurately ripped
End of status report
==== Log checksum A6DA3AF82EB767A8AF39F9D43A7A37C70E68CCF52DE380FE86766D5F5E95D784 ====
Foreigner – 4 – 1981 (Atlantic 250 796, Germany), 1980s – 42.33:05


Треклист:
01. Night Life [0:03:49.65]
02. Juke Box Hero [0:04:19.57]
03. Break It Up [0:04:13.10]
04. Waiting for a Girl Like You [0:04:52.40]
05. Luanne [0:03:26.03]
06. Urgent [0:04:31.10]
07. I'm Gonna Win [0:04:52.10]
08. Woman in Black [0:04:46.20]
09. Girl on the Moon [0:03:52.62]
10. Don't Let Go [0:03:48.53]
Back, Matrix
EAC
Exact Audio Copy V1.0 beta 1 from 15. November 2010
EAC extraction logfile from 19. December 2010, 18:56
Foreigner / 4 (16999-2)
Used drive : TEAC DV-W516GDM Adapter: 0 ID: 1
Read mode : Secure
Utilize accurate stream : Yes
Defeat audio cache : Yes
Make use of C2 pointers : No
Read offset correction : 6
Overread into Lead-In and Lead-Out : No
Fill up missing offset samples with silence : Yes
Delete leading and trailing silent blocks : No
Null samples used in CRC calculations : Yes
Used interface : Native Win32 interface for Win NT & 2000
Used output format : User Defined Encoder
Selected bitrate : 896 kBit/s
Quality : High
Add ID3 tag : No
Command line compressor : C:\Program Files\Exact Audio Copy 1.0\Flac\flac.exe
Additional command line options : -8 -V %s
TOC of the extracted CD
Track | Start | Length | Start sector | End sector
---------------------------------------------------------
1 | 0:01.00 | 3:49.65 | 75 | 17314
2 | 3:50.65 | 4:19.57 | 17315 | 36796
3 | 8:10.47 | 4:13.10 | 36797 | 55781
4 | 12:23.57 | 4:52.40 | 55782 | 77721
5 | 17:16.22 | 3:26.03 | 77722 | 93174
6 | 20:42.25 | 4:31.10 | 93175 | 113509
7 | 25:13.35 | 4:52.10 | 113510 | 135419
8 | 30:05.45 | 4:46.20 | 135420 | 156889
9 | 34:51.65 | 3:52.62 | 156890 | 174351
10 | 38:44.52 | 3:48.53 | 174352 | 191504
Range status and errors
Selected range
Filename C:\Olaf der Weisse\Foreigner . 1981 . 4 (16999-2)\Foreigner - 4 (16999-2).wav
Peak level 85.8 %
Extraction speed 0.1 X
Range quality 100.0 %
Test CRC BB978EE9
Copy CRC BB978EE9
Copy OK
No errors occurred
AccurateRip summary
Track 1 accurately ripped (confidence 144) [8EFFE7CB]
Track 2 accurately ripped (confidence 148) [F9FD0EC8]
Track 3 accurately ripped (confidence 147) [3196139E]
Track 4 accurately ripped (confidence 148) [D365E097]
Track 5 accurately ripped (confidence 149) [95623B87]
Track 6 accurately ripped (confidence 146) [DBEA70F6]
Track 7 accurately ripped (confidence 149) [360FDA66]
Track 8 accurately ripped (confidence 147) [9DE96D1C]
Track 9 accurately ripped (confidence 147) [67F3AE34]
Track 10 accurately ripped (confidence 143) [AE35E254]
All tracks accurately ripped
End of status report
Foreigner – 4 – 1981 (Atlantic 7567-82795-2, Germany), 1980s – 42.41:25


Треклист:
01. Night Life [0:03:51.07]
02. Juke Box Hero [0:04:20.18]
03. Break It Up [0:04:13.15]
04. Waiting For A Girl Like You [0:04:52.67]
05. Luanne [0:03:28.23]
06. Urgent [0:04:31.52]
07. I'm Gonna Win [0:04:53.28]
08. Woman In Black [0:04:46.25]
09. Girl On The Moon [0:03:53.10]
10. Don't Let Go [0:03:51.05]
Back, Matrix
EAC
Exact Audio Copy V1.0 beta 3 from 29. August 2011
EAC extraction logfile from 23. April 2014, 23:49
Foreigner / 4
Used drive : SONY BD RW BDX-S600U Adapter: 2 ID: 1
Read mode : Secure
Utilize accurate stream : Yes
Defeat audio cache : Yes
Make use of C2 pointers : No
Read offset correction : 48
Overread into Lead-In and Lead-Out : No
Fill up missing offset samples with silence : Yes
Delete leading and trailing silent blocks : No
Null samples used in CRC calculations : Yes
Used interface : Native Win32 interface for Win NT & 2000
Used output format : User Defined Encoder
Selected bitrate : 128 kBit/s
Quality : High
Add ID3 tag : No
Command line compressor : C:\Program Files (x86)\Exact Audio Copy\Flac\flac.exe
Additional command line options : -V -8 -T "Date=%year%" -T "Genre=%genre%" %source%
TOC of the extracted CD
Track | Start | Length | Start sector | End sector
---------------------------------------------------------
1 | 0:00.00 | 3:51.07 | 0 | 17331
2 | 3:51.07 | 4:20.18 | 17332 | 36849
3 | 8:11.25 | 4:13.15 | 36850 | 55839
4 | 12:24.40 | 4:52.67 | 55840 | 77806
5 | 17:17.32 | 3:28.23 | 77807 | 93429
6 | 20:45.55 | 4:31.52 | 93430 | 113806
7 | 25:17.32 | 4:53.28 | 113807 | 135809
8 | 30:10.60 | 4:46.25 | 135810 | 157284
9 | 34:57.10 | 3:53.10 | 157285 | 174769
10 | 38:50.20 | 3:51.05 | 174770 | 192099
Range status and errors
Selected range
Filename D:\Foreigner Discography\Studio\1981. Foreigner - 4\1981. Foreigner - 4 (Atlantic 7567-82795-2,Germany)\Foreigner - 4.wav
Peak level 99.8 %
Extraction speed 6.3 X
Range quality 100.0 %
Test CRC C6718C46
Copy CRC C6718C46
Copy OK
No errors occurred
AccurateRip summary
Track 1 accurately ripped (confidence 5) [7186D337] (AR v2)
Track 2 accurately ripped (confidence 5) [D7F18DDA] (AR v2)
Track 3 accurately ripped (confidence 5) [E5AABCCB] (AR v2)
Track 4 accurately ripped (confidence 5) [50A53162] (AR v2)
Track 5 accurately ripped (confidence 5) [96789619] (AR v2)
Track 6 accurately ripped (confidence 5) [4A01AE63] (AR v2)
Track 7 accurately ripped (confidence 5) [4E565E57] (AR v2)
Track 8 accurately ripped (confidence 5) [ACC2E5B1] (AR v2)
Track 9 accurately ripped (confidence 5) [DE3A0F5E] (AR v2)
Track 10 accurately ripped (confidence 5) [E44E4687] (AR v2)
All tracks accurately ripped
End of status report
---- CUETools DB Plugin V2.1.4
[CTDB TOCID: ySnpJNu.pqDrAI8JnuHKtDsgre8-] found
Submit result: ySnpJNu.pqDrAI8JnuHKtDsgre8- has been confirmed
Track | CTDB Status
1 | (84/84) Accurately ripped
2 | (83/84) Accurately ripped
3 | (84/84) Accurately ripped
4 | (83/84) Accurately ripped
5 | (84/84) Accurately ripped
6 | (84/84) Accurately ripped
7 | (84/84) Accurately ripped
8 | (84/84) Accurately ripped
9 | (83/84) Accurately ripped
10 | (84/84) Accurately ripped
==== Log checksum 325F4602D9E1016BE005A1C4FB594424133422A397F071013DC87797C510EFBD ====
Foreigner – 4 – 1981 (Atlantic 8122795829-4, EU), Remastered, 2014 – 48.41:70


Треклист:
01. Night Life (2002 Remaster) [0:03:50.07]
02. Juke Box Hero (2002 Remaster) [0:04:19.60]
03. Break It Up (2002 Remaster) [0:04:13.48]
04. Waiting For A Girl Like You (2002 Remaster) [0:04:52.05]
05. Luanne (2002 Remaster) [0:03:27.37]
06. Urgent (2002 Remaster) [0:04:31.15]
07. I'm Gonna Win (2002 Remaster) [0:04:52.73]
08. Woman In Black (2002 Remaster) [0:04:46.22]
09. Girl On The Moon (2002 Remaster) [0:03:52.60]
10. Don't Let Go (2002 Remaster) [0:03:57.73]
11. Juke Box Hero (Nearly Unplugged Version) [0:03:06.57]
12. Waiting For A Girl Like You (Nearly Unplugged Version) [0:02:50.63]
Back, Matrix
EAC
Exact Audio Copy V1.0 beta 3 from 29. August 2011
EAC extraction logfile from 2. January 2015, 16:11
FOREIGNER / 4 (REMASTERED)
Used drive : PLEXTOR DVDR PX-L890SA Adapter: 2 ID: 1
Read mode : Secure
Utilize accurate stream : Yes
Defeat audio cache : Yes
Make use of C2 pointers : No
Read offset correction : 6
Overread into Lead-In and Lead-Out : No
Fill up missing offset samples with silence : Yes
Delete leading and trailing silent blocks : No
Null samples used in CRC calculations : Yes
Used interface : Native Win32 interface for Win NT & 2000
Used output format : User Defined Encoder
Selected bitrate : 768 kBit/s
Quality : High
Add ID3 tag : No
Command line compressor : G:\Program Files\Exact Audio Copy\FLAC\FLAC.EXE
Additional command line options : -V -8 -T "Date=%year%" -T "Genre=%genre%" %source%
TOC of the extracted CD
Track | Start | Length | Start sector | End sector
---------------------------------------------------------
1 | 0:00.00 | 3:50.07 | 0 | 17256
2 | 3:50.07 | 4:19.60 | 17257 | 36741
3 | 8:09.67 | 4:13.48 | 36742 | 55764
4 | 12:23.40 | 4:52.05 | 55765 | 77669
5 | 17:15.45 | 3:27.37 | 77670 | 93231
6 | 20:43.07 | 4:31.15 | 93232 | 113571
7 | 25:14.22 | 4:52.73 | 113572 | 135544
8 | 30:07.20 | 4:46.22 | 135545 | 157016
9 | 34:53.42 | 3:52.60 | 157017 | 174476
10 | 38:46.27 | 3:57.73 | 174477 | 192324
11 | 42:44.25 | 3:06.57 | 192325 | 206331
12 | 45:51.07 | 2:50.63 | 206332 | 219144
Range status and errors
Selected range
Filename H:\MUSIC\Foreigner\1981. Foreigner - 4 (Atlantic 8122795829-4, EU)\Foreigner - 4.wav
Peak level 97.2 %
Extraction speed 5.5 X
Range quality 99.9 %
Test CRC 1A74B976
Copy CRC 1A74B976
Copy OK
No errors occurred
AccurateRip summary
Track 1 accurately ripped (confidence 5) [20405131] (AR v2)
Track 2 accurately ripped (confidence 5) [A281EF23] (AR v2)
Track 3 accurately ripped (confidence 5) [C948119B] (AR v2)
Track 4 accurately ripped (confidence 5) [1A966B8A] (AR v2)
Track 5 accurately ripped (confidence 5) [971EAFA2] (AR v2)
Track 6 accurately ripped (confidence 5) [2CBE365B] (AR v2)
Track 7 accurately ripped (confidence 5) [53754598] (AR v2)
Track 8 accurately ripped (confidence 5) [161EA842] (AR v2)
Track 9 accurately ripped (confidence 5) [6BFA62D2] (AR v2)
Track 10 accurately ripped (confidence 5) [4ECFD70B] (AR v2)
Track 11 accurately ripped (confidence 5) [FEAD853D] (AR v2)
Track 12 accurately ripped (confidence 5) [A52D38E0] (AR v2)
All tracks accurately ripped
End of status report
==== Log checksum 335552BFDE3763CEA588E08FAD4ADA3A33CDF14C6C045117AB37A2CB33FF656B ====
Foreigner – Agent Provocateur – 1984 (Atlantic 8122795829-5, EU), Remastered, 2014 – 42.36:87


Треклист:
01. Tooth And Nail [0:03:55.52]
02. That Was Yesterday [0:03:49.08]
03. I Want To Know What Love Is [0:05:06.07]
04. Growing Up The Hard Way [0:04:13.65]
05. Reaction To Action [0:04:01.68]
06. Stranger In My Own House [0:05:04.72]
07. A Love In Vain [0:04:31.03]
08. Down On Love [0:04:12.02]
09. Two Different Worlds [0:04:31.63]
10. She's Too Tough [0:03:10.47]
Back, Matrix
EAC
Exact Audio Copy V1.0 beta 3 from 29. August 2011
EAC extraction logfile from 2. January 2015, 16:58
Foreigner / The Complete Atlantic Studio Albums (CD 5 - Agent Provocateur)
Used drive : PLEXTOR DVDR PX-L890SA Adapter: 2 ID: 1
Read mode : Secure
Utilize accurate stream : Yes
Defeat audio cache : Yes
Make use of C2 pointers : No
Read offset correction : 6
Overread into Lead-In and Lead-Out : No
Fill up missing offset samples with silence : Yes
Delete leading and trailing silent blocks : No
Null samples used in CRC calculations : Yes
Used interface : Native Win32 interface for Win NT & 2000
Used output format : User Defined Encoder
Selected bitrate : 768 kBit/s
Quality : High
Add ID3 tag : No
Command line compressor : G:\Program Files\Exact Audio Copy\FLAC\FLAC.EXE
Additional command line options : -V -8 -T "Date=%year%" -T "Genre=%genre%" %source%
TOC of the extracted CD
Track | Start | Length | Start sector | End sector
---------------------------------------------------------
1 | 0:00.00 | 3:55.52 | 0 | 17676
2 | 3:55.52 | 3:49.08 | 17677 | 34859
3 | 7:44.60 | 5:06.07 | 34860 | 57816
4 | 12:50.67 | 4:13.65 | 57817 | 76856
5 | 17:04.57 | 4:01.68 | 76857 | 94999
6 | 21:06.50 | 5:04.72 | 95000 | 117871
7 | 26:11.47 | 4:31.03 | 117872 | 138199
8 | 30:42.50 | 4:12.02 | 138200 | 157101
9 | 34:54.52 | 4:31.63 | 157102 | 177489
10 | 39:26.40 | 3:10.47 | 177490 | 191786
Range status and errors
Selected range
Filename H:\MUSIC\Foreigner\1984. Foreigner - Agent Provocateur (Atlantic 8122795829-5, EU)\Foreigner - Agent Provocateur.wav
Peak level 100.0 %
Extraction speed 5.4 X
Range quality 100.0 %
Test CRC CA6CE959
Copy CRC CA6CE959
Copy OK
No errors occurred
AccurateRip summary
Track 1 accurately ripped (confidence 4) [D73C599A] (AR v2)
Track 2 accurately ripped (confidence 4) [ED0BB089] (AR v2)
Track 3 accurately ripped (confidence 4) [6350E63A] (AR v2)
Track 4 accurately ripped (confidence 4) [35D59BED] (AR v2)
Track 5 accurately ripped (confidence 4) [AC07D14B] (AR v2)
Track 6 accurately ripped (confidence 4) [0C6F3228] (AR v2)
Track 7 accurately ripped (confidence 4) [59043117] (AR v2)
Track 8 accurately ripped (confidence 4) [A00318CC] (AR v2)
Track 9 accurately ripped (confidence 4) [69364F6E] (AR v2)
Track 10 accurately ripped (confidence 3) [5C2557EA] (AR v2)
All tracks accurately ripped
End of status report
==== Log checksum 46AB7F425B8A7E98F919D4363F4EA4FC903E9C285F3CA160EAB40CB37E3498AF ====
Foreigner – Inside Information – 1987 (Warner-Pioneer 32XD-916, Japan), 1988 – 44.43:90


Треклист:
01. Heart Turns To Stone [0:04:34.12]
02. Can't Wait [0:04:31.25]
03. Say You Will [0:04:14.70]
04. I Don't Want To Live Without You [0:04:56.08]
05. Counting Every Minute [0:04:12.00]
06. Inside Information [0:04:12.37]
07. The Beat Of My Heart [0:05:12.48]
08. Face To Face [0:03:56.20]
09. Out Of The Blue [0:04:44.30]
10. A Night To Remember [0:04:09.65]
Back, Matrix
EAC
Exact Audio Copy V1.0 beta 3 from 29. August 2011
EAC extraction logfile from 10. May 2015, 12:24
Foreigner / Inside Information
Used drive : PLEXTOR DVDR PX-L890SA Adapter: 3 ID: 1
Read mode : Secure
Utilize accurate stream : Yes
Defeat audio cache : Yes
Make use of C2 pointers : No
Read offset correction : 6
Overread into Lead-In and Lead-Out : No
Fill up missing offset samples with silence : Yes
Delete leading and trailing silent blocks : No
Null samples used in CRC calculations : Yes
Used interface : Native Win32 interface for Win NT & 2000
Used output format : User Defined Encoder
Selected bitrate : 768 kBit/s
Quality : High
Add ID3 tag : No
Command line compressor : C:\Program Files (x86)\Exact Audio Copy\Flac\flac.exe
Additional command line options : -V -8 -T "Date=%year%" -T "Genre=%genre%" %source%
TOC of the extracted CD
Track | Start | Length | Start sector | End sector
---------------------------------------------------------
1 | 0:00.00 | 4:34.12 | 0 | 20561
2 | 4:34.12 | 4:31.25 | 20562 | 40911
3 | 9:05.37 | 4:14.70 | 40912 | 60031
4 | 13:20.32 | 4:56.08 | 60032 | 82239
5 | 18:16.40 | 4:12.00 | 82240 | 101139
6 | 22:28.40 | 4:12.37 | 101140 | 120076
7 | 26:41.02 | 5:12.48 | 120077 | 143524
8 | 31:53.50 | 3:56.20 | 143525 | 161244
9 | 35:49.70 | 4:44.30 | 161245 | 182574
10 | 40:34.25 | 4:09.65 | 182575 | 201314
Range status and errors
Selected range
Filename H:\MUSIC\Foreigner\1987. Foreigner - Inside Information (Warner-Pioneer 32XD-916, Japan)\Foreigner - Inside Information.wav
Peak level 100.0 %
Extraction speed 8.1 X
Range quality 99.9 %
Test CRC C0F8C235
Copy CRC C0F8C235
Copy OK
No errors occurred
AccurateRip summary
Track 1 accurately ripped (confidence 11) [77859F47] (AR v2)
Track 2 accurately ripped (confidence 11) [DBD0BBA0] (AR v2)
Track 3 accurately ripped (confidence 11) [7320AA75] (AR v2)
Track 4 accurately ripped (confidence 11) [2E691C08] (AR v2)
Track 5 accurately ripped (confidence 11) [2EF8B4B9] (AR v2)
Track 6 accurately ripped (confidence 11) [DC1ED1D2] (AR v2)
Track 7 accurately ripped (confidence 11) [DEDC73A8] (AR v2)
Track 8 accurately ripped (confidence 11) [4011F5BF] (AR v2)
Track 9 accurately ripped (confidence 11) [09536F66] (AR v2)
Track 10 accurately ripped (confidence 11) [4663ACF2] (AR v2)
All tracks accurately ripped
End of status report
==== Log checksum FDEA198C2E54DCB064DDF7082CB779093548AA377E0F19D6B43E44E7A4C7030C ====
Foreigner – Inside Information – 1987 (Atlantic 8122795829-6, EU), Remastered, 2014 – 44.42:92


Треклист:
01. Heart Turns To Stone [0:04:34.30]
02. Can't Wait [0:04:31.27]
03. Say You Will [0:04:14.68]
04. I Don't Want To Live Without You [0:04:56.07]
05. Counting Every Minute [0:04:12.03]
06. Inside Information [0:04:12.35]
07. The Beat Of My Heart [0:05:12.50]
08. Face To Face [0:03:56.20]
09. Out Of The Blue [0:04:44.27]
10. A Night To Remember [0:04:08.50]
Back, Matrix
EAC
Exact Audio Copy V1.0 beta 3 from 29. August 2011
EAC extraction logfile from 2. January 2015, 17:17
Foreigner / Inside Information
Used drive : PLEXTOR DVDR PX-L890SA Adapter: 2 ID: 1
Read mode : Secure
Utilize accurate stream : Yes
Defeat audio cache : Yes
Make use of C2 pointers : No
Read offset correction : 6
Overread into Lead-In and Lead-Out : No
Fill up missing offset samples with silence : Yes
Delete leading and trailing silent blocks : No
Null samples used in CRC calculations : Yes
Used interface : Native Win32 interface for Win NT & 2000
Used output format : User Defined Encoder
Selected bitrate : 768 kBit/s
Quality : High
Add ID3 tag : No
Command line compressor : G:\Program Files\Exact Audio Copy\FLAC\FLAC.EXE
Additional command line options : -V -8 -T "Date=%year%" -T "Genre=%genre%" %source%
TOC of the extracted CD
Track | Start | Length | Start sector | End sector
---------------------------------------------------------
1 | 0:00.00 | 4:34.30 | 0 | 20579
2 | 4:34.30 | 4:31.27 | 20580 | 40931
3 | 9:05.57 | 4:14.68 | 40932 | 60049
4 | 13:20.50 | 4:56.07 | 60050 | 82256
5 | 18:16.57 | 4:12.03 | 82257 | 101159
6 | 22:28.60 | 4:12.35 | 101160 | 120094
7 | 26:41.20 | 5:12.50 | 120095 | 143544
8 | 31:53.70 | 3:56.20 | 143545 | 161264
9 | 35:50.15 | 4:44.27 | 161265 | 182591
10 | 40:34.42 | 4:08.50 | 182592 | 201241
Range status and errors
Selected range
Filename H:\MUSIC\Foreigner\1987. Foreigner - Inside Information (Atlantic 8122795829-6, EU)\Foreigner - Inside Information.wav
Peak level 100.0 %
Extraction speed 5.3 X
Range quality 99.9 %
Test CRC 8EA3B277
Copy CRC 8EA3B277
Copy OK
No errors occurred
AccurateRip summary
Track 1 accurately ripped (confidence 5) [75818761] (AR v2)
Track 2 accurately ripped (confidence 5) [7E9E223A] (AR v2)
Track 3 accurately ripped (confidence 5) [045B0C09] (AR v2)
Track 4 accurately ripped (confidence 5) [3B8906C2] (AR v2)
Track 5 accurately ripped (confidence 5) [BD7A6B7F] (AR v2)
Track 6 accurately ripped (confidence 5) [49C407E0] (AR v2)
Track 7 accurately ripped (confidence 5) [4F8FE8D0] (AR v2)
Track 8 accurately ripped (confidence 5) [3F53EC2A] (AR v2)
Track 9 accurately ripped (confidence 5) [8F07E82C] (AR v2)
Track 10 accurately ripped (confidence 4) [F9769A1A] (AR v2)
All tracks accurately ripped
End of status report
==== Log checksum 0B1A7189B70AFEC5EBD034FEB7F09BF069E39667470A32A29A191CB7BBD5B525 ====
Foreigner – Unusual Heat – 1991 (Atlantic 8122795829-7, EU), Remastered, 2014 – 51.29:65


Треклист:
01. Only Heaven Knows [0:04:49.50]
02. Lowdown And Dirty [0:04:22.00]
03. I'll Fight For You [0:06:03.35]
04. Moment Of Truth [0:04:26.20]
05. Mountain Of Love [0:04:38.68]
06. Ready For The Rain [0:05:03.40]
07. When The Night Comes Down [0:04:45.00]
08. Safe In My Heart [0:04:33.37]
09. No Hiding Place [0:03:57.25]
10. Flesh Wound [0:04:17.38]
11. Unusual Heat [0:04:32.52]
Back, Matrix
EAC
Exact Audio Copy V1.0 beta 3 from 29. August 2011
EAC extraction logfile from 2. January 2015, 17:56
Foreigner / Unusual Heat
Used drive : PLEXTOR DVDR PX-L890SA Adapter: 2 ID: 1
Read mode : Secure
Utilize accurate stream : Yes
Defeat audio cache : Yes
Make use of C2 pointers : No
Read offset correction : 6
Overread into Lead-In and Lead-Out : No
Fill up missing offset samples with silence : Yes
Delete leading and trailing silent blocks : No
Null samples used in CRC calculations : Yes
Used interface : Native Win32 interface for Win NT & 2000
Used output format : User Defined Encoder
Selected bitrate : 768 kBit/s
Quality : High
Add ID3 tag : No
Command line compressor : G:\Program Files\Exact Audio Copy\FLAC\FLAC.EXE
Additional command line options : -V -8 -T "Date=%year%" -T "Genre=%genre%" %source%
TOC of the extracted CD
Track | Start | Length | Start sector | End sector
---------------------------------------------------------
1 | 0:00.00 | 4:49.50 | 0 | 21724
2 | 4:49.50 | 4:22.00 | 21725 | 41374
3 | 9:11.50 | 6:03.35 | 41375 | 68634
4 | 15:15.10 | 4:26.20 | 68635 | 88604
5 | 19:41.30 | 4:38.68 | 88605 | 109522
6 | 24:20.23 | 5:03.40 | 109523 | 132287
7 | 29:23.63 | 4:45.00 | 132288 | 153662
8 | 34:08.63 | 4:33.37 | 153663 | 174174
9 | 38:42.25 | 3:57.25 | 174175 | 191974
10 | 42:39.50 | 4:17.38 | 191975 | 211287
11 | 46:57.13 | 4:32.52 | 211288 | 231739
Range status and errors
Selected range
Filename H:\MUSIC\Foreigner\1991. Foreigner - Unusuall Heat (Atlantic 8122795829-7, EU)\Foreigner - Unusual Heat.wav
Peak level 100.0 %
Extraction speed 3.0 X
Range quality 100.0 %
Test CRC EAC58CE3
Copy CRC EAC58CE3
Copy OK
No errors occurred
AccurateRip summary
Track 1 accurately ripped (confidence 4) [D4C1F73B] (AR v2)
Track 2 accurately ripped (confidence 4) [7C90857A] (AR v2)
Track 3 accurately ripped (confidence 4) [0127E0BE] (AR v2)
Track 4 accurately ripped (confidence 4) [7C7857A1] (AR v2)
Track 5 accurately ripped (confidence 4) [A9380391] (AR v2)
Track 6 accurately ripped (confidence 4) [0E03B507] (AR v2)
Track 7 accurately ripped (confidence 4) [EF7B946A] (AR v2)
Track 8 accurately ripped (confidence 4) [84405236] (AR v2)
Track 9 accurately ripped (confidence 4) [45F7E9CF] (AR v2)
Track 10 accurately ripped (confidence 4) [5234EBBD] (AR v2)
Track 11 accurately ripped (confidence 3) [DFDF57DB] (AR v2)
All tracks accurately ripped
End of status report
==== Log checksum 2FA2526A27C61E0B5A1FE8D3B2951AED65B66B1F8B11F8308CCF2B53FD061B0F ====
Foreigner – The Very Best … And Beyond – 1992 (Atlantic 7567-89999-2, Germany), Compilation, 1992 – 01.13.09:87


Треклист:
01. Soul Doctor [0:04:52.07]
02. Prisoner Of Love [0:05:15.58]
03. With Heaven On Our Side [0:05:16.12]
04. Juke Box Hero [0:04:20.48]
05. Hot Blooded [0:04:24.30]
06. Cold As Ice [0:03:20.47]
07. Head Games [0:03:37.28]
08. Waiting For A Girl Like You [0:04:49.37]
09. Urgent [0:04:29.53]
10. Double Vision [0:03:44.50]
11. I Want To Know What Love Is [0:05:03.60]
12. Say You Will [0:04:12.20]
13. That Was Yesterday [0:03:46.22]
14. I Don't Want To Live Without You [0:04:52.65]
15. Rev On The Red Line [0:03:33.70]
16. Dirty White Boy [0:03:38.10]
17. Feels Like The First Time [0:03:51.70]
Back, Matrix
EAC
Exact Audio Copy V1.0 beta 3 from 29. August 2011
EAC extraction logfile from 29. March 2014, 1:51
Foreigner / 1992 - The Very Best ... And Beyond
Used drive : SONY BD RW BDX-S600U Adapter: 2 ID: 1
Read mode : Secure
Utilize accurate stream : Yes
Defeat audio cache : Yes
Make use of C2 pointers : No
Read offset correction : 48
Overread into Lead-In and Lead-Out : No
Fill up missing offset samples with silence : Yes
Delete leading and trailing silent blocks : No
Null samples used in CRC calculations : Yes
Used interface : Native Win32 interface for Win NT & 2000
Used output format : User Defined Encoder
Selected bitrate : 128 kBit/s
Quality : High
Add ID3 tag : No
Command line compressor : C:\Program Files (x86)\Exact Audio Copy\Flac\flac.exe
Additional command line options : -V -8 -T "Date=%year%" -T "Genre=%genre%" %source%
TOC of the extracted CD
Track | Start | Length | Start sector | End sector
---------------------------------------------------------
1 | 0:00.00 | 4:52.07 | 0 | 21906
2 | 4:52.07 | 5:15.58 | 21907 | 45589
3 | 10:07.65 | 5:16.12 | 45590 | 69301
4 | 15:24.02 | 4:20.48 | 69302 | 88849
5 | 19:44.50 | 4:24.30 | 88850 | 108679
6 | 24:09.05 | 3:20.47 | 108680 | 123726
7 | 27:29.52 | 3:37.28 | 123727 | 140029
8 | 31:07.05 | 4:49.37 | 140030 | 161741
9 | 35:56.42 | 4:29.53 | 161742 | 181969
10 | 40:26.20 | 3:44.50 | 181970 | 198819
11 | 44:10.70 | 5:03.60 | 198820 | 221604
12 | 49:14.55 | 4:12.20 | 221605 | 240524
13 | 53:27.00 | 3:46.22 | 240525 | 257496
14 | 57:13.22 | 4:52.65 | 257497 | 279461
15 | 62:06.12 | 3:33.70 | 279462 | 295506
16 | 65:40.07 | 3:38.10 | 295507 | 311866
17 | 69:18.17 | 3:51.70 | 311867 | 329261
Range status and errors
Selected range
Filename D:\Foreigner Discography\Compilations\1992. Foreigner - The Very Best ... And Beyond (Atlantic, 7567-89999-2,Germany)\Foreigner - 1992 - The Very Best ... And Beyond.wav
Peak level 99.7 %
Extraction speed 7.0 X
Range quality 100.0 %
Test CRC 2E7984F4
Copy CRC 2E7984F4
Copy OK
No errors occurred
AccurateRip summary
Track 1 accurately ripped (confidence 87) [BA8C1A00] (AR v2)
Track 2 accurately ripped (confidence 86) [136C6D66] (AR v2)
Track 3 accurately ripped (confidence 86) [00FD50B9] (AR v2)
Track 4 accurately ripped (confidence 87) [8E1447DF] (AR v2)
Track 5 accurately ripped (confidence 86) [2283752D] (AR v2)
Track 6 accurately ripped (confidence 88) [F571EAE8] (AR v2)
Track 7 accurately ripped (confidence 87) [8EDEBFAF] (AR v2)
Track 8 accurately ripped (confidence 90) [64903E0F] (AR v2)
Track 9 accurately ripped (confidence 88) [075D6599] (AR v2)
Track 10 accurately ripped (confidence 87) [3AE2E640] (AR v2)
Track 11 accurately ripped (confidence 88) [2E2797DB] (AR v2)
Track 12 accurately ripped (confidence 87) [71840BB7] (AR v2)
Track 13 accurately ripped (confidence 88) [31CF56BD] (AR v2)
Track 14 accurately ripped (confidence 89) [9F2D5894] (AR v2)
Track 15 accurately ripped (confidence 87) [875D6F97] (AR v2)
Track 16 accurately ripped (confidence 88) [B29FDCDA] (AR v2)
Track 17 accurately ripped (confidence 86) [B194E19F] (AR v2)
All tracks accurately ripped
End of status report
---- CUETools DB Plugin V2.1.4
[CTDB TOCID: e99rQzkEvkV7HWxOEgfKumXTcpY-] found
Submit result: e99rQzkEvkV7HWxOEgfKumXTcpY- has been confirmed
Track | CTDB Status
1 | (97/98) Accurately ripped
2 | (95/98) Accurately ripped
3 | (95/98) Accurately ripped
4 | (94/98) Accurately ripped
5 | (97/98) Accurately ripped
6 | (96/98) Accurately ripped
7 | (95/98) Accurately ripped, or (1/98) differs in 13 samples @03:15:18
8 | (93/98) Accurately ripped, or (1/98) differs in 14 samples @01:42:48,04:16:31
9 | (95/98) Accurately ripped
10 | (92/98) Accurately ripped
11 | (94/98) Accurately ripped
12 | (94/98) Accurately ripped
13 | (95/98) Accurately ripped
14 | (95/98) Accurately ripped
15 | (95/98) Accurately ripped
16 | (93/98) Accurately ripped
17 | (91/98) Accurately ripped
==== Log checksum 2820157878A39CEEF57CA75D22258ED7F65D5414B4F8390F777F0DEAD5E09D33 ====
Foreigner – Mr. Moonlight – 1994 (Arista 7432123852, UK), 1994 – 54.24:20


Треклист:
01. White Lie [0:04:17.23]
02. Rain [0:04:35.25]
03. Until The End Of Time [0:04:52.45]
04. All I Need To Know [0:04:45.30]
05. Running The Risk [0:05:09.42]
06. Real World [0:06:20.48]
07. Big Dog [0:04:47.40]
08. Hole In My Soul [0:05:09.50]
09. I Keep Hoping [0:05:10.22]
10. Under The Gun [0:04:18.35]
11. Hand On My Heart [0:04:57.60]
Back, Matrix
EAC
Exact Audio Copy V1.0 beta 3 from 29. August 2011
EAC extraction logfile from 16. August 2014, 17:43
Foreigner / Mr. Moonlight
Used drive : PLEXTOR DVDR PX-L890SA Adapter: 1 ID: 0
Read mode : Secure
Utilize accurate stream : Yes
Defeat audio cache : Yes
Make use of C2 pointers : No
Read offset correction : 6
Overread into Lead-In and Lead-Out : No
Fill up missing offset samples with silence : Yes
Delete leading and trailing silent blocks : No
Null samples used in CRC calculations : Yes
Used interface : Native Win32 interface for Win NT & 2000
Used output format : User Defined Encoder
Selected bitrate : 768 kBit/s
Quality : High
Add ID3 tag : No
Command line compressor : G:\Program Files\Exact Audio Copy\FLAC\FLAC.EXE
Additional command line options : -V -8 -T "Date=%year%" -T "Genre=%genre%" %source%
TOC of the extracted CD
Track | Start | Length | Start sector | End sector
---------------------------------------------------------
1 | 0:00.00 | 4:17.23 | 0 | 19297
2 | 4:17.23 | 4:35.25 | 19298 | 39947
3 | 8:52.48 | 4:52.45 | 39948 | 61892
4 | 13:45.18 | 4:45.30 | 61893 | 83297
5 | 18:30.48 | 5:09.42 | 83298 | 106514
6 | 23:40.15 | 6:20.48 | 106515 | 135062
7 | 30:00.63 | 4:47.40 | 135063 | 156627
8 | 34:48.28 | 5:09.50 | 156628 | 179852
9 | 39:58.03 | 5:10.22 | 179853 | 203124
10 | 45:08.25 | 4:18.35 | 203125 | 222509
11 | 49:26.60 | 4:57.60 | 222510 | 244844
Range status and errors
Selected range
Filename H:\MUSIC\Foreigner\1994. Foreigner - Mr. Moonlight (Arista 74321232852 , UK)\Foreigner - Mr. Moonlight.wav
Peak level 99.8 %
Extraction speed 5.7 X
Range quality 99.9 %
Test CRC 873AF3CB
Copy CRC 873AF3CB
Copy OK
No errors occurred
AccurateRip summary
Track 1 accurately ripped (confidence 54) [DE50C93C] (AR v2)
Track 2 accurately ripped (confidence 54) [522958D9] (AR v2)
Track 3 accurately ripped (confidence 54) [42251292] (AR v2)
Track 4 accurately ripped (confidence 54) [4CD6E5D0] (AR v2)
Track 5 accurately ripped (confidence 53) [4B410651] (AR v2)
Track 6 accurately ripped (confidence 54) [D7E07813] (AR v2)
Track 7 accurately ripped (confidence 53) [1C0A9BFD] (AR v2)
Track 8 accurately ripped (confidence 54) [5BBBB758] (AR v2)
Track 9 accurately ripped (confidence 54) [F348D703] (AR v2)
Track 10 accurately ripped (confidence 54) [1820FFCE] (AR v2)
Track 11 accurately ripped (confidence 55) [38E61942] (AR v2)
All tracks accurately ripped
End of status report
==== Log checksum 1EDACA3F239E8C9D127FAC58B715BB9319A4ACC871A73ED5855C879C637C6E27 ====
Foreigner – Can’t Slow Down – 2010 (Ear Music 0202672ERE, Germany), 2010 – 56.57:82


Треклист:
01. Can't Slow Down [0:03:28.04]
02. In Pieces [0:03:53.40]
03. When It Comes to Love [0:03:53.19]
04. Living in a Dream [0:03:42.42]
05. I Can't Give Up [0:04:31.55]
06. Ready [0:03:43.17]
07. Give Me a Sign [0:03:52.27]
08. I'll Be Home Tonight [0:04:14.04]
09. Too Late [0:03:45.13]
10. Lonely [0:03:28.41]
11. As Long as I Live [0:03:47.55]
12. Angel Tonight [0:03:31.73]
13. Fool for You Anyway [0:04:05.28]
14. I Want to Know What Love Is [Live] [0:07:00.39]
Back, Matrix
EAC
Exact Audio Copy V1.0 beta 3 from 29. August 2011
EAC extraction logfile from 23. August 2014, 19:21
Foreigner / Can't Slow Down
Used drive : PLEXTOR DVDR PX-L890SA Adapter: 1 ID: 0
Read mode : Secure
Utilize accurate stream : Yes
Defeat audio cache : Yes
Make use of C2 pointers : No
Read offset correction : 6
Overread into Lead-In and Lead-Out : No
Fill up missing offset samples with silence : Yes
Delete leading and trailing silent blocks : No
Null samples used in CRC calculations : Yes
Used interface : Native Win32 interface for Win NT & 2000
Used output format : User Defined Encoder
Selected bitrate : 768 kBit/s
Quality : High
Add ID3 tag : No
Command line compressor : G:\Program Files\Exact Audio Copy\FLAC\FLAC.EXE
Additional command line options : -V -8 -T "Date=%year%" -T "Genre=%genre%" %source%
TOC of the extracted CD
Track | Start | Length | Start sector | End sector
---------------------------------------------------------
1 | 0:00.00 | 3:28.04 | 0 | 15603
2 | 3:28.04 | 3:53.40 | 15604 | 33118
3 | 7:21.44 | 3:53.19 | 33119 | 50612
4 | 11:14.63 | 3:42.42 | 50613 | 67304
5 | 14:57.30 | 4:31.55 | 67305 | 87684
6 | 19:29.10 | 3:43.17 | 87685 | 104426
7 | 23:12.27 | 3:52.27 | 104427 | 121853
8 | 27:04.54 | 4:14.04 | 121854 | 140907
9 | 31:18.58 | 3:45.13 | 140908 | 157795
10 | 35:03.71 | 3:28.41 | 157796 | 173436
11 | 38:32.37 | 3:47.55 | 173437 | 190516
12 | 42:20.17 | 3:31.73 | 190517 | 206414
13 | 45:52.15 | 4:05.28 | 206415 | 224817
14 | 49:57.43 | 7:00.39 | 224818 | 256356
Range status and errors
Selected range
Filename H:\MUSIC\Foreigner\2010. Foreigner - Can't Slow Down (Ear Music 0202672ERE, Germany)\Foreigner - Can't Slow Down.wav
Peak level 100.0 %
Extraction speed 5.9 X
Range quality 100.0 %
Test CRC 470322E3
Copy CRC 470322E3
Copy OK
No errors occurred
AccurateRip summary
Track 1 accurately ripped (confidence 20) [B4BBA6C9] (AR v2)
Track 2 accurately ripped (confidence 20) [7F1B0A76] (AR v2)
Track 3 accurately ripped (confidence 20) [EB8ECBA4] (AR v2)
Track 4 accurately ripped (confidence 20) [850A19AC] (AR v2)
Track 5 accurately ripped (confidence 20) [4ECBD0BC] (AR v2)
Track 6 accurately ripped (confidence 20) [439BA360] (AR v2)
Track 7 accurately ripped (confidence 20) [1FCD19CD] (AR v2)
Track 8 accurately ripped (confidence 20) [15AAFA35] (AR v2)
Track 9 accurately ripped (confidence 20) [71A0AD25] (AR v2)
Track 10 accurately ripped (confidence 20) [052F404C] (AR v2)
Track 11 accurately ripped (confidence 20) [1D42A93E] (AR v2)
Track 12 accurately ripped (confidence 20) [4605E342] (AR v2)
Track 13 accurately ripped (confidence 20) [9902E79C] (AR v2)
Track 14 accurately ripped (confidence 20) [4AADC8DC] (AR v2)
All tracks accurately ripped
End of status report
==== Log checksum A3E1DF18C9E5B9B43C2EFAF041B6FDC60049A1F75670A092207E4B8520DBC635 ====
Зарегистрирован:
  • 20-Июн-15 16:31
  • Скачан: 7,029 раз

Скачать .torrent

61 KB

Тип: обычная
Статус: проверено
Размер: 6.26 GB  ·  magnet1033863A3C6393FBBA9AC8BC35737615AB7B0197
  • Свернуть поддиректории
  • Развернуть
  • Переключить
  • Увел./умен. окно
загружается...

snakesharmer

Lossless Group

Стаж: 9 лет 5 месяцев

Сообщений: 663

flag

snakesharmer · 01-Июн-15 18:28 (спустя 4 месяца 28 дней, ред. 20-Июн-15 16:37)

Резерв

snakesharmer

Lossless Group

Стаж: 9 лет 5 месяцев

Сообщений: 663

flag

snakesharmer · 20-Июн-15 15:51 (спустя 18 дней, ред. 20-Июн-15 15:51)

Резерв

alonzo

Moderator gray

Стаж: 10 лет 4 месяца

Сообщений: 3674

flag

alonzo · 20-Июн-15 16:58 (спустя 1 час 7 мин., ред. 26-Июн-15 00:23)

Резерв

MCHAMMER41

Стаж: 9 лет 4 месяца

Сообщений: 50

flag

MCHAMMER41 · 27-Сен-15 01:35 (спустя 3 месяца 6 дней)

Такой релиз замутили, красавцы!

verdes victor

Стаж: 10 лет 6 месяцев

Сообщений: 99

flag

verdes victor · 30-Сен-15 19:49 (спустя 3 дня)

Огромное спасибо за раздачу! Супер коллектив)

Renecade

Стаж: 3 года 4 месяца

Сообщений: 480

flag

Renecade · 01-Янв-16 10:30 (спустя 3 месяца 1 день)

Я и не знал о том, что в компиляцию The Very Best … And Beyond были включены три новые композиции...

ankorrr

Стаж: 9 лет 4 месяца

Сообщений: 48

flag

ankorrr · 27-Янв-16 22:10 (спустя 26 дней, ред. 02-Фев-16 21:45)

Спасибо раздающему.
А у нового ремастера есть прогресс (от прошлых ремастеров).
Или для красоты раздачи?
зы.
Сам слушаю первые издания, но очень интересно мнение по поводу так сказать сложившегося правила - "ремастеррегресса" , вместо - прогресса.

lobashova

Стаж: 9 лет 11 месяцев

Сообщений: 6520

flag

lobashova · 09-Фев-16 02:22 (спустя 12 дней)

Спасибо. Скажите, в какой папке лежит рип Foreigner – Double Vision – 1978 (Atlantic 250 476, Germany). Там у вас 19999-2

snakesharmer

Lossless Group

Стаж: 9 лет 5 месяцев

Сообщений: 663

flag

snakesharmer · 09-Фев-16 05:41 (спустя 3 часа)

lobashova
Это и есть 250 476 (когда скачаете - посмотрите сканы) . Что касается названия файлов - то скорее всего оно перекочевало из базы данных EAC.

purpleslon

Стаж: 11 лет 4 месяца

Сообщений: 211

flag

purpleslon · 19-Май-16 09:25 (спустя 3 месяца 10 дней)

Большoe cпасибо !!

Patriotas

Стаж: 12 лет 1 месяц

Сообщений: 60

flag

Patriotas · 12-Июл-16 17:12 (спустя 1 месяц 24 дня)

foreigner - i want to know what love хотелось бы в 320 ... может кто скинуть спс

igoralekseevic

Стаж: 2 года 9 месяцев

Сообщений: 1

flag

igoralekseevic · 06-Мар-17 22:12 (спустя 7 месяцев)

Благодарю за дискографию.

palPred

Стаж: 6 лет 11 месяцев

Сообщений: 20

flag

palPred · 20-Июн-17 00:35 (спустя 3 месяца 13 дней)

Спасибо! в заглавном посте в строке "Foreigner – Studio Discogaphy (1977 - 2010)" в слове Discogaphy пропущена буковка r.

snakesharmer

Lossless Group

Стаж: 9 лет 5 месяцев

Сообщений: 663

flag

snakesharmer · 20-Июн-17 07:16 (спустя 6 часов)

palPred
Спасибо !

savochkinvlad

Стаж: 7 лет 7 месяцев

Сообщений: 98

flag

savochkinvlad · 15-Авг-17 15:40 (спустя 1 месяц 25 дней)

Мощная подборка - но не хватает последнего: Acoustique 2011
https://www.discogs.com/Foreigner-Acoustique/release/4188649

snakesharmer

Lossless Group

Стаж: 9 лет 5 месяцев

Сообщений: 663

flag

snakesharmer · 16-Авг-17 05:38 (спустя 13 часов)

savochkinvlad
Планируется в обновлении.
Наверное в этом году ....
 
All rights reserved © 2017-2018
Loading...
Error