Сто к одному [Весь 2015, ТВ-Шоу, TVRip]

Статистика раздачи
Размер:  23.07 GB   |   Зарегистрирован:  2 года 10 месяцев   |   .torrent скачан:  562 раза
Сиды:  2
Автор
Сообщение

glot-trogg

Стаж: 10 лет 2 месяца

Сообщений: 66

flag

glot-trogg · 24-Май-15 08:44 (3 года 5 месяцев назад, ред. 27-Дек-15 08:40)

 

Сто к одному
Дата/Год выпуска: Весь 2015, 27.12.2015
Страна: Россия
Жанр: ТВ-Шоу
Продолжительность: ~ 00:39:00
Перевод: Не требуется
Русские субтитры: нет
Телеканал: РОССИЯ 1
Описание: Цель участников игры ‘Сто к одному’ состоит в том, чтобы угадать наиболее распространённые ответы людей с улицы на предложенные вопросы, на которые невозможно дать однозначный объективный ответ, например, ‘Какую еду больше всего любят французы?’. Ответы бывают порой совершенно непредсказуемы и очень забавны. К примеру, на вопрос ‘Кто поддерживает порядок в стране?’ десять из ста случайных прохожих могли дать ответ ‘дворники’.
Другие примеры вопросов: ‘Что делает женщина, когда у неё сломался каблук?’, ‘Каких насекомых чаще всего убивают?’.
‘Сто к одному’ — командная игра. Каждый игрок должен высказать своё мнение, предложить свою версию, но победа (или поражение) достаётся всей команде в целом. Чаще всего команды для телеигры составляются по профессиональному признаку, и нередко в игре принимают участие популярные певцы, актёры, спортсмены.
Доп. информация: В раздаче выпуски с начала 2015 года.Новые выпуски добавляются после выхода в эфир!
Добавлен выпуск от 27.12.2015
качество: TVRip
формат: MKV
Видео: MPEG4 Video (H264)
Аудио: MPEG Audio
Внимание! Раздача ведётся путём добавления новых выпусков
Внимание! Раздача ведётся путём добавления новых выпусков; при каждом добавлении создаётся новый торрент. Чтобы начать докачку нового выпуска, пользователям необходимо сделать следующее:
(1) остановить скачивание,
(2) удалить старый торрент у себя из клиента (старые серии удалять не надо),
(3) скачать новый торрент и запустить его у себя в клиенте вместо старого, при этом указать клиенту путь в старую папку куда и должно происходить скачивание новых выпусков.
Ваш клиент при этом должен произвести хеширование (проверку) старой папки (если не производит сам - помогите ему сделать это). В результате он будет докачивать только те выпуски, которых у Вас ещё нет. Старые выпуски при этом не удаляются, а продолжают раздаваться!
Eсли Вы уже удалили старые выпуски, то предотвратить их повторную закачку можно, сняв галочки в соответствующих местах при запуске нового торрента. По возможности, желательно не удалять старые выпуски как можно дольше, чтобы релизёр не только продолжал раздавать старые выпуски, но и смог сконцентрироваться на новых.
Список выпусков/серий
Выпуск от 11.01.2015
Команда "Детское радио" против команды "Звезды детского радио".
Имя файла:100-1_11012015.mkv
Продолжительность: 00:39:21
Видео: MPEG4 Video (H264), 704x416, (136:77), 2 410 Kbps, 25fps
Аудио: MPEG Audio, 48000Hz, stereo 128kbps
MediaInfo
General
Unique ID : 8543010374294479536426339763315970232 (0x66D52EE5AD7C71EDFEE66E1DED290B8)
Format : Matroska
Format version : Version 2
File size : 729 MiB
Duration : 39mn 21s
Overall bit rate mode : Variable
Overall bit rate : 2 589 Kbps
Writing application : Lavf52.64.2
Writing library : Lavf52.64.2
Video
ID : 1
Format : AVC
Format/Info : Advanced Video Codec
Format profile : Main@L3.1
Format settings, CABAC : Yes
Format settings, ReFrames : 3 frames
Codec ID : V_MPEG4/ISO/AVC
Duration : 39mn 21s
Bit rate mode : Variable
Bit rate : 2 410 Kbps
Maximum bit rate : 3 000 Kbps
Width : 704 pixels
Height : 416 pixels
Display aspect ratio : 16:9
Original display aspect ratio : 16:9
Frame rate mode : Constant
Frame rate : 25.000 fps
Standard : PAL
Color space : YUV
Chroma subsampling : 4:2:0
Bit depth : 8 bits
Scan type : Progressive
Bits/(Pixel*Frame) : 0.329
Stream size : 678 MiB (93%)
Default : Yes
Forced : No
Audio
ID : 2
Format : MPEG Audio
Format version : Version 1
Format profile : Layer 2
Codec ID : A_MPEG/L2
Codec ID/Hint : MP2
Duration : 39mn 21s
Bit rate mode : Constant
Bit rate : 128 Kbps
Channel(s) : 2 channels
Sampling rate : 48.0 KHz
Compression mode : Lossy
Stream size : 36.0 MiB (5%)
Language : English
Default : Yes
Forced : No
Скриншоты
Выпуск от 18.01.2015
Команда "Елки Лохматые" против команды "Планета собак".
Имя файла:100-1_18012015.mkv
Продолжительность: 00:39:17
Видео: MPEG4 Video (H264), 704x416, (136:77), 2 177 Kbps, 25fps
Аудио: MPEG Audio, 48000Hz, stereo 128kbps
MediaInfo
General
Unique ID : 78379265823380794194336969653717783428 (0x3AF74C296868B65F01178EA9C7F75384)
Format : Matroska
Format version : Version 2
File size : 661 MiB
Duration : 39mn 17s
Overall bit rate mode : Variable
Overall bit rate : 2 352 Kbps
Writing application : Lavf52.64.2
Writing library : Lavf52.64.2
Video
ID : 1
Format : AVC
Format/Info : Advanced Video Codec
Format profile : High@L3.1
Format settings, CABAC : Yes
Format settings, ReFrames : 3 frames
Codec ID : V_MPEG4/ISO/AVC
Duration : 39mn 17s
Bit rate mode : Variable
Bit rate : 2 177 Kbps
Maximum bit rate : 2 500 Kbps
Width : 704 pixels
Height : 416 pixels
Display aspect ratio : 16:9
Original display aspect ratio : 16:9
Frame rate mode : Constant
Frame rate : 25.000 fps
Standard : PAL
Color space : YUV
Chroma subsampling : 4:2:0
Bit depth : 8 bits
Scan type : Progressive
Bits/(Pixel*Frame) : 0.297
Stream size : 612 MiB (93%)
Default : Yes
Forced : No
Color primaries : BT.601 PAL
Transfer characteristics : BT.470 System B, BT.470 System G
Matrix coefficients : BT.601
Audio
ID : 2
Format : MPEG Audio
Format version : Version 1
Format profile : Layer 2
Codec ID : A_MPEG/L2
Codec ID/Hint : MP2
Duration : 39mn 17s
Bit rate mode : Constant
Bit rate : 128 Kbps
Channel(s) : 2 channels
Sampling rate : 48.0 KHz
Compression mode : Lossy
Stream size : 36.0 MiB (5%)
Language : English
Default : Yes
Forced : No
Скриншоты
Выпуск от 25.01.2015
Команда "Живчики" против команды "Пять голосов".
Имя файла:100-1_2015_01_25.mkv
Продолжительность: 00:39:05
Видео: MPEG4 Video (H264), 704x416, (136:77), 2 536 Kbps, 25fps
Аудио: MPEG Audio, 48000Hz, stereo 128kbps
MediaInfo
General
Unique ID : 25767800108990084618442238151358937531 (0x1362B2A1E99A6437DD9598150FC7F9BB)
Format : Matroska
Format version : Version 2
File size : 760 MiB
Duration : 39mn 5s
Overall bit rate mode : Variable
Overall bit rate : 2 719 Kbps
Writing application : Lavf52.64.2
Writing library : Lavf52.64.2
Video
ID : 1
Format : AVC
Format/Info : Advanced Video Codec
Format profile : Main@L3.1
Format settings, CABAC : Yes
Format settings, ReFrames : 3 frames
Codec ID : V_MPEG4/ISO/AVC
Duration : 39mn 5s
Bit rate mode : Variable
Bit rate : 2 536 Kbps
Maximum bit rate : 3 000 Kbps
Width : 704 pixels
Height : 416 pixels
Display aspect ratio : 16:9
Original display aspect ratio : 16:9
Frame rate mode : Constant
Frame rate : 25.000 fps
Standard : PAL
Color space : YUV
Chroma subsampling : 4:2:0
Bit depth : 8 bits
Scan type : Progressive
Bits/(Pixel*Frame) : 0.346
Stream size : 709 MiB (93%)
Default : Yes
Forced : No
Color range : Limited
Audio
ID : 2
Format : MPEG Audio
Format version : Version 1
Format profile : Layer 2
Codec ID : A_MPEG/L2
Codec ID/Hint : MP2
Duration : 39mn 5s
Bit rate mode : Constant
Bit rate : 128 Kbps
Channel(s) : 2 channels
Sampling rate : 48.0 KHz
Compression mode : Lossy
Stream size : 35.8 MiB (5%)
Language : English
Default : Yes
Forced : No
Скриншоты
Выпуск от 01.02.2015
Команда "Радио Романтика" против команды "Звезды романтики".
Имя файла:100-1_2015_02_01.mkv
Продолжительность: 00:38:04
Видео: MPEG4 Video (H264), 704x416, (136:77), 1 871 Kbps, 25fps
Аудио: MPEG Audio, 48000Hz, stereo 128kbps
MediaInfo
General
Unique ID : 189740810499808141062202258561182173350 (0x8EBEC03873B33E46A328AA38046388A6)
Format : Matroska
Format version : Version 2
File size : 555 MiB
Duration : 38mn 4s
Overall bit rate mode : Variable
Overall bit rate : 2 039 Kbps
Writing application : Lavf52.64.2
Writing library : Lavf52.64.2
Video
ID : 1
Format : AVC
Format/Info : Advanced Video Codec
Format profile : Main@L3.1
Format settings, CABAC : Yes
Format settings, ReFrames : 3 frames
Codec ID : V_MPEG4/ISO/AVC
Duration : 38mn 4s
Bit rate mode : Variable
Bit rate : 1 871 Kbps
Maximum bit rate : 9 500 Kbps
Width : 704 pixels
Height : 416 pixels
Display aspect ratio : 16:9
Original display aspect ratio : 16:9
Frame rate mode : Constant
Frame rate : 25.000 fps
Standard : PAL
Color space : YUV
Chroma subsampling : 4:2:0
Bit depth : 8 bits
Scan type : Interlaced
Scan order : Top Field First
Bits/(Pixel*Frame) : 0.255
Stream size : 509 MiB (92%)
Default : Yes
Forced : No
Color range : Limited
Audio
ID : 2
Format : MPEG Audio
Format version : Version 1
Format profile : Layer 2
Codec ID : A_MPEG/L2
Codec ID/Hint : MP2
Duration : 38mn 4s
Bit rate mode : Constant
Bit rate : 128 Kbps
Channel(s) : 2 channels
Sampling rate : 48.0 KHz
Compression mode : Lossy
Stream size : 34.9 MiB (6%)
Language : English
Default : Yes
Forced : No
Скриншоты
Выпуск от 08.02.2015
Команда "Тележурналисты" против команды "Режиссеры театра".
Имя файла:100-1_2015_02_08.mkv
Продолжительность: 00:39:31
Видео: MPEG4 Video (H264), 704x416, (136:77), 1 876 Kbps, 25fps
Аудио: MPEG Audio, 48000Hz, stereo 128kbps
MediaInfo
General
Unique ID : 137788817571699454740204704127745381160 (0x67A92935BE3BBCFE6998C528D221D328)
Format : Matroska
Format version : Version 2
File size : 578 MiB
Duration : 39mn 31s
Overall bit rate mode : Variable
Overall bit rate : 2 045 Kbps
Writing application : Lavf52.64.2
Writing library : Lavf52.64.2
Video
ID : 1
Format : AVC
Format/Info : Advanced Video Codec
Format profile : Main@L3.1
Format settings, CABAC : Yes
Format settings, ReFrames : 3 frames
Codec ID : V_MPEG4/ISO/AVC
Duration : 39mn 31s
Bit rate mode : Variable
Bit rate : 1 876 Kbps
Maximum bit rate : 9 500 Kbps
Width : 704 pixels
Height : 416 pixels
Display aspect ratio : 16:9
Original display aspect ratio : 16:9
Frame rate mode : Constant
Frame rate : 25.000 fps
Standard : PAL
Color space : YUV
Chroma subsampling : 4:2:0
Bit depth : 8 bits
Scan type : Interlaced
Scan order : Top Field First
Bits/(Pixel*Frame) : 0.256
Stream size : 530 MiB (92%)
Default : Yes
Forced : No
Color range : Limited
Audio
ID : 2
Format : MPEG Audio
Format version : Version 1
Format profile : Layer 2
Codec ID : A_MPEG/L2
Codec ID/Hint : MP2
Duration : 39mn 31s
Bit rate mode : Constant
Bit rate : 128 Kbps
Channel(s) : 2 channels
Sampling rate : 48.0 KHz
Compression mode : Lossy
Stream size : 36.2 MiB (6%)
Language : English
Default : Yes
Forced : No
Скриншоты
Выпуск от 15.02.2015
Команда "12 месяцев" против команды "Создатели".
Имя файла:100-1_2015_02_15.mkv
Продолжительность: 00:39:35
Видео: MPEG4 Video (H264), 704x416, (136:77), 1 877 Kbps, 25fps
Аудио: MPEG Audio, 48000Hz, stereo 128kbps
MediaInfo
General
Unique ID : 113881612106455320003687079076498326873 (0x55ACCCF9D44800FFED7BF54514754559)
Format : Matroska
Format version : Version 2
File size : 579 MiB
Duration : 39mn 35s
Overall bit rate mode : Variable
Overall bit rate : 2 045 Kbps
Writing application : Lavf52.64.2
Writing library : Lavf52.64.2
Video
ID : 1
Format : AVC
Format/Info : Advanced Video Codec
Format profile : Main@L3.1
Format settings, CABAC : Yes
Format settings, ReFrames : 3 frames
Codec ID : V_MPEG4/ISO/AVC
Duration : 39mn 35s
Bit rate mode : Variable
Bit rate : 1 877 Kbps
Maximum bit rate : 9 500 Kbps
Width : 704 pixels
Height : 416 pixels
Display aspect ratio : 16:9
Original display aspect ratio : 16:9
Frame rate mode : Constant
Frame rate : 25.000 fps
Standard : PAL
Color space : YUV
Chroma subsampling : 4:2:0
Bit depth : 8 bits
Scan type : Interlaced
Scan order : Top Field First
Bits/(Pixel*Frame) : 0.256
Stream size : 532 MiB (92%)
Default : Yes
Forced : No
Color range : Limited
Audio
ID : 2
Format : MPEG Audio
Format version : Version 1
Format profile : Layer 2
Codec ID : A_MPEG/L2
Codec ID/Hint : MP2
Duration : 39mn 35s
Bit rate mode : Constant
Bit rate : 128 Kbps
Channel(s) : 2 channels
Sampling rate : 48.0 KHz
Compression mode : Lossy
Stream size : 36.3 MiB (6%)
Language : English
Default : Yes
Forced : No
Скриншоты
Выпуск от 22.02.2015
Команда "Артисты" против команды "Импресарио".
Имя файла:100-1_2015_02_22.mkv
Продолжительность: 00:39:18
Видео: MPEG4 Video (H264), 704x416, (136:77), 1 877 Kbps, 25fps
Аудио: MPEG Audio, 48000Hz, stereo 128kbps
MediaInfo
General
Unique ID : 257393644392275401277854769392477675051 (0xC1A4367503CA8B0E453C16CBDE561E2B)
Format : Matroska
Format version : Version 2
File size : 575 MiB
Duration : 39mn 18s
Overall bit rate mode : Variable
Overall bit rate : 2 045 Kbps
Writing application : Lavf52.64.2
Writing library : Lavf52.64.2
Video
ID : 1
Format : AVC
Format/Info : Advanced Video Codec
Format profile : Main@L3.1
Format settings, CABAC : Yes
Format settings, ReFrames : 3 frames
Codec ID : V_MPEG4/ISO/AVC
Duration : 39mn 18s
Bit rate mode : Variable
Bit rate : 1 877 Kbps
Maximum bit rate : 9 500 Kbps
Width : 704 pixels
Height : 416 pixels
Display aspect ratio : 16:9
Original display aspect ratio : 16:9
Frame rate mode : Constant
Frame rate : 25.000 fps
Standard : PAL
Color space : YUV
Chroma subsampling : 4:2:0
Bit depth : 8 bits
Scan type : Interlaced
Scan order : Top Field First
Bits/(Pixel*Frame) : 0.256
Stream size : 528 MiB (92%)
Default : Yes
Forced : No
Color range : Limited
Audio
ID : 2
Format : MPEG Audio
Format version : Version 1
Format profile : Layer 2
Codec ID : A_MPEG/L2
Codec ID/Hint : MP2
Duration : 39mn 18s
Bit rate mode : Constant
Bit rate : 128 Kbps
Channel(s) : 2 channels
Sampling rate : 48.0 KHz
Compression mode : Lossy
Stream size : 36.0 MiB (6%)
Language : English
Default : Yes
Forced : No
Скриншоты
Выпуск от 01.03.2015
Команда "Генетики" против команды "Детский сад".
Имя файла:100-1_2015_03_01.mkv
Продолжительность: 00:38:40
Видео: MPEG4 Video (H264), 704x416, (136:77), 1 870 Kbps, 25fps
Аудио: MPEG Audio, 48000Hz, stereo 128kbps
MediaInfo
General
Unique ID : 260261004431905956334007218430139997841 (0xC3CC7238CC52382C664A62233F4C9E91)
Format : Matroska
Format version : Version 2
File size : 564 MiB
Duration : 38mn 40s
Overall bit rate mode : Variable
Overall bit rate : 2 039 Kbps
Writing application : Lavf52.64.2
Writing library : Lavf52.64.2
Video
ID : 1
Format : AVC
Format/Info : Advanced Video Codec
Format profile : Main@L3.1
Format settings, CABAC : Yes
Format settings, ReFrames : 3 frames
Codec ID : V_MPEG4/ISO/AVC
Duration : 38mn 40s
Bit rate mode : Variable
Bit rate : 1 870 Kbps
Maximum bit rate : 9 500 Kbps
Width : 704 pixels
Height : 416 pixels
Display aspect ratio : 16:9
Original display aspect ratio : 16:9
Frame rate mode : Constant
Frame rate : 25.000 fps
Standard : PAL
Color space : YUV
Chroma subsampling : 4:2:0
Bit depth : 8 bits
Scan type : Interlaced
Scan order : Top Field First
Bits/(Pixel*Frame) : 0.255
Stream size : 517 MiB (92%)
Default : Yes
Forced : No
Color range : Limited
Audio
ID : 2
Format : MPEG Audio
Format version : Version 1
Format profile : Layer 2
Codec ID : A_MPEG/L2
Codec ID/Hint : MP2
Duration : 38mn 40s
Bit rate mode : Constant
Bit rate : 128 Kbps
Channel(s) : 2 channels
Sampling rate : 48.0 KHz
Compression mode : Lossy
Stream size : 35.4 MiB (6%)
Language : English
Default : Yes
Forced : No
Скриншоты
Выпуск от 09.03.2015
Команда "Супер мамы" против команды "Фантастики".
Имя файла:100-1_2015_03_09.mkv
Продолжительность: 00:38:32
Видео: MPEG4 Video (H264), 704x416, (136:77), 1 876 Kbps, 25fps
Аудио: MPEG Audio, 48000Hz, stereo 128kbps
MediaInfo
General
Unique ID : 39233515560502515891029600302968886953 (0x1D8419A999D936C95797B6A602A056A9)
Format : Matroska
Format version : Version 2
File size : 564 MiB
Duration : 38mn 32s
Overall bit rate mode : Variable
Overall bit rate : 2 045 Kbps
Writing application : Lavf52.64.2
Writing library : Lavf52.64.2
Video
ID : 1
Format : AVC
Format/Info : Advanced Video Codec
Format profile : Main@L3.1
Format settings, CABAC : Yes
Format settings, ReFrames : 3 frames
Codec ID : V_MPEG4/ISO/AVC
Duration : 38mn 32s
Bit rate mode : Variable
Bit rate : 1 876 Kbps
Maximum bit rate : 9 500 Kbps
Width : 704 pixels
Height : 416 pixels
Display aspect ratio : 16:9
Original display aspect ratio : 16:9
Frame rate mode : Constant
Frame rate : 25.000 fps
Standard : PAL
Color space : YUV
Chroma subsampling : 4:2:0
Bit depth : 8 bits
Scan type : Interlaced
Scan order : Top Field First
Bits/(Pixel*Frame) : 0.256
Stream size : 517 MiB (92%)
Default : Yes
Forced : No
Color range : Limited
Audio
ID : 2
Format : MPEG Audio
Format version : Version 1
Format profile : Layer 2
Codec ID : A_MPEG/L2
Codec ID/Hint : MP2
Duration : 38mn 32s
Bit rate mode : Constant
Bit rate : 128 Kbps
Channel(s) : 2 channels
Sampling rate : 48.0 KHz
Compression mode : Lossy
Stream size : 35.3 MiB (6%)
Language : English
Default : Yes
Forced : No
Скриншоты
Выпуск от 15.03.2015
Команда "Один" против команды "В один".
Звезды телешоу "Один в один"! Эвелина Блёданс, Дмитрий Бикбаев, Руслан Алехно, Денис Клявер, Шура.
А так же - Звезды телешоу "Один в один"! Марк Тишман, Юлия Началова, Светлана Светикова, Инна Котляр, Вадим Казаченко.
Имя файла:100-1_2015_03_15.mkv
Продолжительность: 00:43:13
Видео: MPEG4 Video (H264), 704x416, (136:77), 1 861 Kbps, 25fps
Аудио: MPEG Audio, 48000Hz, stereo 128kbps
MediaInfo
General
Unique ID : 134901115059157278943924831124298619298 (0x657D027BDAB02F27B81C2639412759A2)
Format : Matroska
Format version : Version 2
File size : 627 MiB
Duration : 43mn 13s
Overall bit rate mode : Variable
Overall bit rate : 2 029 Kbps
Writing application : Lavf52.64.2
Writing library : Lavf52.64.2
Video
ID : 1
Format : AVC
Format/Info : Advanced Video Codec
Format profile : Main@L3.1
Format settings, CABAC : Yes
Format settings, ReFrames : 3 frames
Codec ID : V_MPEG4/ISO/AVC
Duration : 43mn 13s
Bit rate mode : Variable
Bit rate : 1 861 Kbps
Maximum bit rate : 9 500 Kbps
Width : 704 pixels
Height : 416 pixels
Display aspect ratio : 16:9
Original display aspect ratio : 16:9
Frame rate mode : Constant
Frame rate : 25.000 fps
Standard : PAL
Color space : YUV
Chroma subsampling : 4:2:0
Bit depth : 8 bits
Scan type : Interlaced
Scan order : Top Field First
Bits/(Pixel*Frame) : 0.254
Stream size : 575 MiB (92%)
Default : Yes
Forced : No
Color range : Limited
Audio
ID : 2
Format : MPEG Audio
Format version : Version 1
Format profile : Layer 2
Codec ID : A_MPEG/L2
Codec ID/Hint : MP2
Duration : 43mn 13s
Bit rate mode : Constant
Bit rate : 128 Kbps
Channel(s) : 2 channels
Sampling rate : 48.0 KHz
Compression mode : Lossy
Stream size : 39.6 MiB (6%)
Language : English
Default : Yes
Forced : No
Скриншоты
Выпуск от 22.03.2015
Команда "Главные по сцене" против команды "Главные на сцене".
"Главные по сцене" - Стас Пьеха, Елена Кипер, Саша Савельева, Ирина Тонева, Слава (Анастасия Сланевская).
"Главные на сцене" - Дакота (Маргарита Герасимович), Николай Тимохин, Ксения Павроз, Нодар Ревия, Александр Иванов.
Имя файла:100-1_2015_03_22.mkv
Продолжительность: 00:39:59
Видео: MPEG4 Video (H264), 704x416, (136:77), 1 877 Kbps, 25fps
Аудио: MPEG Audio, 48000Hz, stereo 128kbps
MediaInfo
General
Unique ID : 62989120564176015585181749700024050837 (0x2F63436AAD63A0F4CB7C8E6302DBA495)
Format : Matroska
Format version : Version 2
File size : 585 MiB
Duration : 39mn 59s
Overall bit rate mode : Variable
Overall bit rate : 2 045 Kbps
Writing application : Lavf52.64.2
Writing library : Lavf52.64.2
Video
ID : 1
Format : AVC
Format/Info : Advanced Video Codec
Format profile : Main@L3.1
Format settings, CABAC : Yes
Format settings, ReFrames : 3 frames
Codec ID : V_MPEG4/ISO/AVC
Duration : 39mn 59s
Bit rate mode : Variable
Bit rate : 1 877 Kbps
Maximum bit rate : 9 500 Kbps
Width : 704 pixels
Height : 416 pixels
Display aspect ratio : 16:9
Original display aspect ratio : 16:9
Frame rate mode : Constant
Frame rate : 25.000 fps
Standard : PAL
Color space : YUV
Chroma subsampling : 4:2:0
Bit depth : 8 bits
Scan type : Interlaced
Scan order : Top Field First
Bits/(Pixel*Frame) : 0.256
Stream size : 537 MiB (92%)
Default : Yes
Forced : No
Color range : Limited
Audio
ID : 2
Format : MPEG Audio
Format version : Version 1
Format profile : Layer 2
Codec ID : A_MPEG/L2
Codec ID/Hint : MP2
Duration : 39mn 59s
Bit rate mode : Constant
Bit rate : 128 Kbps
Channel(s) : 2 channels
Sampling rate : 48.0 KHz
Compression mode : Lossy
Stream size : 36.6 MiB (6%)
Language : English
Default : Yes
Forced : No
Скриншоты
Выпуск от 29.03.2015
Команда "Танцуй" против команды "Добро".
"Танцуй" - Виталий Сурма, Денис Тагинцев, Леонид Бурло, Михаил Щепкин, Александр Набиуллин.
"Добро" - Мария Голубкина, Ксения Алферова, Катя Жаркова, Екатерина Волкова, Севара Назархан.
Имя файла:100-1_2015_03_29.mkv
Продолжительность: 00:39:28
Видео: MPEG4 Video (H264), 720x416, (367:208), 1 919 Kbps, 25fps
Аудио: MPEG Audio, 48000Hz, stereo 128kbps
MediaInfo
General
Unique ID : 277030198004675946193531815680683244550 (0xD06A134C582A64F138836859BDBF7C06)
Complete name : E:\100-1_2015_03_29\100-1_2015_03_29.mkv
Format : Matroska
Format version : Version 2
File size : 590 MiB
Duration : 39mn 28s
Overall bit rate mode : Variable
Overall bit rate : 2 089 Kbps
Writing application : Lavf52.64.2
Writing library : Lavf52.64.2
Video
ID : 1
Format : AVC
Format/Info : Advanced Video Codec
Format profile : Main@L3.1
Format settings, CABAC : Yes
Format settings, ReFrames : 3 frames
Codec ID : V_MPEG4/ISO/AVC
Duration : 39mn 28s
Bit rate mode : Variable
Bit rate : 1 919 Kbps
Maximum bit rate : 9 500 Kbps
Width : 720 pixels
Height : 416 pixels
Display aspect ratio : 16:9
Original display aspect ratio : 16:9
Frame rate mode : Constant
Frame rate : 25.000 fps
Standard : PAL
Color space : YUV
Chroma subsampling : 4:2:0
Bit depth : 8 bits
Scan type : Interlaced
Scan order : Top Field First
Bits/(Pixel*Frame) : 0.256
Stream size : 542 MiB (92%)
Default : Yes
Forced : No
Color range : Limited
Audio
ID : 2
Format : MPEG Audio
Format version : Version 1
Format profile : Layer 2
Codec ID : A_MPEG/L2
Codec ID/Hint : MP2
Duration : 39mn 28s
Bit rate mode : Constant
Bit rate : 128 Kbps
Channel(s) : 2 channels
Sampling rate : 48.0 KHz
Compression mode : Lossy
Stream size : 36.1 MiB (6%)
Language : English
Default : Yes
Forced : No
Скриншоты
Выпуск от 05.04.2015
Команда "Несчастный случай" против команды "Самоцветы".
"Несчастный случай" - Алексей Кортнев, Сергей Чекрыжов, Роман Мамаев, Дмитрий Чувелев, Павел Мордюков.
"Самоцветы" - Сергей Шелунцов, Александр Нефедов, Олег Слепцов, Елена Преснякова, Георгий Власенко.
Имя файла:100-1_2015_04_05.mkv
Продолжительность: 00:39:50
Видео: MPEG4 Video (H264), 720x416, (367:208), 1 893 Kbps, 25fps
Аудио: MPEG Audio, 48000Hz, stereo 128kbps
MediaInfo
General
Unique ID : 155265141131481173762398640137716753114 (0x74CEFA7C8416E3C7D24AC2450499E2DA)
Format : Matroska
Format version : Version 2
File size : 587 MiB
Duration : 39mn 50s
Overall bit rate mode : Variable
Overall bit rate : 2 062 Kbps
Writing application : Lavf52.64.2
Writing library : Lavf52.64.2
Video
ID : 1
Format : AVC
Format/Info : Advanced Video Codec
Format profile : Main@L3.1
Format settings, CABAC : Yes
Format settings, ReFrames : 3 frames
Codec ID : V_MPEG4/ISO/AVC
Duration : 39mn 50s
Bit rate mode : Variable
Bit rate : 1 893 Kbps
Maximum bit rate : 9 500 Kbps
Width : 720 pixels
Height : 416 pixels
Display aspect ratio : 16:9
Original display aspect ratio : 16:9
Frame rate mode : Constant
Frame rate : 25.000 fps
Standard : PAL
Color space : YUV
Chroma subsampling : 4:2:0
Bit depth : 8 bits
Scan type : Interlaced
Scan order : Top Field First
Bits/(Pixel*Frame) : 0.253
Stream size : 539 MiB (92%)
Default : Yes
Forced : No
Color range : Limited
Audio
ID : 2
Format : MPEG Audio
Format version : Version 1
Format profile : Layer 2
Codec ID : A_MPEG/L2
Codec ID/Hint : MP2
Duration : 39mn 50s
Bit rate mode : Constant
Bit rate : 128 Kbps
Channel(s) : 2 channels
Sampling rate : 48.0 KHz
Compression mode : Lossy
Stream size : 36.5 MiB (6%)
Language : English
Default : Yes
Forced : No
Скриншоты
Выпуск от 12.04.2015
Команда "Бьюти эксперты" против команды "Актеры".
Имя файла:100-1_2015_04_12.mkv
Продолжительность: 00:38:33
Видео: MPEG4 Video (H264), 720x416, (367:208), 1 919 Kbps, 25fps
Аудио: MPEG Audio, 48000Hz, stereo 128kbps
MediaInfo
General
Unique ID : 275804273038221354235403396074856939761 (0xCF7DF887E2526F5DDA6C9BB4F0AE80F1)
Complete name : E:\100-1_2015_04_12\100-1_2015_04_12.mkv
Format : Matroska
Format version : Version 2
File size : 576 MiB
Duration : 38mn 33s
Overall bit rate mode : Variable
Overall bit rate : 2 089 Kbps
Writing application : Lavf52.64.2
Writing library : Lavf52.64.2
Video
ID : 1
Format : AVC
Format/Info : Advanced Video Codec
Format profile : Main@L3.1
Format settings, CABAC : Yes
Format settings, ReFrames : 3 frames
Codec ID : V_MPEG4/ISO/AVC
Duration : 38mn 33s
Bit rate mode : Variable
Bit rate : 1 919 Kbps
Maximum bit rate : 9 500 Kbps
Width : 720 pixels
Height : 416 pixels
Display aspect ratio : 16:9
Original display aspect ratio : 16:9
Frame rate mode : Constant
Frame rate : 25.000 fps
Standard : PAL
Color space : YUV
Chroma subsampling : 4:2:0
Bit depth : 8 bits
Scan type : Interlaced
Scan order : Top Field First
Bits/(Pixel*Frame) : 0.256
Stream size : 529 MiB (92%)
Default : Yes
Forced : No
Color range : Limited
Audio
ID : 2
Format : MPEG Audio
Format version : Version 1
Format profile : Layer 2
Codec ID : A_MPEG/L2
Codec ID/Hint : MP2
Duration : 38mn 33s
Bit rate mode : Constant
Bit rate : 128 Kbps
Channel(s) : 2 channels
Sampling rate : 48.0 KHz
Compression mode : Lossy
Stream size : 35.3 MiB (6%)
Language : English
Default : Yes
Forced : No
Скриншоты
Выпуск от 19.04.2015
Команда "Ой, мамочки!" против команды "Игротека".
Имя файла:100-1_2015_04_19.mkv
Продолжительность: 00:37:50
Видео: MPEG4 Video (H264), 704x416, (739:416), 1 857 Kbps, 25fps
Аудио: MPEG Audio, 48000Hz, stereo 128kbps
MediaInfo
General
Unique ID : 196572944078648726154656854806880574101 (0x93E29269B9B8B527E656A3A1BD07DA95)
Format : Matroska
Format version : Version 2
File size : 548 MiB
Duration : 37mn 50s
Overall bit rate mode : Variable
Overall bit rate : 2 026 Kbps
Writing application : Lavf52.64.2
Writing library : Lavf52.64.2
Video
ID : 1
Format : AVC
Format/Info : Advanced Video Codec
Format profile : Main@L3.1
Format settings, CABAC : Yes
Format settings, ReFrames : 3 frames
Codec ID : V_MPEG4/ISO/AVC
Duration : 37mn 50s
Bit rate mode : Variable
Bit rate : 1 857 Kbps
Maximum bit rate : 9 500 Kbps
Width : 704 pixels
Height : 416 pixels
Display aspect ratio : 16:9
Original display aspect ratio : 16:9
Frame rate mode : Constant
Frame rate : 25.000 fps
Standard : PAL
Color space : YUV
Chroma subsampling : 4:2:0
Bit depth : 8 bits
Scan type : Interlaced
Scan order : Top Field First
Bits/(Pixel*Frame) : 0.254
Stream size : 503 MiB (92%)
Default : Yes
Forced : No
Color range : Limited
Audio
ID : 2
Format : MPEG Audio
Format version : Version 1
Format profile : Layer 2
Codec ID : A_MPEG/L2
Codec ID/Hint : MP2
Duration : 37mn 50s
Bit rate mode : Constant
Bit rate : 128 Kbps
Channel(s) : 2 channels
Sampling rate : 48.0 KHz
Compression mode : Lossy
Stream size : 34.6 MiB (6%)
Language : English
Default : Yes
Forced : No
Скриншоты
Выпуск от 26.04.2015
Команда "Писатели" против команды "Станиславцы".
Имя файла:100-1_2015_04_26.mkv
Продолжительность: 00:38:13
Видео: MPEG4 Video (H264), 704x416, (739:416), 1 877 Kbps, 25fps
Аудио: MPEG Audio, 48000Hz, stereo 128kbps
MediaInfo
General
Unique ID : 95857124996662908148401265655934287818 (0x481D69265917C3E92BC573014DD6FFCA)
Format : Matroska
Format version : Version 2
File size : 559 MiB
Duration : 38mn 13s
Overall bit rate mode : Variable
Overall bit rate : 2 045 Kbps
Writing application : Lavf52.64.2
Writing library : Lavf52.64.2
Video
ID : 1
Format : AVC
Format/Info : Advanced Video Codec
Format profile : Main@L3.1
Format settings, CABAC : Yes
Format settings, ReFrames : 3 frames
Codec ID : V_MPEG4/ISO/AVC
Duration : 38mn 13s
Bit rate mode : Variable
Bit rate : 1 877 Kbps
Maximum bit rate : 9 500 Kbps
Width : 704 pixels
Height : 416 pixels
Display aspect ratio : 16:9
Original display aspect ratio : 16:9
Frame rate mode : Constant
Frame rate : 25.000 fps
Standard : PAL
Color space : YUV
Chroma subsampling : 4:2:0
Bit depth : 8 bits
Scan type : Interlaced
Scan order : Top Field First
Bits/(Pixel*Frame) : 0.256
Stream size : 513 MiB (92%)
Default : Yes
Forced : No
Color range : Limited
Audio
ID : 2
Format : MPEG Audio
Format version : Version 1
Format profile : Layer 2
Codec ID : A_MPEG/L2
Codec ID/Hint : MP2
Duration : 38mn 13s
Bit rate mode : Constant
Bit rate : 128 Kbps
Channel(s) : 2 channels
Sampling rate : 48.0 KHz
Compression mode : Lossy
Stream size : 35.0 MiB (6%)
Language : English
Default : Yes
Forced : No
Скриншоты
Выпуск от 03.05.2015
Команда "Рок-хор" против команды "Классика жанра".
Имя файла:100-1_2015_05_03.mkv
Продолжительность: 00:39:25
Видео: MPEG4 Video (H264), 704x416, (739:416), 1 851 Kbps, 25fps
Аудио: MPEG Audio, 48000Hz, stereo 128kbps
MediaInfo
General
Unique ID : 31899825097072380169104323718212432434 (0x17FFAECE7082C6E57651190DDC373232)
Format : Matroska
Format version : Version 2
File size : 569 MiB
Duration : 39mn 25s
Overall bit rate mode : Variable
Overall bit rate : 2 019 Kbps
Writing application : Lavf52.64.2
Writing library : Lavf52.64.2
Video
ID : 1
Format : AVC
Format/Info : Advanced Video Codec
Format profile : Main@L3.1
Format settings, CABAC : Yes
Format settings, ReFrames : 3 frames
Codec ID : V_MPEG4/ISO/AVC
Duration : 39mn 25s
Bit rate mode : Variable
Bit rate : 1 851 Kbps
Maximum bit rate : 9 500 Kbps
Width : 704 pixels
Height : 416 pixels
Display aspect ratio : 16:9
Original display aspect ratio : 16:9
Frame rate mode : Constant
Frame rate : 25.000 fps
Standard : PAL
Color space : YUV
Chroma subsampling : 4:2:0
Bit depth : 8 bits
Scan type : Interlaced
Scan order : Top Field First
Bits/(Pixel*Frame) : 0.253
Stream size : 522 MiB (92%)
Default : Yes
Forced : No
Color range : Limited
Audio
ID : 2
Format : MPEG Audio
Format version : Version 1
Format profile : Layer 2
Codec ID : A_MPEG/L2
Codec ID/Hint : MP2
Duration : 39mn 25s
Bit rate mode : Constant
Bit rate : 128 Kbps
Channel(s) : 2 channels
Sampling rate : 48.0 KHz
Compression mode : Lossy
Stream size : 36.1 MiB (6%)
Language : English
Default : Yes
Forced : No
Скриншоты
Выпуск от 11.05.2015
Команда "Смоленский атом" против команды "Экономика АЭС".
Имя файла:100-1_2015_05_11.mkv
Продолжительность: 00:37:56
Видео: MPEG4 Video (H264), 720x416 (367:208), 1 919 Kbps, 25fps
Аудио: MPEG Audio, 48000Hz, stereo 128kbps
MediaInfo
General
Unique ID : 281757314203434563545781876963174900751 (0xD3F87C1EF66CE31ACCE4A12FF7DDE40F)
Format : Matroska
Format version : Version 2
File size : 567 MiB
Duration : 37mn 56s
Overall bit rate mode : Variable
Overall bit rate : 2 089 Kbps
Writing application : Lavf52.64.2
Writing library : Lavf52.64.2
Video
ID : 1
Format : AVC
Format/Info : Advanced Video Codec
Format profile : Main@L3.1
Format settings, CABAC : Yes
Format settings, ReFrames : 3 frames
Codec ID : V_MPEG4/ISO/AVC
Duration : 37mn 56s
Bit rate mode : Variable
Bit rate : 1 919 Kbps
Maximum bit rate : 9 500 Kbps
Width : 720 pixels
Height : 416 pixels
Display aspect ratio : 16:9
Original display aspect ratio : 16:9
Frame rate mode : Constant
Frame rate : 25.000 fps
Standard : PAL
Color space : YUV
Chroma subsampling : 4:2:0
Bit depth : 8 bits
Scan type : Interlaced
Scan order : Top Field First
Bits/(Pixel*Frame) : 0.256
Stream size : 521 MiB (92%)
Default : Yes
Forced : No
Color range : Limited
Audio
ID : 2
Format : MPEG Audio
Format version : Version 1
Format profile : Layer 2
Codec ID : A_MPEG/L2
Codec ID/Hint : MP2
Duration : 37mn 56s
Bit rate mode : Constant
Bit rate : 128 Kbps
Channel(s) : 2 channels
Sampling rate : 48.0 KHz
Compression mode : Lossy
Stream size : 34.7 MiB (6%)
Language : English
Default : Yes
Forced : No
Скриншоты
Выпуск от 17.05.2015
Команда "Сердца пятерых" против команды "Сочинители".
Имя файла:100-1_2015_05_17.mkv
Продолжительность: 00:34:90
Видео: MPEG4 Video (H264), 720x416 (367:208), 1 919 Kbps, 25fps
Аудио: MPEG Audio, 48000Hz, stereo 128kbps
MediaInfo
General
Unique ID : 279046668231828319211352227444176227763 (0xD1EE6EF4CDE53CB114B189A6FF108DB3)
Format : Matroska
Format version : Version 2
File size : 518 MiB
Duration : 34mn 39s
Overall bit rate mode : Variable
Overall bit rate : 2 089 Kbps
Writing application : Lavf52.64.2
Writing library : Lavf52.64.2
Video
ID : 1
Format : AVC
Format/Info : Advanced Video Codec
Format profile : Main@L3.1
Format settings, CABAC : Yes
Format settings, ReFrames : 3 frames
Codec ID : V_MPEG4/ISO/AVC
Duration : 34mn 39s
Bit rate mode : Variable
Bit rate : 1 919 Kbps
Maximum bit rate : 9 500 Kbps
Width : 720 pixels
Height : 416 pixels
Display aspect ratio : 16:9
Original display aspect ratio : 16:9
Frame rate mode : Constant
Frame rate : 25.000 fps
Standard : PAL
Color space : YUV
Chroma subsampling : 4:2:0
Bit depth : 8 bits
Scan type : Interlaced
Scan order : Top Field First
Bits/(Pixel*Frame) : 0.256
Stream size : 476 MiB (92%)
Default : Yes
Forced : No
Color range : Limited
Audio
ID : 2
Format : MPEG Audio
Format version : Version 1
Format profile : Layer 2
Codec ID : A_MPEG/L2
Codec ID/Hint : MP2
Duration : 34mn 39s
Bit rate mode : Constant
Bit rate : 128 Kbps
Channel(s) : 2 channels
Sampling rate : 48.0 KHz
Compression mode : Lossy
Stream size : 31.7 MiB (6%)
Language : English
Default : Yes
Forced : No
Скриншоты
Выпуск от 24.05.2015
Команда "Идущие по земле" против команды "Бегущие по волнам".
Имя файла:100-1_2015_05_24.mkv
Продолжительность: 00:39:05
Видео: MPEG4 Video (H264), 720x416 (367:208), 1 919 Kbps, 25fps
Аудио: MPEG Audio, 48000Hz, stereo 128kbps
MediaInfo
General
Unique ID : 220473978719512950558915132283987163271 (0xA5DDBE66E2B9E91D7C112249CF43F887)
Complete name : E:\100-1_2015\100-1_2015_05_24.mkv
Format : Matroska
Format version : Version 2
File size : 584 MiB
Duration : 39mn 5s
Overall bit rate mode : Variable
Overall bit rate : 2 089 Kbps
Writing application : Lavf52.64.2
Writing library : Lavf52.64.2
Video
ID : 1
Format : AVC
Format/Info : Advanced Video Codec
Format profile : Main@L3.1
Format settings, CABAC : Yes
Format settings, ReFrames : 3 frames
Codec ID : V_MPEG4/ISO/AVC
Duration : 39mn 5s
Bit rate mode : Variable
Bit rate : 1 919 Kbps
Maximum bit rate : 9 500 Kbps
Width : 720 pixels
Height : 416 pixels
Display aspect ratio : 16:9
Original display aspect ratio : 16:9
Frame rate mode : Constant
Frame rate : 25.000 fps
Standard : PAL
Color space : YUV
Chroma subsampling : 4:2:0
Bit depth : 8 bits
Scan type : Interlaced
Scan order : Top Field First
Bits/(Pixel*Frame) : 0.256
Stream size : 537 MiB (92%)
Default : Yes
Forced : No
Color range : Limited
Audio
ID : 2
Format : MPEG Audio
Format version : Version 1
Format profile : Layer 2
Codec ID : A_MPEG/L2
Codec ID/Hint : MP2
Duration : 39mn 5s
Bit rate mode : Constant
Bit rate : 128 Kbps
Channel(s) : 2 channels
Sampling rate : 48.0 KHz
Compression mode : Lossy
Stream size : 35.8 MiB (6%)
Language : English
Default : Yes
Forced : No
Скриншоты
Выпуск от 31.05.2015
Команда "Друзья по сцене" против команды "Музыка их связала".
Имя файла:100-1_2015_05_31.mkv
Продолжительность: 00:39:32
Видео: MPEG4 Video (H264), 720x416 (367:208), 1 920 Kbps, 25fps
Аудио: MPEG Audio, 48000Hz, stereo 128kbps
MediaInfo
General
Unique ID : 293420423593314526939675360083376876386 (0xDCBEB7CF755EC39D809C7E45F3B42B62)
Complete name : E:\HBPVR\100-1_2015_05_31.mkv
Format : Matroska
Format version : Version 2
File size : 591 MiB
Duration : 39mn 32s
Overall bit rate mode : Variable
Overall bit rate : 2 089 Kbps
Writing application : Lavf52.64.2
Writing library : Lavf52.64.2
Video
ID : 1
Format : AVC
Format/Info : Advanced Video Codec
Format profile : Main@L3.1
Format settings, CABAC : Yes
Format settings, ReFrames : 3 frames
Codec ID : V_MPEG4/ISO/AVC
Duration : 39mn 32s
Bit rate mode : Variable
Bit rate : 1 920 Kbps
Maximum bit rate : 9 500 Kbps
Width : 720 pixels
Height : 416 pixels
Display aspect ratio : 16:9
Original display aspect ratio : 16:9
Frame rate mode : Constant
Frame rate : 25.000 fps
Standard : PAL
Color space : YUV
Chroma subsampling : 4:2:0
Bit depth : 8 bits
Scan type : Interlaced
Scan order : Top Field First
Bits/(Pixel*Frame) : 0.256
Stream size : 543 MiB (92%)
Default : Yes
Forced : No
Color range : Limited
Audio
ID : 2
Format : MPEG Audio
Format version : Version 1
Format profile : Layer 2
Codec ID : A_MPEG/L2
Codec ID/Hint : MP2
Duration : 39mn 32s
Bit rate mode : Constant
Bit rate : 128 Kbps
Channel(s) : 2 channels
Sampling rate : 48.0 KHz
Compression mode : Lossy
Stream size : 36.2 MiB (6%)
Language : English
Default : Yes
Forced : No
Скриншоты
Выпуск от 07.06.2015
Команда "Географы" против команды "Панда".
Имя файла:100-1_2015_06_07.mkv
Продолжительность: 00:38:55
Видео: MPEG4 Video (H264), 720x416 (367:208), 1 920 Kbps, 25fps
Аудио: MPEG Audio, 48000Hz, stereo 128kbps
MediaInfo
General
Unique ID : 292044553730488348464405057497880518836 (0xDBB5BC3054C8F4A57BE9C1E4B186E0B4)
Complete name : E:\100-1_2015\100-1_2015_06_07.mkv
Format : Matroska
Format version : Version 2
File size : 582 MiB
Duration : 38mn 55s
Overall bit rate mode : Variable
Overall bit rate : 2 089 Kbps
Writing application : Lavf52.64.2
Writing library : Lavf52.64.2
Video
ID : 1
Format : AVC
Format/Info : Advanced Video Codec
Format profile : Main@L3.1
Format settings, CABAC : Yes
Format settings, ReFrames : 3 frames
Codec ID : V_MPEG4/ISO/AVC
Duration : 38mn 55s
Bit rate mode : Variable
Bit rate : 1 920 Kbps
Maximum bit rate : 9 500 Kbps
Width : 720 pixels
Height : 416 pixels
Display aspect ratio : 16:9
Original display aspect ratio : 16:9
Frame rate mode : Constant
Frame rate : 25.000 fps
Standard : PAL
Color space : YUV
Chroma subsampling : 4:2:0
Bit depth : 8 bits
Scan type : Interlaced
Scan order : Top Field First
Bits/(Pixel*Frame) : 0.256
Stream size : 534 MiB (92%)
Default : Yes
Forced : No
Color range : Limited
Audio
ID : 2
Format : MPEG Audio
Format version : Version 1
Format profile : Layer 2
Codec ID : A_MPEG/L2
Codec ID/Hint : MP2
Duration : 38mn 55s
Bit rate mode : Constant
Bit rate : 128 Kbps
Channel(s) : 2 channels
Sampling rate : 48.0 KHz
Compression mode : Lossy
Stream size : 35.6 MiB (6%)
Language : English
Default : Yes
Forced : No
Скриншоты
Выпуск от 23.08.2015
Команда "Госпиталь" против команды "Клиники России".
Имя файла:100-1_2015_08_23.mkv
Продолжительность: 00:39:22
Видео: MPEG4 Video (H264), 720x416 (367:208), 1 909 Kbps, 25fps
Аудио: MPEG Audio, 48000Hz, stereo 128kbps
MediaInfo
General
Unique ID : 37137746492889758035604196353418365651 (0x1BF078450F5B9AF48145285D65828AD3)
Complete name : E:\100-1_2015\100-1_2015_08_23.mkv
Format : Matroska
Format version : Version 2
File size : 585 MiB
Duration : 39mn 22s
Overall bit rate mode : Variable
Overall bit rate : 2 078 Kbps
Writing application : Lavf52.64.2
Writing library : Lavf52.64.2
Video
ID : 1
Format : AVC
Format/Info : Advanced Video Codec
Format profile : Main@L3.1
Format settings, CABAC : Yes
Format settings, ReFrames : 3 frames
Codec ID : V_MPEG4/ISO/AVC
Duration : 39mn 22s
Bit rate mode : Variable
Bit rate : 1 909 Kbps
Maximum bit rate : 9 500 Kbps
Width : 720 pixels
Height : 416 pixels
Display aspect ratio : 16:9
Original display aspect ratio : 16:9
Frame rate mode : Constant
Frame rate : 25.000 fps
Standard : PAL
Color space : YUV
Chroma subsampling : 4:2:0
Bit depth : 8 bits
Scan type : Interlaced
Scan order : Top Field First
Bits/(Pixel*Frame) : 0.255
Stream size : 537 MiB (92%)
Default : Yes
Forced : No
Color range : Limited
Audio
ID : 2
Format : MPEG Audio
Format version : Version 1
Format profile : Layer 2
Codec ID : A_MPEG/L2
Codec ID/Hint : MP2
Duration : 39mn 22s
Bit rate mode : Constant
Bit rate : 128 Kbps
Channel(s) : 2 channels
Sampling rate : 48.0 KHz
Compression mode : Lossy
Stream size : 36.0 MiB (6%)
Language : English
Default : Yes
Forced : No
Скриншоты
Выпуск от 30.08.2015
Команда "Бит-компания" против команды "Фактура".
Имя файла:100-1_2015_08_30.mkv
Продолжительность: 00:38:17
Видео: MPEG4 Video (H264), 720x416 (367:208), 1 920 Kbps, 25fps
Аудио: MPEG Audio, 48000Hz, stereo 128kbps
MediaInfo
General
Unique ID : 114103944918835870280169442968048883626 (0x55D79ED4728795B9415E69DB0C5DD7AA)
Complete name : E:\100-1_2015\100-1_2015_08_30.mkv
Format : Matroska
Format version : Version 2
File size : 572 MiB
Duration : 38mn 17s
Overall bit rate mode : Variable
Overall bit rate : 2 089 Kbps
Writing application : Lavf52.64.2
Writing library : Lavf52.64.2
Video
ID : 1
Format : AVC
Format/Info : Advanced Video Codec
Format profile : Main@L3.1
Format settings, CABAC : Yes
Format settings, ReFrames : 3 frames
Codec ID : V_MPEG4/ISO/AVC
Duration : 38mn 17s
Bit rate mode : Variable
Bit rate : 1 920 Kbps
Maximum bit rate : 9 500 Kbps
Width : 720 pixels
Height : 416 pixels
Display aspect ratio : 16:9
Original display aspect ratio : 16:9
Frame rate mode : Constant
Frame rate : 25.000 fps
Standard : PAL
Color space : YUV
Chroma subsampling : 4:2:0
Bit depth : 8 bits
Scan type : Interlaced
Scan order : Top Field First
Bits/(Pixel*Frame) : 0.256
Stream size : 526 MiB (92%)
Default : Yes
Forced : No
Color range : Limited
Audio
ID : 2
Format : MPEG Audio
Format version : Version 1
Format profile : Layer 2
Codec ID : A_MPEG/L2
Codec ID/Hint : MP2
Duration : 38mn 17s
Bit rate mode : Constant
Bit rate : 128 Kbps
Channel(s) : 2 channels
Sampling rate : 48.0 KHz
Compression mode : Lossy
Stream size : 35.1 MiB (6%)
Language : English
Default : Yes
Forced : No
Скриншоты
Выпуск от 06.09.2015
Команда "Мастерицы" против команды "Всадницы".
Имя файла:100-1_2015_09_06.mkv
Продолжительность: 00:39:28
Видео: MPEG4 Video (H264), 720x416 (367:208), 1 920 Kbps, 25fps
Аудио: MPEG Audio, 48000Hz, stereo 128kbps
MediaInfo
General
Unique ID : 224530090122308619808809610175662547391 (0xA8EAEC224AB5C0AEACE51C9EB36861BF)
Complete name : E:\100-1_2015\100-1_2015_09_06.mkv
Format : Matroska
Format version : Version 2
File size : 590 MiB
Duration : 39mn 28s
Overall bit rate mode : Variable
Overall bit rate : 2 089 Kbps
Writing application : Lavf52.64.2
Writing library : Lavf52.64.2
Video
ID : 1
Format : AVC
Format/Info : Advanced Video Codec
Format profile : Main@L3.1
Format settings, CABAC : Yes
Format settings, ReFrames : 3 frames
Codec ID : V_MPEG4/ISO/AVC
Duration : 39mn 28s
Bit rate mode : Variable
Bit rate : 1 920 Kbps
Maximum bit rate : 9 500 Kbps
Width : 720 pixels
Height : 416 pixels
Display aspect ratio : 16:9
Original display aspect ratio : 16:9
Frame rate mode : Constant
Frame rate : 25.000 fps
Standard : PAL
Color space : YUV
Chroma subsampling : 4:2:0
Bit depth : 8 bits
Scan type : Interlaced
Scan order : Top Field First
Bits/(Pixel*Frame) : 0.256
Stream size : 542 MiB (92%)
Default : Yes
Forced : No
Color range : Limited
Audio
ID : 2
Format : MPEG Audio
Format version : Version 1
Format profile : Layer 2
Codec ID : A_MPEG/L2
Codec ID/Hint : MP2
Duration : 39mn 28s
Bit rate mode : Constant
Bit rate : 128 Kbps
Channel(s) : 2 channels
Sampling rate : 48.0 KHz
Compression mode : Lossy
Stream size : 36.1 MiB (6%)
Language : English
Default : Yes
Forced : No
Скриншоты
Выпуск от 13.09.2015
Команда "Люди с чердака" против команды "Ярмарка".
Имя файла:100-1_2015_09_13.mkv
Продолжительность: 00:39:19
Видео: MPEG4 Video (H264), 720x416 (367:208), 1 919 Kbps, 25fps
Аудио: MPEG Audio, 48000Hz, stereo 128kbps
MediaInfo
General
Unique ID : 299092365889974640010041560152259743531 (0xE103182802B380C90EF0F24F9028CF2B)
Complete name : E:\100-1_2015\100-1_2015_09_13.mkv
Format : Matroska
Format version : Version 2
File size : 588 MiB
Duration : 39mn 19s
Overall bit rate mode : Variable
Overall bit rate : 2 089 Kbps
Writing application : Lavf52.64.2
Writing library : Lavf52.64.2
Video
ID : 1
Format : AVC
Format/Info : Advanced Video Codec
Format profile : Main@L3.1
Format settings, CABAC : Yes
Format settings, ReFrames : 3 frames
Codec ID : V_MPEG4/ISO/AVC
Duration : 39mn 19s
Bit rate mode : Variable
Bit rate : 1 919 Kbps
Maximum bit rate : 9 500 Kbps
Width : 720 pixels
Height : 416 pixels
Display aspect ratio : 16:9
Original display aspect ratio : 16:9
Frame rate mode : Constant
Frame rate : 25.000 fps
Standard : PAL
Color space : YUV
Chroma subsampling : 4:2:0
Bit depth : 8 bits
Scan type : Interlaced
Scan order : Top Field First
Bits/(Pixel*Frame) : 0.256
Stream size : 540 MiB (92%)
Default : Yes
Forced : No
Color range : Limited
Audio
ID : 2
Format : MPEG Audio
Format version : Version 1
Format profile : Layer 2
Codec ID : A_MPEG/L2
Codec ID/Hint : MP2
Duration : 39mn 19s
Bit rate mode : Constant
Bit rate : 128 Kbps
Channel(s) : 2 channels
Sampling rate : 48.0 KHz
Compression mode : Lossy
Stream size : 36.0 MiB (6%)
Language : English
Default : Yes
Forced : No
Скриншоты
Выпуск от 20.09.2015
Команда "Нотариусы Москвы" против команды "Адвокаты Москвы".
Имя файла:100-1_2015_09_20.mkv
Продолжительность: 00:39:23
Видео: MPEG4 Video (H264), 720x416 (367:208), 1 919 Kbps, 25fps
Аудио: MPEG Audio, 48000Hz, stereo 128kbps
MediaInfo
General
Unique ID : 60473956373243833973379040965361794 (0xBA598A3B4532D1270FA50D3D10082)
Complete name : E:\100-1_2015\100-1_2015_09_20.mkv
Format : Matroska
Format version : Version 2
File size : 589 MiB
Duration : 39mn 23s
Overall bit rate mode : Variable
Overall bit rate : 2 089 Kbps
Writing application : Lavf52.64.2
Writing library : Lavf52.64.2
Video
ID : 1
Format : AVC
Format/Info : Advanced Video Codec
Format profile : Main@L3.1
Format settings, CABAC : Yes
Format settings, ReFrames : 3 frames
Codec ID : V_MPEG4/ISO/AVC
Duration : 39mn 23s
Bit rate mode : Variable
Bit rate : 1 919 Kbps
Maximum bit rate : 9 500 Kbps
Width : 720 pixels
Height : 416 pixels
Display aspect ratio : 16:9
Original display aspect ratio : 16:9
Frame rate mode : Constant
Frame rate : 25.000 fps
Standard : PAL
Color space : YUV
Chroma subsampling : 4:2:0
Bit depth : 8 bits
Scan type : Progressive
Bits/(Pixel*Frame) : 0.256
Stream size : 541 MiB (92%)
Default : Yes
Forced : No
Color range : Limited
Audio
ID : 2
Format : MPEG Audio
Format version : Version 1
Format profile : Layer 2
Codec ID : A_MPEG/L2
Codec ID/Hint : MP2
Duration : 39mn 23s
Bit rate mode : Constant
Bit rate : 128 Kbps
Channel(s) : 2 channels
Sampling rate : 48.0 KHz
Compression mode : Lossy
Stream size : 36.1 MiB (6%)
Language : English
Default : Yes
Forced : No
Скриншоты
Выпуск от 27.09.2015
Команда "Вахтанговцы" против команды "Гуманитарии".
Имя файла:100-1_2015_09_27.mkv
Продолжительность: 00:39:34
Видео: MPEG4 Video (H264), 720x416 (367:208), 1 919 Kbps, 25fps
Аудио: MPEG Audio, 48000Hz, stereo 128kbps
MediaInfo
General
Unique ID : 216491516758708895795504693233852843612 (0xA2DEBFDE208AE1826D90C1DFD543865C)
Complete name : E:\100-1_2015\100-1_2015_09_27.mkv
Format : Matroska
Format version : Version 2
File size : 591 MiB
Duration : 39mn 34s
Overall bit rate mode : Variable
Overall bit rate : 2 089 Kbps
Writing application : Lavf52.64.2
Writing library : Lavf52.64.2
Video
ID : 1
Format : AVC
Format/Info : Advanced Video Codec
Format profile : Main@L3.1
Format settings, CABAC : Yes
Format settings, ReFrames : 3 frames
Codec ID : V_MPEG4/ISO/AVC
Duration : 39mn 34s
Bit rate mode : Variable
Bit rate : 1 919 Kbps
Maximum bit rate : 9 500 Kbps
Width : 720 pixels
Height : 416 pixels
Display aspect ratio : 16:9
Original display aspect ratio : 16:9
Frame rate mode : Constant
Frame rate : 25.000 fps
Standard : PAL
Color space : YUV
Chroma subsampling : 4:2:0
Bit depth : 8 bits
Scan type : Progressive
Bits/(Pixel*Frame) : 0.256
Stream size : 543 MiB (92%)
Default : Yes
Forced : No
Color range : Limited
Audio
ID : 2
Format : MPEG Audio
Format version : Version 1
Format profile : Layer 2
Codec ID : A_MPEG/L2
Codec ID/Hint : MP2
Duration : 39mn 34s
Bit rate mode : Constant
Bit rate : 128 Kbps
Channel(s) : 2 channels
Sampling rate : 48.0 KHz
Compression mode : Lossy
Stream size : 36.2 MiB (6%)
Language : English
Default : Yes
Forced : No
Скриншоты
Выпуск от 04.10.2015
Команда "Агенты радости" против команды "Струны души".
Имя файла:100-1_2015_10_04.mkv
Продолжительность: 00:38:59
Видео: MPEG4 Video (H264), 720x416 (367:208), 1 919 Kbps, 25fps
Аудио: MPEG Audio, 48000Hz, stereo 128kbps
MediaInfo
General
Unique ID : 164322713837872866666303523522937366611 (0x7B9F674C95938E13CB7DD694F9102853)
Complete name : E:\100-1_2015\100-1_2015_10_04.mkv
Format : Matroska
Format version : Version 2
File size : 583 MiB
Duration : 38mn 59s
Overall bit rate mode : Variable
Overall bit rate : 2 089 Kbps
Writing application : Lavf52.64.2
Writing library : Lavf52.64.2
Video
ID : 1
Format : AVC
Format/Info : Advanced Video Codec
Format profile : Main@L3.1
Format settings, CABAC : Yes
Format settings, ReFrames : 3 frames
Codec ID : V_MPEG4/ISO/AVC
Duration : 38mn 59s
Bit rate mode : Variable
Bit rate : 1 919 Kbps
Maximum bit rate : 9 500 Kbps
Width : 720 pixels
Height : 416 pixels
Display aspect ratio : 16:9
Original display aspect ratio : 16:9
Frame rate mode : Constant
Frame rate : 25.000 fps
Standard : PAL
Color space : YUV
Chroma subsampling : 4:2:0
Bit depth : 8 bits
Scan type : Progressive
Bits/(Pixel*Frame) : 0.256
Stream size : 535 MiB (92%)
Default : Yes
Forced : No
Color range : Limited
Audio
ID : 2
Format : MPEG Audio
Format version : Version 1
Format profile : Layer 2
Codec ID : A_MPEG/L2
Codec ID/Hint : MP2
Duration : 38mn 59s
Bit rate mode : Constant
Bit rate : 128 Kbps
Channel(s) : 2 channels
Sampling rate : 48.0 KHz
Compression mode : Lossy
Stream size : 35.7 MiB (6%)
Language : English
Default : Yes
Forced : No
Скриншоты
Выпуск от 11.10.2015
Команда "Атлеты" против команды "Железные леди".
Имя файла:100-1_2015_10_11.mkv
Продолжительность: 00:39:24
Видео: MPEG4 Video (H264), 720x416 (367:208), 1 919 Kbps, 25fps
Аудио: MPEG Audio, 48000Hz, stereo 128kbps
MediaInfo
General
Unique ID : 191717295134971939304954124091902715882 (0x903B686FC983AE6ADF134F01A820E7EA)
Complete name : E:\100-1_2015\100-1_2015_10_11.mkv
Format : Matroska
Format version : Version 2
File size : 589 MiB
Duration : 39mn 24s
Overall bit rate mode : Variable
Overall bit rate : 2 089 Kbps
Writing application : Lavf52.64.2
Writing library : Lavf52.64.2
Video
ID : 1
Format : AVC
Format/Info : Advanced Video Codec
Format profile : Main@L3.1
Format settings, CABAC : Yes
Format settings, ReFrames : 3 frames
Codec ID : V_MPEG4/ISO/AVC
Duration : 39mn 24s
Bit rate mode : Variable
Bit rate : 1 919 Kbps
Maximum bit rate : 9 500 Kbps
Width : 720 pixels
Height : 416 pixels
Display aspect ratio : 16:9
Original display aspect ratio : 16:9
Frame rate mode : Constant
Frame rate : 25.000 fps
Standard : PAL
Color space : YUV
Chroma subsampling : 4:2:0
Bit depth : 8 bits
Scan type : Progressive
Bits/(Pixel*Frame) : 0.256
Stream size : 541 MiB (92%)
Default : Yes
Forced : No
Color range : Limited
Audio
ID : 2
Format : MPEG Audio
Format version : Version 1
Format profile : Layer 2
Codec ID : A_MPEG/L2
Codec ID/Hint : MP2
Duration : 39mn 24s
Bit rate mode : Constant
Bit rate : 128 Kbps
Channel(s) : 2 channels
Sampling rate : 48.0 KHz
Compression mode : Lossy
Stream size : 36.1 MiB (6%)
Language : English
Default : Yes
Forced : No
Скриншоты
Выпуск от 18.10.2015
Команда "Бульдозеристы" против команды "Влюбленные в кино".
Имя файла:100-1_2015_10_18.mkv
Продолжительность: 00:39:33
Видео: MPEG4 Video (H264), 720x416 (367:208), 1 919 Kbps, 25fps
Аудио: MPEG Audio, 48000Hz, stereo 128kbps
MediaInfo
General
Unique ID : 16603403426108405201721023009394322336 (0xC7DB2FDB419639481F2B69DBA78EBA0)
Complete name : E:\100-1_2015\100-1_2015_10_18.mkv
Format : Matroska
Format version : Version 2
File size : 591 MiB
Duration : 39mn 33s
Overall bit rate mode : Variable
Overall bit rate : 2 088 Kbps
Writing application : Lavf52.64.2
Writing library : Lavf52.64.2
Video
ID : 1
Format : AVC
Format/Info : Advanced Video Codec
Format profile : Main@L3.1
Format settings, CABAC : Yes
Format settings, ReFrames : 3 frames
Codec ID : V_MPEG4/ISO/AVC
Duration : 39mn 33s
Bit rate mode : Variable
Bit rate : 1 919 Kbps
Maximum bit rate : 9 500 Kbps
Width : 720 pixels
Height : 416 pixels
Display aspect ratio : 16:9
Original display aspect ratio : 16:9
Frame rate mode : Constant
Frame rate : 25.000 fps
Standard : PAL
Color space : YUV
Chroma subsampling : 4:2:0
Bit depth : 8 bits
Scan type : Progressive
Bits/(Pixel*Frame) : 0.256
Stream size : 543 MiB (92%)
Default : Yes
Forced : No
Color range : Limited
Audio
ID : 2
Format : MPEG Audio
Format version : Version 1
Format profile : Layer 2
Codec ID : A_MPEG/L2
Codec ID/Hint : MP2
Duration : 39mn 33s
Bit rate mode : Constant
Bit rate : 128 Kbps
Channel(s) : 2 channels
Sampling rate : 48.0 KHz
Compression mode : Lossy
Stream size : 36.2 MiB (6%)
Language : English
Default : Yes
Forced : No
Скриншоты
-

Зарегистрирован:
  • 27-Дек-15 08:40
  • Скачан: 562 раза

Скачать .torrent

60 KB

Тип: обычная
Статус: проверено
Размер: 23.07 GB  ·  magnet3DD39FD4A9DF07C1DB559C9A2B99B455ECE13CA1
  • Свернуть поддиректории
  • Развернуть
  • Переключить
  • Увел./умен. окно
загружается...

glot-trogg

Стаж: 10 лет 2 месяца

Сообщений: 66

flag

glot-trogg · 24-Май-15 09:22 (спустя 38 мин., ред. 06-Дек-15 07:34)

Как восстановить торрент в клиенте / как присоединиться к раздаче? .
Добавлен
Выпуск от 25.10.2015
Команда "Мы из мьюзикла" против команды "Брызги счастья".
Имя файла:100-1_2015_10_25.mkv
Продолжительность: 00:40:53
Видео: MPEG4 Video (H264), 720x416 (367:208), 1 919 Kbps, 25fps
Аудио: MPEG Audio, 48000Hz, stereo 128kbps
MediaInfo
General
Unique ID : 81592205177728627218742232835268806963 (0x3D62164D5E21E1D4918EEF1513DC0933)
Complete name : E:\100-1_2015\100-1_2015_10_25.mkv
Format : Matroska
Format version : Version 2
File size : 611 MiB
Duration : 40mn 53s
Overall bit rate mode : Variable
Overall bit rate : 2 089 Kbps
Writing application : Lavf52.64.2
Writing library : Lavf52.64.2
Video
ID : 1
Format : AVC
Format/Info : Advanced Video Codec
Format profile : Main@L3.1
Format settings, CABAC : Yes
Format settings, ReFrames : 3 frames
Codec ID : V_MPEG4/ISO/AVC
Duration : 40mn 53s
Bit rate mode : Variable
Bit rate : 1 919 Kbps
Maximum bit rate : 9 500 Kbps
Width : 720 pixels
Height : 416 pixels
Display aspect ratio : 16:9
Original display aspect ratio : 16:9
Frame rate mode : Constant
Frame rate : 25.000 fps
Standard : PAL
Color space : YUV
Chroma subsampling : 4:2:0
Bit depth : 8 bits
Scan type : Progressive
Bits/(Pixel*Frame) : 0.256
Stream size : 561 MiB (92%)
Default : Yes
Forced : No
Color range : Limited
Audio
ID : 2
Format : MPEG Audio
Format version : Version 1
Format profile : Layer 2
Codec ID : A_MPEG/L2
Codec ID/Hint : MP2
Duration : 40mn 53s
Bit rate mode : Constant
Bit rate : 128 Kbps
Channel(s) : 2 channels
Sampling rate : 48.0 KHz
Compression mode : Lossy
Stream size : 37.4 MiB (6%)
Language : English
Default : Yes
Forced : No
Скриншоты
Выпуск от 08.11.2015
Команда "Команда Байгали" против команды "Команда Коновалова".
Имя файла:100-1_2015_11_08.mkv
Продолжительность: 00:39:34
Видео: MPEG4 Video (H264), 720x416 (367:208), 1 920 Kbps, 25fps
Аудио: MPEG Audio, 48000Hz, stereo 128kbps
MediaInfo
General
Unique ID : 313578763981913318304411177838957151451 (0xEBE912B9CE4459AD421E0263310DC4DB)
Complete name : E:\100-1_2015\100-1_2015_11_08.mkv
Format : Matroska
Format version : Version 2
File size : 591 MiB
Duration : 39mn 34s
Overall bit rate mode : Variable
Overall bit rate : 2 089 Kbps
Writing application : Lavf52.64.2
Writing library : Lavf52.64.2
Video
ID : 1
Format : AVC
Format/Info : Advanced Video Codec
Format profile : Main@L3.1
Format settings, CABAC : Yes
Format settings, ReFrames : 3 frames
Codec ID : V_MPEG4/ISO/AVC
Duration : 39mn 34s
Bit rate mode : Variable
Bit rate : 1 920 Kbps
Maximum bit rate : 9 500 Kbps
Width : 720 pixels
Height : 416 pixels
Display aspect ratio : 16:9
Original display aspect ratio : 16:9
Frame rate mode : Constant
Frame rate : 25.000 fps
Standard : PAL
Color space : YUV
Chroma subsampling : 4:2:0
Bit depth : 8 bits
Scan type : Progressive
Bits/(Pixel*Frame) : 0.256
Stream size : 543 MiB (92%)
Default : Yes
Forced : No
Color range : Limited
Audio
ID : 2
Format : MPEG Audio
Format version : Version 1
Format profile : Layer 2
Codec ID : A_MPEG/L2
Codec ID/Hint : MP2
Duration : 39mn 34s
Bit rate mode : Constant
Bit rate : 128 Kbps
Channel(s) : 2 channels
Sampling rate : 48.0 KHz
Compression mode : Lossy
Stream size : 36.2 MiB (6%)
Language : English
Default : Yes
Forced : No
Скриншоты
Выпуск от 15.11.2015
Команда "Театриум" против команды "Квинтет".
Имя файла:100-1_2015_11_15.mkv
Продолжительность: 00:39:29
Видео: MPEG4 Video (H264), 720x416 (367:208), 1 919 Kbps, 25fps
Аудио: MPEG Audio, 48000Hz, stereo 128kbps
MediaInfo
General
Unique ID : 322965256786619848805963237272084075221 (0xF2F8D88D2D9615C0B327A4377770D2D5)
Complete name : E:\100-1_2015\100-1_2015_11_15.mkv
Format : Matroska
Format version : Version 2
File size : 590 MiB
Duration : 39mn 29s
Overall bit rate mode : Variable
Overall bit rate : 2 089 Kbps
Writing application : Lavf52.64.2
Writing library : Lavf52.64.2
Video
ID : 1
Format : AVC
Format/Info : Advanced Video Codec
Format profile : Main@L3.1
Format settings, CABAC : Yes
Format settings, ReFrames : 3 frames
Codec ID : V_MPEG4/ISO/AVC
Duration : 39mn 29s
Bit rate mode : Variable
Bit rate : 1 919 Kbps
Maximum bit rate : 9 500 Kbps
Width : 720 pixels
Height : 416 pixels
Display aspect ratio : 16:9
Original display aspect ratio : 16:9
Frame rate mode : Constant
Frame rate : 25.000 fps
Standard : PAL
Color space : YUV
Chroma subsampling : 4:2:0
Bit depth : 8 bits
Scan type : Interlaced
Scan order : Top Field First
Bits/(Pixel*Frame) : 0.256
Stream size : 542 MiB (92%)
Default : Yes
Forced : No
Color range : Limited
Audio
ID : 2
Format : MPEG Audio
Format version : Version 1
Format profile : Layer 2
Codec ID : A_MPEG/L2
Codec ID/Hint : MP2
Duration : 39mn 29s
Bit rate mode : Constant
Bit rate : 128 Kbps
Channel(s) : 2 channels
Sampling rate : 48.0 KHz
Compression mode : Lossy
Stream size : 36.2 MiB (6%)
Language : English
Default : Yes
Forced : No
Скриншоты
Выпуск от 22.11.2015
Команда "Хоккейная лига" против команды "Спортивная волна".
Имя файла:100-1_2015_11_22.mkv
Продолжительность: 00:39:09
Видео: MPEG4 Video (H264), 720x416 (367:208), 1 919 Kbps, 25fps
Аудио: MPEG Audio, 48000Hz, stereo 128kbps
MediaInfo
General
Unique ID : 338970451729682630618571352252502559746 (0xFF035596507F60B2FADDC5AEFB30CC02)
Complete name : E:\100-1_2015\100-1_2015_11_22.mkv
Format : Matroska
Format version : Version 2
File size : 585 MiB
Duration : 39mn 9s
Overall bit rate mode : Variable
Overall bit rate : 2 089 Kbps
Writing application : Lavf52.64.2
Writing library : Lavf52.64.2
Video
ID : 1
Format : AVC
Format/Info : Advanced Video Codec
Format profile : Main@L3.1
Format settings, CABAC : Yes
Format settings, ReFrames : 3 frames
Codec ID : V_MPEG4/ISO/AVC
Duration : 39mn 9s
Bit rate mode : Variable
Bit rate : 1 919 Kbps
Maximum bit rate : 9 500 Kbps
Width : 720 pixels
Height : 416 pixels
Display aspect ratio : 16:9
Original display aspect ratio : 16:9
Frame rate mode : Constant
Frame rate : 25.000 fps
Standard : PAL
Color space : YUV
Chroma subsampling : 4:2:0
Bit depth : 8 bits
Scan type : Interlaced
Scan order : Top Field First
Bits/(Pixel*Frame) : 0.256
Stream size : 538 MiB (92%)
Default : Yes
Forced : No
Color range : Limited
Audio
ID : 2
Format : MPEG Audio
Format version : Version 1
Format profile : Layer 2
Codec ID : A_MPEG/L2
Codec ID/Hint : MP2
Duration : 39mn 9s
Bit rate mode : Constant
Bit rate : 128 Kbps
Channel(s) : 2 channels
Sampling rate : 48.0 KHz
Compression mode : Lossy
Stream size : 35.9 MiB (6%)
Language : English
Default : Yes
Forced : No
Скриншоты
Выпуск от 29.11.2015
Команда "Здоровье и движение" против команды "АИФ-".
Имя файла:100-1_2015_11_29.mkv
Продолжительность: 00:39:30
Видео: MPEG4 Video (H264), 720x416 (367:208), 1 919 Kbps, 25fps
Аудио: MPEG Audio, 48000Hz, stereo 128kbps
MediaInfo
General
Unique ID : 172799964980254791449181568143405824688 (0x8200100CBE64E39FD7C194BC06FF3AB0)
Complete name : E:\100-1_2015\100-1_2015_11_29.mkv
Format : Matroska
Format version : Version 2
File size : 590 MiB
Duration : 39mn 30s
Overall bit rate mode : Variable
Overall bit rate : 2 089 Kbps
Writing application : Lavf52.64.2
Writing library : Lavf52.64.2
Video
ID : 1
Format : AVC
Format/Info : Advanced Video Codec
Format profile : Main@L3.1
Format settings, CABAC : Yes
Format settings, ReFrames : 3 frames
Codec ID : V_MPEG4/ISO/AVC
Duration : 39mn 30s
Bit rate mode : Variable
Bit rate : 1 919 Kbps
Maximum bit rate : 9 500 Kbps
Width : 720 pixels
Height : 416 pixels
Display aspect ratio : 16:9
Original display aspect ratio : 16:9
Frame rate mode : Constant
Frame rate : 25.000 fps
Standard : PAL
Color space : YUV
Chroma subsampling : 4:2:0
Bit depth : 8 bits
Scan type : Interlaced
Scan order : Top Field First
Bits/(Pixel*Frame) : 0.256
Stream size : 542 MiB (92%)
Default : Yes
Forced : No
Color range : Limited
Audio
ID : 2
Format : MPEG Audio
Format version : Version 1
Format profile : Layer 2
Codec ID : A_MPEG/L2
Codec ID/Hint : MP2
Duration : 39mn 30s
Bit rate mode : Constant
Bit rate : 128 Kbps
Channel(s) : 2 channels
Sampling rate : 48.0 KHz
Compression mode : Lossy
Stream size : 36.2 MiB (6%)
Language : English
Default : Yes
Forced : No
Скриншоты

glot-trogg

Стаж: 10 лет 2 месяца

Сообщений: 66

flag

glot-trogg · 23-Авг-15 12:58 (спустя 2 месяца 30 дней, ред. 27-Дек-15 08:37)

Добавлен
Выпуск от 06.12.2015
Команда "Утро России" против команды "Москва 24".
Имя файла:100-1_2015_12_06.mkv
Продолжительность: 00:38:53
Видео: MPEG4 Video (H264), 720x416 (367:208), 1 893 Kbps, 25fps
Аудио: MPEG Audio, 48000Hz, stereo 128kbps
MediaInfo
General
Unique ID : 96683939324570652324509149588617605070 (0x48BCA63E55AA1CECDA9376422326AFCE)
Complete name : E:\100-1_2015\100-1_2015_12_06.mkv
Format : Matroska
Format version : Version 2
File size : 574 MiB
Duration : 38mn 53s
Overall bit rate mode : Variable
Overall bit rate : 2 062 Kbps
Writing application : Lavf52.64.2
Writing library : Lavf52.64.2
Video
ID : 1
Format : AVC
Format/Info : Advanced Video Codec
Format profile : Main@L3.1
Format settings, CABAC : Yes
Format settings, ReFrames : 3 frames
Codec ID : V_MPEG4/ISO/AVC
Duration : 38mn 53s
Bit rate mode : Variable
Bit rate : 1 893 Kbps
Maximum bit rate : 9 500 Kbps
Width : 720 pixels
Height : 416 pixels
Display aspect ratio : 16:9
Original display aspect ratio : 16:9
Frame rate mode : Constant
Frame rate : 25.000 fps
Standard : PAL
Color space : YUV
Chroma subsampling : 4:2:0
Bit depth : 8 bits
Scan type : Interlaced
Scan order : Top Field First
Bits/(Pixel*Frame) : 0.253
Stream size : 527 MiB (92%)
Default : Yes
Forced : No
Color range : Limited
Audio
ID : 2
Format : MPEG Audio
Format version : Version 1
Format profile : Layer 2
Codec ID : A_MPEG/L2
Codec ID/Hint : MP2
Duration : 38mn 53s
Bit rate mode : Constant
Bit rate : 128 Kbps
Channel(s) : 2 channels
Sampling rate : 48.0 KHz
Compression mode : Lossy
Stream size : 35.6 MiB (6%)
Language : English
Default : Yes
Forced : No
Скриншоты
Выпуск от 13.12.2015
Команда "Около дома" против команды "В нескучном саду".
Имя файла:100-1_2015_12_13.mkv
Продолжительность: 00:39:34
Видео: MPEG4 Video (H264), 720x416 (367:208), 1 920 Kbps, 25fps
Аудио: MPEG Audio, 48000Hz, stereo 128kbps
MediaInfo
General
Unique ID : 324433890771230041833000617339772158607 (0xF413B1CC21742364EF834635CFD7428F)
Complete name : E:\100-1_2015\100-1_2015_12_13.mkv
Format : Matroska
Format version : Version 2
File size : 591 MiB
Duration : 39mn 34s
Overall bit rate mode : Variable
Overall bit rate : 2 089 Kbps
Writing application : Lavf52.64.2
Writing library : Lavf52.64.2
Video
ID : 1
Format : AVC
Format/Info : Advanced Video Codec
Format profile : Main@L3.1
Format settings, CABAC : Yes
Format settings, ReFrames : 3 frames
Codec ID : V_MPEG4/ISO/AVC
Duration : 39mn 34s
Bit rate mode : Variable
Bit rate : 1 920 Kbps
Maximum bit rate : 9 500 Kbps
Width : 720 pixels
Height : 416 pixels
Display aspect ratio : 16:9
Original display aspect ratio : 16:9
Frame rate mode : Constant
Frame rate : 25.000 fps
Standard : PAL
Color space : YUV
Chroma subsampling : 4:2:0
Bit depth : 8 bits
Scan type : Interlaced
Scan order : Top Field First
Bits/(Pixel*Frame) : 0.256
Stream size : 543 MiB (92%)
Default : Yes
Forced : No
Color range : Limited
Audio
ID : 2
Format : MPEG Audio
Format version : Version 1
Format profile : Layer 2
Codec ID : A_MPEG/L2
Codec ID/Hint : MP2
Duration : 39mn 34s
Bit rate mode : Constant
Bit rate : 128 Kbps
Channel(s) : 2 channels
Sampling rate : 48.0 KHz
Compression mode : Lossy
Stream size : 36.2 MiB (6%)
Language : English
Default : Yes
Forced : No
Скриншоты
Выпуск от 20.12.2015
Команда "Москва ФМ 92.0" против команды "Радио Маяк".
Имя файла:100-1_2015_12_20.mkv
Продолжительность: 00:39:21
Видео: MPEG4 Video (H264), 720x416 (367:208), 1 919 Kbps, 25fps
Аудио: MPEG Audio, 48000Hz, stereo 128kbps
MediaInfo
General
Unique ID : 21501739512310611520917408563577059959 (0x102D159B20CCBAED161ACA126AE97A77)
Complete name : E:\100-1_2015\100-1_2015_12_20.mkv
Format : Matroska
Format version : Version 2
File size : 588 MiB
Duration : 39mn 21s
Overall bit rate mode : Variable
Overall bit rate : 2 088 Kbps
Writing application : Lavf52.64.2
Writing library : Lavf52.64.2
Video
ID : 1
Format : AVC
Format/Info : Advanced Video Codec
Format profile : Main@L3.1
Format settings, CABAC : Yes
Format settings, ReFrames : 3 frames
Codec ID : V_MPEG4/ISO/AVC
Duration : 39mn 21s
Bit rate mode : Variable
Bit rate : 1 919 Kbps
Maximum bit rate : 9 500 Kbps
Width : 720 pixels
Height : 416 pixels
Display aspect ratio : 16:9
Original display aspect ratio : 16:9
Frame rate mode : Constant
Frame rate : 25.000 fps
Standard : PAL
Color space : YUV
Chroma subsampling : 4:2:0
Bit depth : 8 bits
Scan type : Interlaced
Scan order : Top Field First
Bits/(Pixel*Frame) : 0.256
Stream size : 540 MiB (92%)
Default : Yes
Forced : No
Color range : Limited
Audio
ID : 2
Format : MPEG Audio
Format version : Version 1
Format profile : Layer 2
Codec ID : A_MPEG/L2
Codec ID/Hint : MP2
Duration : 39mn 21s
Bit rate mode : Constant
Bit rate : 128 Kbps
Channel(s) : 2 channels
Sampling rate : 48.0 KHz
Compression mode : Lossy
Stream size : 36.0 MiB (6%)
Language : English
Default : Yes
Forced : No
Скриншоты
Выпуск от 27.12.2015
Команда "VESTI.RU+RUSSIA.TV" против команды "FINANCE+FILM".
Имя файла:100-1_2015_12_27.mkv
Продолжительность: 00:38:52
Видео: MPEG4 Video (H264), 720x416 (367:208), 1 919 Kbps, 25fps
Аудио: MPEG Audio, 48000Hz, stereo 128kbps
MediaInfo
General
Unique ID : 321804900239704970102779947925729308589 (0xF2195E8E85BD1E9ED10C3A2C247DEFAD)
Complete name : E:\100-1_2015\100-1_2015_12_27.mkv
Format : Matroska
Format version : Version 2
File size : 581 MiB
Duration : 38mn 52s
Overall bit rate mode : Variable
Overall bit rate : 2 089 Kbps
Writing application : Lavf52.64.2
Writing library : Lavf52.64.2
Video
ID : 1
Format : AVC
Format/Info : Advanced Video Codec
Format profile : Main@L3.1
Format settings, CABAC : Yes
Format settings, ReFrames : 3 frames
Codec ID : V_MPEG4/ISO/AVC
Duration : 38mn 52s
Bit rate mode : Variable
Bit rate : 1 919 Kbps
Maximum bit rate : 9 500 Kbps
Width : 720 pixels
Height : 416 pixels
Display aspect ratio : 16:9
Original display aspect ratio : 16:9
Frame rate mode : Constant
Frame rate : 25.000 fps
Standard : PAL
Color space : YUV
Chroma subsampling : 4:2:0
Bit depth : 8 bits
Scan type : Interlaced
Scan order : Top Field First
Bits/(Pixel*Frame) : 0.256
Stream size : 534 MiB (92%)
Default : Yes
Forced : No
Color range : Limited
Audio
ID : 2
Format : MPEG Audio
Format version : Version 1
Format profile : Layer 2
Codec ID : A_MPEG/L2
Codec ID/Hint : MP2
Duration : 38mn 52s
Bit rate mode : Constant
Bit rate : 128 Kbps
Channel(s) : 2 channels
Sampling rate : 48.0 KHz
Compression mode : Lossy
Stream size : 35.6 MiB (6%)
Language : English
Default : Yes
Forced : No
Скриншоты

senjik

Стаж: 3 года 2 месяца

Сообщений: 1

flag

senjik · 04-Окт-15 09:43 (спустя 1 месяц 11 дней)

Спасибо за ваш труд! какой программой кодируете видео?

glot-trogg

Стаж: 10 лет 2 месяца

Сообщений: 66

flag

glot-trogg · 15-Ноя-15 08:43 (спустя 1 месяц 10 дней)

Добавлен 15.11.2015.
Веселые команды, игра удалась

SaF

Стаж: 12 лет 2 месяца

Сообщений: 554

flag

SaF · 22-Ноя-15 10:41 (спустя 7 дней)

Спасибо большущее! Щас смотреть буду, а то никак не могу по ящику посмотреть...
Ну нельзя же так тупить!!!

glot-trogg

Стаж: 10 лет 2 месяца

Сообщений: 66

flag

glot-trogg · 22-Ноя-15 16:37 (спустя 5 часов)

Пожалста! Последние очень хорошие, когда люди на программе адекватные и хорошие

glot-trogg

Стаж: 10 лет 2 месяца

Сообщений: 66

flag

glot-trogg · 07-Дек-15 18:04 (спустя 15 дней)

Ирель писал(а):
69448914Ура! Спасибо, что добавили сегодняшний выпуск!
Скоро и пребудут, настанет Нас Всех поздравят, надарят кучу подарков Ктото картинки в Фотошопе или в Пайнте сделает, ктот прийдет в костюме Героя, почти как Супер ( - это принцесса Лея Органа ) И потом мы все будем
Потому, что. Ну, Вы сами знаете. Наш дом - не разрушить.

maxmar8062

Стаж: 8 лет 8 месяцев

Сообщений: 299

flag

maxmar8062 · 10-Дек-15 17:43 (спустя 2 дня 23 часа, ред. 10-Дек-15 17:43)

Спасибки за труды. Собрать выпуски, вырезать рекламу - большое дело. Помню времена без интернета, да и компы были на уровне калькуляторов. Так что записывалось всё на видак, счастье, у кого он был, надо было сидеть пасти рекламу, чтобы выключить запись на это время, потом менялись кассетами. А в те времена, когда рекламы ещё не было, видик был один на весь двор, и то по чистой случайности родители у паренька купили за 1500 рублей, или даже больше, что в начале восьмидесятых было просто астрономической суммой. Так что процесс обмена каким либо видео был затруднителен, я бы даже сказал невозможен. Сейчас, конечно, с компьютером и интернетом всё намного проще, но всё же.
Что касается 100 к 1, то это одна из лучших развлекательных, и даже интеллектуальных на нашем телевидении. И что немаловажно - она всевозрастная. Так что еще раз спасибки за раздачу.

maxmar8062

Стаж: 8 лет 8 месяцев

Сообщений: 299

flag

maxmar8062 · 14-Дек-15 18:14 (спустя 4 дня, ред. 14-Дек-15 18:14)

Ещё выпуск добавился. Замечтательно. Спасибо.
Где б, вот, весь архив найти, да за двадцать лет. Да в одной раздаче.
Ведь игра двадцать лет назад, игра десятилетней давности и игра сейчас - три совершенно разные передачи. Даже люди себя по другому вели, даже думали по другому. Это не значит лучше, а просто - по другому. Ведь многого тогда ещё просто не было - тех же сотовых, например. Нет, вру. Были - у Малдера и Скалли.
Самые первые выпуски были у меня на видеокассетах, но они ушли в небытие, вместе с видиком, короче я их прое...
А вот сейчас бы их оцифровать... Но, как говорится: мечтать не вредно.
А в следующем году тема будет продолжена?

problem_child

Стаж: 9 лет 6 месяцев

Сообщений: 464

problem_child · 15-Дек-15 18:58 (спустя 1 день)

maxmar8062 писал(а):
69516844и игра сейчас
Гуревич стал чаще подсказывать.
maxmar8062 писал(а):
69516844Где б, вот, весь архив найти, да за двадцать лет.?
В "Останкино".
Американский форум: ты задаёшь вопрос, тебе отвечают.
Еврейский форум: ты задаёшь вопрос, тебе задают вопрос.
Русский форум: ты задаёшь вопрос, тебе час рассказывают какой ты дурак.
IP есть - IQ не надо.

maxmar8062

Стаж: 8 лет 8 месяцев

Сообщений: 299

flag

maxmar8062 · 15-Дек-15 19:12 (спустя 14 мин.)

problem_child
Про "Останкино", ха - ха, не сомневался, конечно.
А у Гуревича ещё и настроение скачет. Он может мило улыбаться и смеяться, а через секунду рычит на того же игрока. И любой команде он так же сначала помогает, потом валит. Но это его профессионализм. А делает он это для того, чтобы к "игре наоборот" счет был как можно более равным. Чтобы интрига была. Чтоб нам же было интереснее.

Mit'k@

Top Seed 02* 80r

Стаж: 10 лет 3 месяца

Сообщений: 2025

flag

Mit'k@ · 15-Дек-15 20:17 (спустя 1 час 4 мин., ред. 15-Дек-15 20:17)

Кто-нибудь бы статистику игр нашёл по периоду 1995-2002 г.г. (кто играл, какой счёт и т.д.), было бы вообще здорово))

maxmar8062

Стаж: 8 лет 8 месяцев

Сообщений: 299

flag

maxmar8062 · 15-Дек-15 20:30 (спустя 13 мин.)

Mit'k@
А зачем? Тут весь смак в процессе. Это видеть надо. А сухие цифры... Это ж тебе не футбол.

Mit'k@

Top Seed 02* 80r

Стаж: 10 лет 3 месяца

Сообщений: 2025

flag

Mit'k@ · 15-Дек-15 22:48 (спустя 2 часа 17 мин., ред. 15-Дек-15 22:48)

maxmar8062
да я просто собирал статистику, записывал вопросы и ответы в период 1998-2002 г.г., а потом вот взял и выкинул за ненадобностью, о чём жалею, разумеется.. Вот хотел бы восстановить хотя бы команды и результаты.
Хочется, конечно, процесс видеть, как и в футболе, жаль вот, что нет видео в хорошем качестве до 2000 года. И чтобы было много выпусков самого раннего периода

maxmar8062

Стаж: 8 лет 8 месяцев

Сообщений: 299

flag

maxmar8062 · 15-Дек-15 22:57 (спустя 9 мин., ред. 15-Дек-15 22:57)

Mit'k@
Что имеем не храним. Потерявши - плачем. А к чему такая скурпулёзность со статистикой? Для потомков?

Mit'k@

Top Seed 02* 80r

Стаж: 10 лет 3 месяца

Сообщений: 2025

flag

Mit'k@ · 15-Дек-15 23:15 (спустя 17 мин., ред. 15-Дек-15 23:15)

maxmar8062
это точно. Да для себя, для того, чтобы вспомнить хорошее время))
Можно и для других.

maxmar8062

Стаж: 8 лет 8 месяцев

Сообщений: 299

flag

maxmar8062 · 16-Дек-15 00:00 (спустя 45 мин., ред. 16-Дек-15 00:00)

Mit'k@
Да ладно. Мало ли других напоминалок в жизни. Те же потомки, например. А фотки, а семейный видеоархив? Всего этого нет разве что у совсем ленивого. А как в своё время отвечали на тот, или иной вопрос ты и сам не забудешь. Поверь. Конечно, если альцгеймер не посетит.
Кстати, насчёт Жуй в рот вам, а не блокировка рутрекера! полностью солидарен.
 
All rights reserved © 2017-2018
Loading...
Error