Свидетель / The Witness / Wo shi zheng ren (Сан-Хун Ан / Sang-hoon Ahn) [2015, Китай, боевик, криминал, драма, HDTV 1080p] MVO (STEPonee) + DVO (SoftBox) + Original (Chi)

Статистика раздачи
Размер:  5.08 GB   |   Зарегистрирован:  2 года 9 месяцев   |   .torrent скачан:  380 раз
Сиды:  2
Автор
Сообщение

G00ba

RG Orient Extreme

Стаж: 7 лет 5 месяцев

Сообщений: 4819

G00ba · 15-Фев-16 10:48 (2 года 10 месяцев назад, ред. 27-Фев-16 06:03)

 

Свидетель / The Witness / Wo shi zheng ren Страна: Китай
Жанр: боевик, криминал, драма
Год выпуска: 2015
Продолжительность: 01:51:49
Перевод:
  1. Любительский (многоголосый закадровый) STEPonee // Перевод: ФСГ 'Asian Shows Subbing Squad'
  2. Любительский (двухголосый закадровый) SoftBox // Перевод: [WAO] We Are One
Субтитры: английские (хардсаб), китайские (хардсаб), русские (форсированные на песни)
Оригинальная аудиодорожка: китайский
Режиссер: Сан-Хун Ан / Sang-hoon Ahn
В ролях: Лу Хань, Цзинчунь Ванг, Ми Ян, Явэнь Чжу
Описание:
Молодая студентка университета в автокатастрофе теряет брата и зрение. Однажды, она садится в такси, водитель которого сбивает кого-то по дороге. Свидетелем ДТП был молодой человек, однако его показания сильно отличаются от показаний слепой девушки…
Данный фильм основан на событиях описанных в корейском фильме "Слепая", 2011 года.


Релиз группы:

Тип релиза: HDTV 1080p

Контейнер: MKV
Видео: AVC (x264), 1920x832 (2.35:1) at 25,000 fps, 5796 Кbps
Аудио 1: AC3; 192 Kbps; CBR; 2 ch; 48 khz | MVO - STEPonee |
Аудио 2: AC3; 192 Kbps; CBR; 2 ch; 48 khz | DVO - SoftBox |
Аудио 3: AC3; 192 Kbps; CBR; 2 ch; 48 khz | Китайский |
Формат субтитров: hardsub; softsub (SSA/ASS);
СМОТРЕТЬ ОНЛАЙН
Скриншоты || x264 Info || MediaInfo || Notes
MediaInfo
Код:
General
Unique ID                                : 197593533723223909792428932843978864131 (0x94A7215E0F3DAF51A7CE74BF385BB603)
Complete name                            : Свидетель.2015.MVO.1080p.HDTV.x264.mkv
Format                                   : Matroska
Format version                           : Version 4 / Version 2
File size                                : 5.08 GiB
Duration                                 : 1h 51mn
Overall bit rate                         : 6 502 Kbps
Movie name                               : The Witness [2015] [1080p] DVO
Encoded date                             : UTC 2016-02-23 01:02:23
Writing application                      : mkvmerge v7.8.0 ('River Man') 32bit built on Mar 27 2015 16:18:02
Writing library                          : libebml v1.3.1 + libmatroska v1.4.2
Video
ID                                       : 1
Format                                   : AVC
Format/Info                              : Advanced Video Codec
Format profile                           : High@L4.0
Format settings, CABAC                   : Yes
Format settings, ReFrames                : 4 frames
Codec ID                                 : V_MPEG4/ISO/AVC
Duration                                 : 1h 51mn
Bit rate                                 : 5 796 Kbps
Width                                    : 1 920 pixels
Height                                   : 832 pixels
Display aspect ratio                     : 2.35:1
Frame rate mode                          : Constant
Frame rate                               : 25.000 fps
Color space                              : YUV
Chroma subsampling                       : 4:2:0
Bit depth                                : 8 bits
Scan type                                : Progressive
Bits/(Pixel*Frame)                       : 0.145
Stream size                              : 4.53 GiB (89%)
Title                                    : profile.php?mode=viewprofile&u=22488948 || RG Orient Extreme Films
Language                                 : Chinese
Default                                  : Yes
Forced                                   : No
Audio #1
ID                                       : 2
Format                                   : AC-3
Format/Info                              : Audio Coding 3
Mode extension                           : CM (complete main)
Format settings, Endianness              : Big
Codec ID                                 : A_AC3
Duration                                 : 1h 51mn
Bit rate mode                            : Constant
Bit rate                                 : 192 Kbps
Channel(s)                               : 2 channels
Channel positions                        : Front: L R
Sampling rate                            : 48.0 KHz
Bit depth                                : 16 bits
Compression mode                         : Lossy
Stream size                              : 154 MiB (3%)
Title                                    : MVO [STEPonee]
Language                                 : Russian
Default                                  : Yes
Forced                                   : No
Audio #2
ID                                       : 3
Format                                   : AC-3
Format/Info                              : Audio Coding 3
Mode extension                           : CM (complete main)
Format settings, Endianness              : Big
Codec ID                                 : A_AC3
Duration                                 : 1h 51mn
Bit rate mode                            : Constant
Bit rate                                 : 192 Kbps
Channel(s)                               : 2 channels
Channel positions                        : Front: L R
Sampling rate                            : 48.0 KHz
Bit depth                                : 16 bits
Compression mode                         : Lossy
Stream size                              : 154 MiB (3%)
Title                                    : DVO [SoftBox]
Language                                 : Russian
Default                                  : No
Forced                                   : No
Audio #3
ID                                       : 5
Format                                   : AC-3
Format/Info                              : Audio Coding 3
Mode extension                           : CM (complete main)
Format settings, Endianness              : Big
Codec ID                                 : A_AC3
Duration                                 : 1h 51mn
Bit rate mode                            : Constant
Bit rate                                 : 192 Kbps
Channel(s)                               : 2 channels
Channel positions                        : Front: L R
Sampling rate                            : 48.0 KHz
Bit depth                                : 16 bits
Compression mode                         : Lossy
Stream size                              : 154 MiB (3%)
Language                                 : Chinese
Default                                  : No
Forced                                   : No
Text
ID                                       : 4
Format                                   : ASS
Codec ID                                 : S_TEXT/ASS
Codec ID/Info                            : Advanced Sub Station Alpha
Compression mode                         : Lossless
Title                                    : forced songs
Language                                 : Russian
Default                                  : Yes
Forced                                   : No
Цитата:

Аудио дорожка №1 взята с этой раздачи, thx: Recitant
Аудио дорожка №2 взята с этой раздачи, thx: qosta mc

STEPonee - роли озвучивали: Натиа Макаридзе, Юрий Балякин, Илья Хайко, Ксения Емшенецкая, Архелон
SoftBox - роли озвучивали: Akonya, Prince Lemon

Зарегистрирован:
  • 23-Фев-16 04:23
  • Скачан: 380 раз

Скачать .torrent

13 KB

Тип: обычная
Статус: проверено
Размер: 5.08 GB  ·  magnet3A2F063FE7B9B39CF7C13A7ED02ACF2FF852CF1F
  • Свернуть поддиректории
  • Развернуть
  • Переключить
  • Увел./умен. окно
загружается...
Мисс Таггарт, кто такой Джон Голт? (E1 & E2)Когда миссия подходит к концу - даже беспредел допускается

stark75

Стаж: 8 лет 5 месяцев

Сообщений: 361

flag

stark75 · 20-Мар-16 20:55 (спустя 1 месяц 5 дней)

`
Посредственная постановка, от "дружественных китайцев"...лучше им про кунг-фу снимать, а серьёзное кино оставить соседям-корейцам.

ogneja

Стаж: 9 лет 2 месяца

Сообщений: 206

flag

ogneja · 01-Июн-16 12:22 (спустя 2 месяца 11 дней)

Это, конечно, всё просто смешно, надуманно и очень неправдоподобно. Не по зубам такие триллеры режиссёру. За релиз спасибо!

LongKick64

Стаж: 2 года 11 месяцев

Сообщений: 66

LongKick64 · 29-Мар-17 23:37 (спустя 9 месяцев)

Сильный фильм! Режиссер, к слову так же снявший оригинальную корейскую версию в 2011 году, хорошо поработал над ошибками и в итоге мы имеем классный триллер, после просмотра которого есть над чем призадуматься. В новом фильме лучше почти все! Внешность актеров более запоминающееся и яркая, да и играют они на порядок лучше своих корейских коллег по цеху, один инспектор полиции чего только стоит. В оригинале какая-то заросшая обезьянка, которая только и умеет, что кривляться на камеру, а в новом фильме вполне себе харизматичный, сильный и одновременно веселый персонаж. Намного лучше прописан персонаж главного злодея, в отличии от оригинала, где нам показывают какое-то безжалостное животное которое только то и делает, что мочит да насилует всех на право и налево, в новом фильме главный злодей имеет вполне обоснованную мотивацию всех своих злодеяний. Очень понравился визуальный ряд и операторская работа, корейская версия здесь и рядом не лежала. Например, сцена погони злодея за парнем на байки получилась очень классной и запоминающейся, как в визуальном плане, так и по части атмосферы. Музыка в новом фильме тоже на высоте! Мелодии великолепные и запоминающиеся, чего я не могу сказать про оригинал. В общем, новый фильм получился во всем лучше своего предшественника, настоятельно рекомендую к просмотру всем любителям жанра.
8 из 10

LongKick64

Стаж: 2 года 11 месяцев

Сообщений: 66

LongKick64 · 31-Мар-18 05:07 (спустя 1 год, ред. 31-Мар-18 05:07)

Может раздаст кто-то? Давно смотрел, классный фильм, хочу пересмотреть, а никто не сидирует.

Киба

Стаж: 5 лет 11 месяцев

Сообщений: 37

flag

Киба · 14-Ноя-18 14:20 (спустя 7 месяцев)

Встаньте на раздачу, пожалуйста.
 
All rights reserved © 2017-2018
Loading...
Error