Карточный домик / House of Cards / Сезон: 1 / Серии: 1-13 из 13 (Джеймс Фоули, Дэвид Финчер, Карл Франклин) [2013, США, Политическая драма, HDTV 1080i] MVO (Первый канал)

Статистика раздачи
Размер:  41.11 GB   |   Зарегистрирован:  2 года 8 месяцев   |   .torrent скачан:  19,506 раз
Сиды:  37   Личи:  22
Автор
Сообщение

Baiker2

Стаж: 10 лет 2 месяца

Сообщений: 61


Baiker2 · 22-Фев-16 15:47 (2 года 8 месяцев назад, ред. 23-Фев-16 00:00)

 

Карточный домик / House of Cards
Год выпуска: 2013
Страна: США
Жанр: Политическая драма
Продолжительность: 00:49:00
Перевод: Профессиональный (многоголосый закадровый) Первый канал
Режиссёр: Джеймс Фоули, Дэвид Финчер, Карл Франклин
В ролях: Кевин Спейси, Робин Райт, Кейт Мара, Кори Столл, Майкл Келли, Сакина Джаффри, Ларри Пайн, Джейн Эткинсон, Кевин Килнер, Жаклин Джонс, Рюэл Пендлтон, Гилберт Сото, Кристен Коннолли, Сандрин Холт, Махершала Али, Майкл Гилл, Рэйчел Броснахэн, Бен Дэниелс, Тони Сайпресс, Констанс Зиммер
Описание: Амбициозный конгрессмен от Демократической партии Фрэнк Андервуд в обмен на обещание сделать его госсекретарём помогает Гаррету Уокеру стать президентом США. Однако после выборов глава администрации президента Линда Васкез сообщает Андервуду, что он не получит должность. Взбешенные предательством Фрэнк и его жена готовы пойти на всё, чтобы отомстить новоиспечённому президенту.
Доп. информация: HDCLUB. Nez
Ссылка на предыдущие и альтернативные раздачи: http://GOSTRACKER.XYZ/tracker.php?f=2366,189,842&nm=house+of+cards
Сэмпл: https://yadi.sk/i/mtdx6ehtpKntL
Качество: HDTV 1080i
Контейнер: TS
Видео: 1920x1080 at 25 fps, MPEG-4 AVC, ~ 8 577 Kbps avg
Аудио: Russian; AC3; 48 kHz, 384 Kbps; CBR; 2 ch (Многоголосый закадровый, Первый канал)
Субтитры: нет
MediaInfo
General
ID : 1 (0x1)
Complete name : House.of.Cards.S01E01.1080i.HDTV.Rus.HDCLUB.ts
Format : MPEG-TS
File size : 3.43 GiB
Duration : 52mn 7s
Overall bit rate mode : Variable
Overall bit rate : 9 431 Kbps
Video
ID : 101 (0x65)
Menu ID : 1 (0x1)
Format : AVC
Format/Info : Advanced Video Codec
Format profile : High@L4
Format settings, CABAC : Yes
Format settings, ReFrames : 3 frames
Codec ID : 27
Duration : 52mn 7s
Bit rate : 8 577 Kbps
Width : 1 920 pixels
Height : 1 080 pixels
Display aspect ratio : 16:9
Frame rate : 25.000 fps
Standard : Component
Color space : YUV
Chroma subsampling : 4:2:0
Bit depth : 8 bits
Scan type : Interlaced
Scan order : Top Field First
Bits/(Pixel*Frame) : 0.165
Stream size : 3.12 GiB (91%)
Color range : Limited
Color primaries : BT.709
Transfer characteristics : BT.709
Matrix coefficients : BT.709
Audio
ID : 111 (0x6F)
Menu ID : 1 (0x1)
Format : AC-3
Format/Info : Audio Coding 3
Mode extension : CM (complete main)
Format settings, Endianness : Big
Codec ID : 6
Duration : 52mn 7s
Bit rate mode : Constant
Bit rate : 384 Kbps
Channel(s) : 2 channels
Channel positions : Front: L R
Sampling rate : 48.0 KHz
Compression mode : Lossy
Stream size : 143 MiB (4%)
Language : Russian
Скриншоты
Зарегистрирован:
  • 22-Фев-16 15:47
  • Скачан: 19,506 раз

Скачать .torrent

104 KB

Тип: обычная
Статус: проверено
Размер: 41.11 GB  ·  magnet103EDBC89221D796BAEC19F747D89B3FEA5A7952
  • Свернуть поддиректории
  • Развернуть
  • Переключить
  • Увел./умен. окно
загружается...

qqss44

Moderator

Стаж: 9 лет 3 месяца

Сообщений: 5496

qqss44 · 22-Фев-16 17:16 (спустя 1 час 28 мин., ред. 22-Фев-16 17:16)

Baiker2
Укажите, пожалуйста, правильную частоту кадров у видео (fps), и частоту дискретизации у аудио (KHz)
Скриншоты должны быть в виде превью. Размер превью не более 300 пикс. по ширине.
Как залить картинку на бесплатный хост для отображения её в сообщении
Сэмпл должен быть в том же формате, что и файл.
Как сделать сэмпл

Зачем HDTV когда уже давно есть BDRip?

Изучите правила получше. В других раздачах у вас название РГ содержит доменное имя (TV), это запрещено. И со скриншотами такая же картина.

Baiker2

Стаж: 10 лет 2 месяца

Сообщений: 61


Baiker2 · 23-Фев-16 00:01 (спустя 6 часов)

qqss44
Частоту кадров и дискретизации указал, скриншоты и видео-семпл переделал.

SeregaV80

Стаж: 7 лет 1 месяц

Сообщений: 1

flag

SeregaV80 · 01-Мар-16 16:04 (спустя 7 дней, ред. 01-Мар-16 16:04)

остальные сезоны будут в HD?

Baiker2

Стаж: 10 лет 2 месяца

Сообщений: 61


Baiker2 · 03-Мар-16 07:23 (спустя 1 день 15 часов)

SeregaV80
если нужно, могу выложить

bams82

Стаж: 9 лет 3 месяца

Сообщений: 2

flag

bams82 · 03-Мар-16 17:40 (спустя 10 часов)

Baiker2 писал(а):
70160434SeregaV80
если нужно, могу выложить
Очень ждемс

Baiker2

Стаж: 10 лет 2 месяца

Сообщений: 61


Baiker2 · 03-Мар-16 23:25 (спустя 5 часов)

Выложил 2-й сезон:
http://GOSTRACKER.XYZ/viewtopic.php?t=5182177

Yaposhkin

Стаж: 8 лет 11 месяцев

Сообщений: 353

Yaposhkin · 08-Мар-16 16:16 (спустя 4 дня)

Как сериал?

Saabmax

Стаж: 6 лет 10 месяцев

Сообщений: 2

flag

Saabmax · 08-Мар-16 18:33 (спустя 2 часа 17 мин.)

Yaposhkin писал(а):
70204970Как сериал?
Мне понравился. Смотрю уже 8 серию первого сезона.

Baiker2

Стаж: 10 лет 2 месяца

Сообщений: 61


Baiker2 · 08-Мар-16 21:28 (спустя 2 часа 55 мин.)

Выложил 3-й сезон.
http://GOSTRACKER.XYZ/viewtopic.php?t=5185576

Multiverse

Стаж: 5 лет 7 месяцев

Сообщений: 75

flag

Multiverse · 13-Мар-16 18:11 (спустя 4 дня)

В принципе мне сериал понравился ! Но размер большой конечно...

1nfLaMe

Стаж: 8 лет 11 месяцев

Сообщений: 25

flag

1nfLaMe · 01-Июн-16 13:42 (спустя 2 месяца 18 дней)

БУДУТ СПОЙЛЕРЫ!!! Хотя и не конкретные. Суть такова. Девид Финчер - не базарный режиссеришка. И в первых трех сериях он это доказал, где был постоянный экшон. А вот то, что началось потом, все эти интрижки для той целевой аудитории (неискушенного зрителя, сидящего с забитым хавальником в десять вечера после работы) отталкивают, ибо все становится дико затянуто. Я в принципе своем не люблю сериалы, из современных это второе, на что я сподобился (первый был Ён Паль, который, кстати, гораздо менее затянут). Первый сезон досмотрел, появилось уже отвращение к этому проекту по простой причине - может стать очередным "вот вот закончится" и нам всем будут впихивать последующий сезон, как последний. ПыСы: сама история приятна и интересна, персонажей настоящих таких, как в классике, я насчитал три...остальные - просто декорации для этих трех, хотя актерский состав меня порадовал, как и диалоги. Но это всего лишь мнение одного меня, которое можно было и не читать)

Amoralolpro

Стаж: 8 лет 1 месяц

Сообщений: 27


Amoralolpro · 12-Авг-16 18:39 (спустя 2 месяца 11 дней)

1nfLaMe писал(а):
70803738Суть такова. Девид Финчер - не базарный режиссеришка. И в первых трех сериях он это доказал, где был постоянный экшон. А вот то, что началось потом, все эти интрижки для той целевой аудитории (неискушенного зрителя, сидящего с забитым хавальником в десять вечера после работы) отталкивают, ибо все становится дико затянуто.
Плюсую, но это беда ( и одновременно готовый шаблон) для всех современных сериалов. Этого избежал Настоящий детектив (1 сезон офк), но он короче и очень серьезно сделан.

Yolozam

Стаж: 1 год 2 месяца

Сообщений: 1

flag

Yolozam · 30-Авг-17 18:04 (спустя 1 год)

Что-то скачать не могу, пишет подключение к пирам и все....люди , что делать?!

meykasahara

Стаж: 10 лет

Сообщений: 2043

flag

meykasahara · 10-Июл-18 20:34 (спустя 10 месяцев)

Римейк английского сериала?

torrac033

Стаж: 9 лет 9 месяцев

Сообщений: 10

torrac033 · 11-Авг-18 12:52 (спустя 1 месяц)

смотря на этот сериал меня все время сопровождал это слово - какие вы жалкие
 
All rights reserved © 2017-2018
Loading...
Error