Карточный домик / House of Cards / Сезон: 4 / Серии: 1-13 (13) (Такер Гейтс, Робин Райт) [2016, США, драма, политический триллер, WEBRip 720p] MVO (FocusStudio)

Статистика раздачи
Размер:  11.42 GB   |   Зарегистрирован:  2 года 7 месяцев   |   .torrent скачан:  3,271 раз
Сиды:  7   Личи:  2
Автор
Сообщение

devzz

Стаж: 3 года 11 месяцев

Сообщений: 113

flag

devzz · 12-Мар-16 11:19 (2 года 8 месяцев назад, ред. 25-Мар-16 10:54)

 


Карточный домик / House of Cards
4 сезон

Год выпуска: 2016
Страна: США
Жанр: драма, политический триллер
Продолжительность: 13 x ~41-51 мин
Перевод: профессиональный многоголосый закадровый (FocusStudio)
Режиссёры: Такер Гейтс, Робин Райт, Том Шенклэнд, Алекс Грейвз, Кари Скогланд, Якоб Вербрюгген
В ролях: Кевин Спейси, Робин Райт, Майкл Келли, Махершала Али, Джейн Эткинсон, Нив Кэмпбелл, Дерек Сесил. Нэйтан Дарроу, Ким Диккенс, Элизабет Марвел, Юэль Киннаман, Доминик Макэллигот, Молли Паркер, Пол Спаркс, Себастьян Арселус, Борис Макгайвер, Эллен Бёрстин, Колм Фиор, Сисели Тайсон, Лиза Гэй Хэмилтон...
Описание: Безжалостный президент, Фрэнсис Андервуд, и его амбициозная жена Клэр, не остановятся ни перед чем, чтобы завоевать все. Эта жестокая политическая драма пропитанная жадностью, сексом, любовью и коррупцией.
Релиз:
Перевод: Александр Митраков
Роли озвучивали: Наталья Казначеева, Александр Воронов, Василий Зотов, Станислав Стрелков

Ссылка на предыдущие и альтернативные раздачи
Качество: WEBRip 720p
Формат: MKV
Видео: AVC, 1280x640 (2:1), 23,976 fps, ~2100 kbps
Аудио Rus: AC3, 48 kHz, 6 ch, 384 kbps, CBR
Аудио Eng: AC3, 48 kHz, 6 ch, 384 kbps, CBR
Субтитры: отсутствуют
СМОТРЕТЬ ОНЛАЙН
Скриншоты
MediaInfo
Format : Matroska
Format version : Version 4 / Version 2
File size : 931 MiB
Duration : 48mn 39s
Overall bit rate : 2 676 Kbps
Movie name : House of Cards 4x1 @ FocusStudio
Encoded date : UTC 2016-03-13 13:21:09
Writing application : mkvmerge v8.5.2 ('Crosses') 64bit
Writing library : libebml v1.3.3 + libmatroska v1.4.4
Video
ID : 1
Format : AVC
Format/Info : Advanced Video Codec
Format profile : High@L4.1
Format settings, CABAC : Yes
Format settings, ReFrames : 10 frames
Codec ID : V_MPEG4/ISO/AVC
Duration : 48mn 39s
Bit rate : 1 855 Kbps
Width : 1 280 pixels
Height : 640 pixels
Display aspect ratio : 2.000
Frame rate mode : Constant
Frame rate : 23.976 fps
Color space : YUV
Chroma subsampling : 4:2:0
Bit depth : 8 bits
Scan type : Progressive
Bits/(Pixel*Frame) : 0.094
Stream size : 646 MiB (69%)
Writing library : x264 core 148 r2665 a01e339
Encoding settings : cabac=1 / ref=10 / deblock=1:-1:-1 / analyse=0x3:0x133 / me=umh / subme=10 / psy=1 / psy_rd=1.05:0.00 / mixed_ref=1 / me_range=24 / chroma_me=1 / trellis=2 / 8x8dct=1 / cqm=0 / deadzone=21,11 / fast_pskip=1 / chroma_qp_offset=-2 / threads=20 / lookahead_threads=3 / sliced_threads=0 / nr=0 / decimate=1 / interlaced=0 / bluray_compat=0 / constrained_intra=0 / bframes=8 / b_pyramid=2 / b_adapt=2 / b_bias=0 / direct=3 / weightb=1 / open_gop=0 / weightp=2 / keyint=250 / keyint_min=23 / scenecut=40 / intra_refresh=0 / rc_lookahead=60 / rc=crf / mbtree=1 / crf=15.5 / qcomp=0.60 / qpmin=0 / qpmax=69 / qpstep=4 / ip_ratio=1.40 / aq=2:0.90
Default : Yes
Forced : No
Color range : Limited
Color primaries : BT.709
Transfer characteristics : BT.709
Matrix coefficients : BT.709
Audio #1
ID : 2
Format : AC-3
Format/Info : Audio Coding 3
Mode extension : CM (complete main)
Format settings, Endianness : Big
Codec ID : A_AC3
Duration : 48mn 39s
Bit rate mode : Constant
Bit rate : 384 Kbps
Channel(s) : 6 channels
Channel positions : Front: L C R, Side: L R, LFE
Sampling rate : 48.0 KHz
Compression mode : Lossy
Stream size : 134 MiB (14%)
Title : MVO FocusStudio
Language : Russian
Default : Yes
Forced : No
Audio #2
ID : 3
Format : AC-3
Format/Info : Audio Coding 3
Mode extension : CM (complete main)
Format settings, Endianness : Big
Codec ID : A_AC3
Duration : 48mn 39s
Bit rate mode : Constant
Bit rate : 384 Kbps
Channel(s) : 6 channels
Channel positions : Front: L C R, Side: L R, LFE
Sampling rate : 48.0 KHz
Compression mode : Lossy
Stream size : 134 MiB (14%)
Language : English
Default : No
Forced : No
Раздача ведется путем добавления новых серий
Когда раздача ведётся путём добавления новых серий, при каждом добавлении создаётся новый торрент. Чтобы начать докачку новой серии, пользователям необходимо сделать следующее:
(1) остановить скачивание,
(2) удалить старый торрент у себя из клиента (старые серии удалять не надо),
(3) скачать новый торрент и запустить его у себя в клиенте вместо старого, при этом указать клиенту путь в старую папку, куда и должно происходить скачивание новых серий.
Ваш клиент при этом должен произвести хеширование (проверку) старой папки (если не производит сам - помогите ему сделать это), и будет докачивать только те серии, которых у вас ещё нет. Старые серии при этом не удаляются, а продолжают раздаваться!
Eсли вы уже удалили старые серии, то предотвратить повторную закачку старых серий можно, отжав галочку в соответствующих местах при запуске нового торрента. По возможности, желательно не удалять старые серии как можно дольше, чтобы релизёр не столько продолжал раздавать старые серии, а смог сконцентрироваться на новых.

Зарегистрирован:
  • 25-Мар-16 10:54
  • Скачан: 3,271 раз

Скачать .torrent

116 KB

Тип: обычная
Статус: * не проверено
Размер: 11.42 GB  ·  magnet5038042A38FC02FBB59FA5D89824075AFC78128A
  • Свернуть поддиректории
  • Развернуть
  • Переключить
  • Увел./умен. окно
загружается...

devzz

Стаж: 3 года 11 месяцев

Сообщений: 113

flag

devzz · 16-Мар-16 17:54 (спустя 4 дня, ред. 16-Мар-16 22:25)

Добавлена 5 cерия.
Добавлены 6-8 серии.

devzz

Стаж: 3 года 11 месяцев

Сообщений: 113

flag

devzz · 20-Мар-16 13:26 (спустя 3 дня, ред. 21-Мар-16 21:07)

Добавлены 9-11 серии.
Добавлены 12 и 13 серии.

YaMaYaM

Стаж: 9 лет 10 месяцев

Сообщений: 9

flag

YaMaYaM · 24-Мар-16 10:17 (спустя 3 дня)

Что то в тринадцатой серии после середины со звуком лажа какая-то (((

buschmindg

Стаж: 9 лет 9 месяцев

Сообщений: 9

flag

buschmindg · 24-Мар-16 15:18 (спустя 5 часов)

13 серия на 43 минуте обрывается звук. Ни перевода, ни агл языка. Последние 10 мин только видео

devzz

Стаж: 3 года 11 месяцев

Сообщений: 113

flag

devzz · 25-Мар-16 10:55 (спустя 19 часов)

buschmindg, да, вы правы. Торрент-файл перезалит, заменена русская дорожка в 13 серии.
 
All rights reserved © 2017-2018
Loading...
Error