(Melodic Hard Rock) [CD] Imperium - Dreamhunter - 2016, FLAC (image+.cue), lossless

Статистика раздачи
Размер:  384.4 MB   |   Зарегистрирован:  2 года 7 месяцев   |   .torrent скачан:  954 раза
Сиды:  2   Личи:  1
Автор
Сообщение

crossovernickk

Стаж: 8 лет 1 месяц

Сообщений: 2907

flag

crossovernickk · 17-Апр-16 20:35 (2 года 7 месяцев назад, ред. 17-Апр-16 22:45)

 

Imperium - Dreamhunter
Жанр: Melodic Hard Rock
Носитель: CD
Страна-производитель диска (релиза): Russia
Год издания: 2016
Издатель (лейбл): AOR Heaven
Номер по каталогу: AORH00130
Страна исполнителя (группы): Finland
Аудиокодек: FLAC (*.flac)
Тип рипа: image+.cue
Битрейт аудио: lossless
Продолжительность: 50:06
Источник (релизер): CD от rd
Наличие сканов в содержимом раздачи: да
Треклист:
1. Dreamhunter
2. Heaven is falling
3. Wasted Years
4. Always Forever
5. Fire & Ice
6. There will be Light
7. 80's Love Song (a.k.a. Angel Eyes)
8. Reach For The Stars
9. Starlight
10. Victory
11. Finem Vocationem
Лог создания рипа
Exact Audio Copy V1.1 from 23. June 2015
EAC extraction logfile from 15. April 2016, 22:06
Imperium / Dreamhunter (AORH00130)
Used drive : PIONEER BD-RW BDR-209D Adapter: 0 ID: 5
Read mode : Secure
Utilize accurate stream : Yes
Defeat audio cache : Yes
Make use of C2 pointers : No
Read offset correction : 667
Overread into Lead-In and Lead-Out : No
Fill up missing offset samples with silence : Yes
Delete leading and trailing silent blocks : No
Null samples used in CRC calculations : Yes
Used interface : Installed external ASPI interface
Used output format : User Defined Encoder
Selected bitrate : 768 kBit/s
Quality : High
Add ID3 tag : No
Command line compressor : C:\Program Files (x86)\Exact Audio Copy\FLAC\FLAC.EXE
Additional command line options : -6 -V -T "ARTIST=%artist%" -T "TITLE=%title%" -T "ALBUM=%albumtitle%" -T "DATE=%year%" -T "TRACKNUMBER=%tracknr%" -T "GENRE=%genre%" -T "COMMENT=%comment%" -T "BAND=%albuminterpret%" -T "ALBUMARTIST=%albuminterpret%" -T "COMPOSER=%composer%" %haslyrics%--tag-from-file=LYRICS="%lyricsfile%"%haslyrics% -T "DISCNUMBER=%cdnumber%" -T "TOTALDISCS=%totalcds%" -T "TOTALTRACKS=%numtracks%" %hascover%--picture="%coverfile%"%hascover% %source% -o %dest%
TOC of the extracted CD
Track | Start | Length | Start sector | End sector
---------------------------------------------------------
1 | 0:00.00 | 5:18.22 | 0 | 23871
2 | 5:18.22 | 4:43.55 | 23872 | 45151
3 | 10:02.02 | 4:36.37 | 45152 | 65888
4 | 14:38.39 | 5:00.16 | 65889 | 88404
5 | 19:38.55 | 4:29.19 | 88405 | 108598
6 | 24:07.74 | 5:08.54 | 108599 | 131752
7 | 29:16.53 | 4:48.12 | 131753 | 153364
8 | 34:04.65 | 4:52.69 | 153365 | 175333
9 | 38:57.59 | 4:08.54 | 175334 | 193987
10 | 43:06.38 | 4:17.21 | 193988 | 213283
11 | 47:23.59 | 2:42.38 | 213284 | 225471
Range status and errors
Selected range
Filename E:\MUSIC\Imperium - Dreamhunter (AORH00130).wav
Peak level 100.0 %
Extraction speed 2.9 X
Range quality 99.9 %
Test CRC 95FF686D
Copy CRC 95FF686D
Copy OK
No errors occurred
AccurateRip summary
Track 1 not present in database
Track 2 not present in database
Track 3 not present in database
Track 4 not present in database
Track 5 not present in database
Track 6 not present in database
Track 7 not present in database
Track 8 not present in database
Track 9 not present in database
Track 10 not present in database
Track 11 not present in database
None of the tracks are present in the AccurateRip database
End of status report
==== Log checksum B2C7079AB1A6B04E773ACE70FFEC42AE0333997BBAF60EA6EFDC7CE98DA9E50E ====
Состав
Mika Brushane – Music, lyrics, drums, bass, keyboards and backing vocals
Guests:
Pasi Rantanen – Vocals & guitars
Markku Kuikka – Vocals & guitars
Nisse Nordling - Vocals
Samuli Federley – Guitars
Toni Huovinen – Guitars
Ade Manninen – Guitars
(Melodic Hard Rock) Imperium - Dreamhunter - 2016, MP3, 320 kbps
Зарегистрирован:
  • 17-Апр-16 20:35
  • Скачан: 954 раза

Скачать .torrent

16 KB

Тип: обычная
Статус: проверено
Размер: 384.4 MB  ·  magnetBCE6CF3F5193823FEB9B76C1DE750ECD8EC66434
  • Свернуть поддиректории
  • Развернуть
  • Переключить
  • Увел./умен. окно
загружается...

lobashova

Стаж: 10 лет

Сообщений: 6530

flag

lobashova · 18-Апр-16 18:19 (спустя 21 час)

Наконец то! Хороший дебют финской команды!!!

Фаker

Стаж: 7 лет 1 месяц

Сообщений: 4792

flag

Фаker · 17-Авг-18 14:37 (спустя 2 года 3 месяца)

Слабенький альбомчик. Однообразная, занудно-слащавая попса. И даже весьма неплохие гитарные соляки не спасают. Более-менее понравились лишь треки Starlight и Victory; хотя в первом из них гитарист, увы, поскупился на более изобретательный инструментал, выдав вполне проходное соло.
Кто-то пусть гениально клепает раздачи, но ещё гениальнее слушаем мы.

lobashova

Стаж: 10 лет

Сообщений: 6530

flag

lobashova · 18-Авг-18 22:02 (спустя 1 день 7 часов)

Фаker писал(а):
75822796выдав вполне проходное соло
Поздравляю, вы спеСиалист АОР музыки

Фаker

Стаж: 7 лет 1 месяц

Сообщений: 4792

flag

Фаker · 18-Авг-18 22:22 (спустя 20 мин., ред. 18-Авг-18 22:22)

lobashova, принимается...и со всякими кавычками. Но судя по вашему первому комментарию, вы неспециалист АОР музыки безо всяких кавычек.
Кто-то пусть гениально клепает раздачи, но ещё гениальнее слушаем мы.
 
All rights reserved © 2017-2018
Loading...
Error