—китальцы / Drifters / «аблудшие [TV] [12 из 12] [Ѕез хардсаба] [RUS(int), JAP] [2016, ‘энтези, ѕриключение, Ёкшен,  омеди€, —амурайский боевик, »сторический, WEBRip] [1080p]

—татистика раздачи
–азмер:  6.59 GB   |   «арегистрирован:  1 год 9 мес€цев   |   .torrent скачан:  351 раз
—иды:  1
јвтор
—ообщение

Sawyer888

—таж: 12 лет 3 мес€ца

—ообщений: 101

flag

Sawyer888 · 02-ƒек-16 01:04 (2 года назад, ред. 01-ћар-17 12:39)

 

—китальцы / Drifters / «аблудшие
—трана: япони€
√од выпуска: 2016
∆анр: ‘энтези, ѕриключение, Ёкшен,  омеди€, —амурайский боевик, »сторический
“ип: TV
ѕродолжительность: 12 эп. по ~ 24 мин
–ежиссер: —удзуки  энъити
—туди€: Hoods Entertainment
ќзвучка: ƒвухголоса€, мужска€ & женска€ - ј. ƒасевич / Holly
ѕо переводу: Nesitach, Stan WarHammer
ќписание: Ћегендарный самурай эпохи —энгоку “оЄхиса —имадзу принимает участие в великой битве при —экигахаре. ≈му удаетс€ смертельно ранить вражеского полководца Ќаомасу »и, однако, сам он также оказываетс€ т€жело ранен. »скалеченный и истекающий кровью “оЄхиса пытаетс€ уйти с пол€ бо€ и вдруг непон€тным образом попадает в длинный коридор из дверей, где его ожидает человек в очках. Ётого человека зовут ћурасаки. ќн великодушно направл€ет едва живого “оЄхису к ближайшей двери, после чего раненый самурай тер€ет сознание и приходит в себ€ уже в другом месте. Ќет, не на небесах, как можно было подумать, а в параллельном мире!
—эмпл
 ачество: WEBRip [HorribleSubs]
“ип релиза: Ѕез хардсаба
‘ормат видео: MKV
Ќаличие линковки: Ќет
¬идео: AVC, 1920x1080 (16:9), 3072 Kbps, 23.976 fps
јудио: RUS, AAC, 128 kbps, 44100 Hz, 2ch (в составе контейнера)
јудио 2: JAP, AAC, 128 kbps, 44100 Hz, 2ch (в составе контейнера)
—убтитры: ASS, встроенные | полный перевод язык субтитров English [HorribleSubs]
ѕодробные тех. данные
General
Unique ID : 218594217978430597663070257473103820914 (0xA473B70ABA8C46D4B95380BA5C477872)
Complete name : Drifters_[Dasevich, Holly]/Drifters - 01[Dasevich, Holly] [1080p].mkv
Format : Matroska
Format version : Version 4 / Version 2
File size : 562 MiB
Duration : 23mn 46s
Overall bit rate : 3 306 Kbps
Encoded date : UTC 2016-11-30 08:46:45
Writing application : mkvmerge v9.5.0 ('Quiet Fire') 64bit
Writing library : libebml v1.3.4 + libmatroska v1.4.5
Attachments : OpenSans-Semibold.ttf
Video
ID : 1
Format : AVC
Format/Info : Advanced Video Codec
Format profile : High@L4
Format settings, CABAC : Yes
Format settings, ReFrames : 4 frames
Codec ID : V_MPEG4/ISO/AVC
Duration : 23mn 39s
Bit rate : 3 072 Kbps
Width : 1 920 pixels
Height : 1 080 pixels
Display aspect ratio : 16:9
Frame rate mode : Variable
Frame rate : 23.976 (23976/1000) fps
Color space : YUV
Chroma subsampling : 4:2:0
Bit depth : 8 bits
Scan type : Progressive
Bits/(Pixel*Frame) : 0.062
Stream size : 518 MiB (92%)
Writing library : x264 core 120 r2120 0c7dab9
Encoding settings : cabac=1 / ref=4 / deblock=1:1:1 / analyse=0x3:0x113 / me=umh / subme=8 / psy=1 / psy_rd=0.40:0.00 / mixed_ref=1 / me_range=16 / chroma_me=1 / trellis=1 / 8x8dct=1 / cqm=0 / deadzone=21,11 / fast_pskip=1 / chroma_qp_offset=-2 / threads=8 / sliced_threads=0 / nr=0 / decimate=1 / interlaced=0 / bluray_compat=0 / constrained_intra=0 / bframes=3 / b_pyramid=2 / b_adapt=2 / b_bias=0 / direct=3 / weightb=1 / open_gop=0 / weightp=2 / keyint=250 / keyint_min=23 / scenecut=40 / intra_refresh=0 / rc_lookahead=50 / rc=2pass / mbtree=1 / bitrate=3072 / ratetol=1.0 / qcomp=0.60 / qpmin=0 / qpmax=69 / qpstep=4 / cplxblur=20.0 / qblur=0.5 / vbv_maxrate=6144 / vbv_bufsize=15360 / nal_hrd=none / ip_ratio=1.40 / aq=1:0.60
Default : Yes
Forced : No
Audio #1
ID : 2
Format : AAC
Format/Info : Advanced Audio Codec
Format profile : LC
Codec ID : A_AAC
Duration : 23mn 46s
Bit rate : 127 Kbps
Channel(s) : 2 channels
Channel positions : Front: L R
Sampling rate : 44.1 KHz
Frame rate : 43.066 fps (1024 spf)
Compression mode : Lossy
Stream size : 21.7 MiB (4%)
Language : Russian
Default : Yes
Forced : No
Audio #2
ID : 3
Format : AAC
Format/Info : Advanced Audio Codec
Format profile : LC
Codec ID : A_AAC
Duration : 23mn 39s
Bit rate : 128 Kbps
Channel(s) : 2 channels
Channel positions : Front: L R
Sampling rate : 44.1 KHz
Frame rate : 43.066 fps (1024 spf)
Compression mode : Lossy
Stream size : 21.7 MiB (4%)
Language : Japanese
Default : No
Forced : No
Text
ID : 4
Format : ASS
Codec ID : S_TEXT/ASS
Codec ID/Info : Advanced Sub Station Alpha
Duration : 23mn 25s
Bit rate : 101 bps
Count of elements : 289
Compression mode : Lossless
Stream size : 17.3 KiB (0%)
Language : English
Default : No
Forced : No
—писок эпизодов
01. Ѕоева€ песнь
02. Ўаги
03. Ќаше войско - ¬ылазка на рассвете
04. —ильное сердце
05. ¬ерни любовь
06. Ћюди судьбы
07. Ќыр€льщик в хаос
08. ѕозови мен€, загадка
ќтличи€
http://GOSTRACKER.XYZ/viewtopic.php?t=5293679 - јльтернативна€ озвучка
http://GOSTRACKER.XYZ/viewtopic.php?t=5293637 - јльтернативна€ озвучка
http://GOSTRACKER.XYZ/viewtopic.php?t=5293133 - наличие озвучки
http://GOSTRACKER.XYZ/viewtopic.php?t=5317442 - јльтернативна€ озвучка
http://GOSTRACKER.XYZ/viewtopic.php?t=5301235 - јльтернативна€ озвучка
http://GOSTRACKER.XYZ/viewtopic.php?t=5294283 - јльтернативна€ озвучка
—криншоты
–ј«ƒј„ј ќЅЌќ¬Ћ≈Ќј. ƒќЅј¬Ћ≈Ќџ —≈–»» 9-12
«арегистрирован:
  • 01-ћар-17 12:39
  • —качан: 351 раз

—качать .torrent

67 KB

“ип: обычна€
—татус: T временна€
–азмер: 6.59 GB  ·  magnet2E259E3963B70B45E03AFC21EE1C134040D72542
  • —вернуть поддиректории
  • –азвернуть
  • ѕереключить
  • ”вел./умен. окно
загружаетс€...

Ich Lauf

VIP («аслуженный)

—таж: 10 лет 1 мес€ц

—ообщений: 11537

Ich Lauf · 02-ƒек-16 02:32 (спуст€ 1 час 28 мин., ред. 02-ƒек-16 23:24)

скрытый текст
Sawyer888 писал(а):
71942878 ачество: WEBRip
Sawyer888 писал(а):
71942878язык субтитров English
јвторов в обеих строчках подпишите - HorribleSubs
Sawyer888 писал(а):
71942878ќтличи€
¬ отличи€ еще эти http://GOSTRACKER.XYZ/viewtopic.php?t=5317442 + http://GOSTRACKER.XYZ/viewtopic.php?t=5301235 + http://GOSTRACKER.XYZ/viewtopic.php?t=5294283
Sawyer888 писал(а):
71942878ќзвучка: ѕрофессиональна€ двухголоса€ (ј. ƒасевич/Holly)
ѕрофесионалов убираем - деление на проф и любителей запрещено. ѕодписываем голосность - мужска€ & женска€ *
Sawyer888 писал(а):
71942878ѕеревод: Nesitach, Stan WarHammer
ѕо переводу *
+ добавл€ем сэмпл http://GOSTRACKER.XYZ/viewtopic.php?t=4212119#Sample

T временна€
ќтсутствую.

Ich Lauf

VIP («аслуженный)

—таж: 10 лет 1 мес€ц

—ообщений: 11537

Ich Lauf · 02-ƒек-16 23:03 (спуст€ 20 часов)

Sawyer888
«агрузите на любой из п€ти перечисленных http://GOSTRACKER.XYZ/viewtopic.php?t=8415 ¬аш убран из рекомендуемых (см.приписку в той теме), уже были с ним проблемы.
ќтсутствую.

Sawyer888

—таж: 12 лет 3 мес€ца

—ообщений: 101

flag

Sawyer888 · 02-ƒек-16 23:17 (спуст€ 14 мин.)

Ich Lauf писал(а):
71949234Sawyer888
«агрузите на любой из п€ти перечисленных http://GOSTRACKER.XYZ/viewtopic.php?t=8415 ¬аш убран из рекомендуемых (см.приписку в той теме), уже были с ним проблемы.
—пасибо! ѕомен€л

Rudolf Steiner

—таж: 5 лет 2 мес€ца

—ообщений: 881


Rudolf Steiner · 22-янв-17 17:34 (спуст€ 1 мес€ц 19 дней)

Sawyer888
у holly в вк добили релиз . жду обнову
могу по просьбе выложить любую дорожку на €ндекс

Zаbr

ѕомощник модератора

—таж: 4 года 9 мес€цев

—ообщений: 3090

flag

Zаbr · 01-ћар-17 13:46 (спуст€ 1 мес€ц 6 дней)

Sawyer888 писал(а):
71942878[TV] [12 из 12]
по окончанию релиза количество эп в заголовке пишетс€ только так, фикс*
ѕрактически полностью отсутствую. ¬се будет как только, так сразу.


Finally done: Rewrite (Full), Fairy Tail (TV 2), Umaru (TV 2)
Hot ongoings: Gintama (TV 5), Souma (OVA)
Plan to do: Sister Princess (Full), Galaxy Angel (Full), Aria (Full), Bakuman (Full)
мои раздачи

raznos4227

—таж: 3 года 2 мес€ца

—ообщений: 9

flag

raznos4227 · 21-ћар-17 20:51 (спуст€ 20 дней)

Ќигде не могу найти это аниме в данной озвучке. ѕожалуйста, раздайте!

KOKјIN

—таж: 8 лет 7 мес€цев

—ообщений: 123

flag

KOKјIN · 07-ћай-17 23:02 (спуст€ 1 мес€ц 17 дней, ред. 07-ћай-17 23:02)

»з всех озвучек эта мне понравилась больше всего.

kacnep11

—таж: 10 лет

—ообщений: 38

flag

kacnep11 · 17-Ќо€-18 15:38 (спуст€ 1 год 6 мес€цев)

ѕрошу встать на раздачу. —пасибо.
 
All rights reserved © 2017-2018
Loading...
Error