(JPop, Jazz) [CD] Tomita Lab - Shiplaunching - 2006, FLAC (tracks+.cue), lossless

Статистика раздачи
Размер:  318.6 MB   |   Зарегистрирован:  1 год 10 месяцев   |   .torrent скачан:  109 раз
Сиды:  2   Личи:  1
Автор
Сообщение

fiks22

Top Seed 08* 5120r

Стаж: 11 лет 1 месяц

Сообщений: 10041

flag

fiks22 · 29-Янв-17 23:16 (1 год 10 месяцев назад)

 

Tomita Lab - Shiplaunching
Жанр: JPop, Jazz
Носитель: CD
Страна-производитель диска (релиза): Япония
Год издания: 2006
Издатель (лейбл): Sony Music
Номер по каталогу: AICL-1731
Аудиокодек: FLAC (*.flac)
Тип рипа: tracks+.cue
Битрейт аудио: lossless
Продолжительность: 48:28
Источник (релизер): apollo
Наличие сканов в содержимом раздачи: нет
Треклист:
01. Shiplaunching (2:04)
02. Placebo, c'est si bon (feat. Yukihiro Takahashi & Taeko Onuki) (5:04)
03. Like a Queen (feat. Soulhead) (5:26)
04. Atatakai Ame (feat. Hirokuni Tanaka (Mamalaid Rag)) (6:11)
05. Launching on a Fine Day (3:30)
06. Zutto Yomikake no Natsu (feat. Chemistry) (6:33)
07. Koi wa Kasa no Naka de ai ni (feat. Ryohei Yamamoto) (6:17)
08. Shiawase no Blue (feat. Yoshika) (5:31)
09. Is the Rest Silence (2:43)
10. Prayer on the Air (5:09)
Лог создания рипа
Exact Audio Copy V1.1 from 23. June 2015
EAC extraction logfile from 12. August 2015, 15:15
冨田ラボ / Shiplaunching
Used drive : MATSHITABD-MLT UJ260AF Adapter: 1 ID: 2
Read mode : Secure
Utilize accurate stream : Yes
Defeat audio cache : Yes
Make use of C2 pointers : No
Read offset correction : 103
Overread into Lead-In and Lead-Out : No
Fill up missing offset samples with silence : Yes
Delete leading and trailing silent blocks : No
Null samples used in CRC calculations : Yes
Used interface : Native Win32 interface for Win NT & 2000
Gap handling : Appended to previous track
Used output format : User Defined Encoder
Selected bitrate : 896 kBit/s
Quality : High
Add ID3 tag : No
Command line compressor : C:\Program Files (x86)\Exact Audio Copy\Flac\flac.exe
Additional command line options : -8 -V -T "ARTIST=%artist%" -T "TITLE=%title%" -T "ALBUM=%albumtitle%" -T "DATE=%year%" -T "TRACKNUMBER=%tracknr%" -T "GENRE=%genre%" -T "PERFORMER=%albuminterpret%" -T "COMPOSER=%composer%" %haslyrics%--tag-from-file=LYRICS="%lyricsfile%"%haslyrics% -T "ALBUMARTIST=%albumartist%" -T "DISCNUMBER=%cdnumber%" -T "TOTALDISCS=%totalcds%" -T "TOTALTRACKS=%numtracks%" -T "COMMENT=%comment%" %source% -o %dest%
TOC of the extracted CD
Track | Start | Length | Start sector | End sector
---------------------------------------------------------
1 | 0:00.00 | 2:03.53 | 0 | 9277
2 | 2:03.53 | 5:04.13 | 9278 | 32090
3 | 7:07.66 | 5:25.61 | 32091 | 56526
4 | 12:33.52 | 6:10.41 | 56527 | 84317
5 | 18:44.18 | 3:29.56 | 84318 | 100048
6 | 22:13.74 | 6:33.26 | 100049 | 129549
7 | 28:47.25 | 6:17.23 | 129550 | 157847
8 | 35:04.48 | 5:30.44 | 157848 | 182641
9 | 40:35.17 | 2:42.66 | 182642 | 194857
10 | 43:18.08 | 5:08.54 | 194858 | 218011
Track 1
Filename C:\冨田ラボ - Shiplaunching (2006) [FLAC] {AICL 1731}\01 - Shiplaunching.wav
Pre-gap length 0:00:02.00
Peak level 87.4 %
Extraction speed 2.1 X
Track quality 100.0 %
Test CRC 6D4F584E
Copy CRC 6D4F584E
Accurately ripped (confidence 7) [B6422FC7] (AR v2)
Copy OK
Track 2
Filename C:\冨田ラボ - Shiplaunching (2006) [FLAC] {AICL 1731}\02 - プラシーボ・セシボン feat.高橋幸宏+大貫妙子.wav
Peak level 99.9 %
Extraction speed 2.7 X
Track quality 100.0 %
Test CRC 1F0E15E4
Copy CRC 1F0E15E4
Accurately ripped (confidence 7) [36DC652B] (AR v2)
Copy OK
Track 3
Filename C:\冨田ラボ - Shiplaunching (2006) [FLAC] {AICL 1731}\03 - Like A Queen feat.SOULHEAD.wav
Peak level 99.3 %
Extraction speed 3.0 X
Track quality 100.0 %
Test CRC 5CE90467
Copy CRC 5CE90467
Accurately ripped (confidence 7) [C67F1E4F] (AR v2)
Copy OK
Track 4
Filename C:\冨田ラボ - Shiplaunching (2006) [FLAC] {AICL 1731}\04 - アタタカイ雨 feat.田中拡邦(MAMALAID RAG).wav
Pre-gap length 0:00:01.33
Peak level 99.9 %
Extraction speed 3.3 X
Track quality 100.0 %
Test CRC D7CD8300
Copy CRC D7CD8300
Accurately ripped (confidence 7) [E2A8C93F] (AR v2)
Copy OK
Track 5
Filename C:\冨田ラボ - Shiplaunching (2006) [FLAC] {AICL 1731}\05 - Launching On A Fine Day.wav
Pre-gap length 0:00:02.33
Peak level 92.6 %
Extraction speed 3.3 X
Track quality 100.0 %
Test CRC 86CCC237
Copy CRC 86CCC237
Accurately ripped (confidence 7) [6A3CA908] (AR v2)
Copy OK
Track 6
Filename C:\冨田ラボ - Shiplaunching (2006) [FLAC] {AICL 1731}\06 - ずっと読みかけの夏 feat. CHEMISTRY.wav
Peak level 91.6 %
Extraction speed 3.8 X
Track quality 100.0 %
Test CRC F17CBC35
Copy CRC F17CBC35
Accurately ripped (confidence 7) [D77E1E2B] (AR v2)
Copy OK
Track 7
Filename C:\冨田ラボ - Shiplaunching (2006) [FLAC] {AICL 1731}\07 - 恋は傘の中で愛に feat. 山本領平.wav
Pre-gap length 0:00:01.33
Peak level 100.0 %
Extraction speed 4.1 X
Track quality 100.0 %
Test CRC 7FFB3108
Copy CRC 7FFB3108
Accurately ripped (confidence 7) [3089E3B2] (AR v2)
Copy OK
Track 8
Filename C:\冨田ラボ - Shiplaunching (2006) [FLAC] {AICL 1731}\08 - しあわせのBlue feat. YOSHIKA.wav
Peak level 99.3 %
Extraction speed 4.0 X
Track quality 100.0 %
Test CRC 221B9FD3
Copy CRC 221B9FD3
Accurately ripped (confidence 7) [E864F49C] (AR v2)
Copy OK
Track 9
Filename C:\冨田ラボ - Shiplaunching (2006) [FLAC] {AICL 1731}\09 - Is The Rest Silence.wav
Pre-gap length 0:00:02.33
Peak level 95.8 %
Extraction speed 4.0 X
Track quality 100.0 %
Test CRC 348AC1B4
Copy CRC 348AC1B4
Accurately ripped (confidence 7) [FC452237] (AR v2)
Copy OK
Track 10
Filename C:\冨田ラボ - Shiplaunching (2006) [FLAC] {AICL 1731}\10 - Prayer On The Air.wav
Pre-gap length 0:00:02.33
Peak level 99.3 %
Extraction speed 4.4 X
Track quality 100.0 %
Test CRC 05CD5D9E
Copy CRC 05CD5D9E
Accurately ripped (confidence 7) [10CDEEDC] (AR v2)
Copy OK
All tracks accurately ripped
No errors occurred
End of status report
---- CUETools DB Plugin V2.1.6
[CTDB TOCID: 6hX86QXNxBWOBFl_G1KKsyDfQF8-] found
Submit result: 6hX86QXNxBWOBFl_G1KKsyDfQF8- has been confirmed
Track | CTDB Status
1 | (11/11) Accurately ripped
2 | (11/11) Accurately ripped
3 | (11/11) Accurately ripped
4 | (11/11) Accurately ripped
5 | (11/11) Accurately ripped
6 | (11/11) Accurately ripped
7 | (11/11) Accurately ripped
8 | (11/11) Accurately ripped
9 | (11/11) Accurately ripped
10 | (11/11) Accurately ripped
==== Log checksum DF3F690371E18A83E875813D3EF5982261E02C9A9915326C3663BB1EF556A99A ====
Содержание индексной карты (.CUE)
REM GENRE JPop
REM DATE 2006
REM DISCID 740B5A0A
REM COMMENT "ExactAudioCopy v1.1"
PERFORMER "Tomita Lab"
TITLE "Shiplaunching"
FILE "01 - Shiplaunching.wav" WAVE
TRACK 01 AUDIO
TITLE "Shiplaunching"
PERFORMER "Tomita Lab"
ISRC JPN300501901
INDEX 01 00:00:00
FILE "02 - Placebo, c'est si bon (feat. Yukihiro Takahashi & Taeko Onuki).wav" WAVE
TRACK 02 AUDIO
TITLE "Placebo, c'est si bon (feat. Yukihiro Takahashi & Taeko Onuki)"
PERFORMER "Tomita Lab"
ISRC JPN300501902
INDEX 01 00:00:00
FILE "03 - Like a Queen (feat. Soulhead).wav" WAVE
TRACK 03 AUDIO
TITLE "Like a Queen (feat. Soulhead)"
PERFORMER "Tomita Lab"
ISRC JPN300401841
INDEX 01 00:00:00
TRACK 04 AUDIO
TITLE "Atatakai Ame (feat. Hirokuni Tanaka (Mamalaid Rag))"
PERFORMER "Tomita Lab"
ISRC JPN300500461
INDEX 00 05:24:36
FILE "04 - Atatakai Ame (feat. Hirokuni Tanaka (Mamalaid Rag)).wav" WAVE
INDEX 01 00:00:00
TRACK 05 AUDIO
TITLE "Launching on a Fine Day"
PERFORMER "Tomita Lab"
ISRC JPN300501904
INDEX 00 06:08:16
FILE "05 - Launching on a Fine Day.wav" WAVE
INDEX 01 00:00:00
FILE "06 - Zutto Yomikake no Natsu (feat. Chemistry).wav" WAVE
TRACK 06 AUDIO
TITLE "Zutto Yomikake no Natsu (feat. Chemistry)"
PERFORMER "Tomita Lab"
ISRC JPN300501061
INDEX 01 00:00:00
TRACK 07 AUDIO
TITLE "Koi wa Kasa no Naka de ai ni (feat. Ryohei Yamamoto)"
PERFORMER "Tomita Lab"
ISRC JPN300501905
INDEX 00 06:32:01
FILE "07 - Koi wa Kasa no Naka de ai ni (feat. Ryohei Yamamoto).wav" WAVE
INDEX 01 00:00:00
FILE "08 - Shiawase no Blue (feat. Yoshika).wav" WAVE
TRACK 08 AUDIO
TITLE "Shiawase no Blue (feat. Yoshika)"
PERFORMER "Tomita Lab"
ISRC JPN300501903
INDEX 01 00:00:00
TRACK 09 AUDIO
TITLE "Is the Rest Silence?"
PERFORMER "Tomita Lab"
ISRC JPN300501906
INDEX 00 05:28:19
FILE "09 - Is the Rest Silence.wav" WAVE
INDEX 01 00:00:00
TRACK 10 AUDIO
TITLE "Prayer on the Air"
PERFORMER "Tomita Lab"
ISRC JPN300501907
INDEX 00 02:40:41
FILE "10 - Prayer on the Air.wav" WAVE
INDEX 01 00:00:00
Отчет CUETools
[CUETools log; Date: 29.01.2017 23:12:49; Version: 2.1.5]
[CTDB TOCID: 6hX86QXNxBWOBFl_G1KKsyDfQF8-] found.
Track | CTDB Status
1 | (27/27) Accurately ripped
2 | (27/27) Accurately ripped
3 | (27/27) Accurately ripped
4 | (27/27) Accurately ripped
5 | (27/27) Accurately ripped
6 | (27/27) Accurately ripped
7 | (27/27) Accurately ripped
8 | (27/27) Accurately ripped
9 | (27/27) Accurately ripped
10 | (27/27) Accurately ripped
[AccurateRip ID: 0011c775-00914f02-740b5a0a] found.
Track [ CRC | V2 ] Status
01 [1f35438e|b6422fc7] (0+9/9) Accurately ripped
02 [4fdfe4ef|36dc652b] (0+9/9) Accurately ripped
03 [d5efb9ab|c67f1e4f] (0+9/9) Accurately ripped
04 [74685e8f|e2a8c93f] (0+9/9) Accurately ripped
05 [39497b2b|6a3ca908] (0+9/9) Accurately ripped
06 [266bc144|d77e1e2b] (0+9/9) Accurately ripped
07 [f309b928|3089e3b2] (0+9/9) Accurately ripped
08 [a4cad5a5|e864f49c] (0+9/9) Accurately ripped
09 [002def65|fc452237] (0+9/9) Accurately ripped
10 [059c4ff2|10cdeedc] (0+9/9) Accurately ripped
Track Peak [ CRC32 ] [W/O NULL] [ LOG ]
-- 99,9 [854D37B5] [7C95B1CF]
01 87,4 [6D4F584E] [F63D540E] CRC32
02 99,9 [1F0E15E4] [DF76DDB8] CRC32
03 99,3 [5CE90467] [778D8A7E] CRC32
04 99,9 [D7CD8300] [9953F472] CRC32
05 92,6 [86CCC237] [5F98DEE5] CRC32
06 91,6 [F17CBC35] [40B3A9BF] CRC32
07 99,9 [7FFB3108] [336EF021] CRC32
08 99,3 [221B9FD3] [A380D0FE] CRC32
09 95,8 [348AC1B4] [A949EFB1] CRC32
10 99,3 [05CD5D9E] [E79304FB] CRC32
Зарегистрирован:
  • 29-Янв-17 23:16
  • Скачан: 109 раз

Скачать .torrent

14 KB

Тип: обычная
Статус: проверено
Размер: 318.6 MB  ·  magnet7F3BB5167035356498F895EE617AD7CAF56BA7E6
  • Свернуть поддиректории
  • Развернуть
  • Переключить
  • Увел./умен. окно
загружается...
МОИ РАЗДАЧИ
Раздачи, перезалитые в рамках замены приватных раздач, сидирую только два месяца. НЕ УХОДИТЕ С РАЗДАЧ!!!
 
All rights reserved © 2017-2018
Loading...
Error