(JPop, Jazz) [CD] Tomita Lab - Superfine - 2016, FLAC (tracks+.cue), lossless

Статистика раздачи
Размер:  280.9 MB   |   Зарегистрирован:  1 год 10 месяцев   |   .torrent скачан:  183 раза
Сиды:  2   Личи:  1
Автор
Сообщение

fiks22

Top Seed 08* 5120r

Стаж: 11 лет 2 месяца

Сообщений: 10086

flag

fiks22 · 30-Янв-17 00:24 (1 год 10 месяцев назад)

 

Tomita Lab - Superfine
Жанр: JPop, Jazz
Носитель: CD
Страна-производитель диска (релиза): Япония
Год издания: 2016
Издатель (лейбл): Victor Entertainment
Номер по каталогу: VIZL-1040
Аудиокодек: FLAC (*.flac)
Тип рипа: tracks+.cue
Битрейт аудио: lossless
Продолжительность: 42:52
Источник (релизер): apollo
Наличие сканов в содержимом раздачи: нет
Треклист:
01. Superfine Opening (Instrumental) (2:05)
02. Radio Taisou Girl (feat. Yonce) (4:10)
03. Tomita Sakana Ten (feat. Komuai) (4:28)
04. Arakawa Show Kei (feat. Maaya Sakamoto) (6:11)
05. Futari ha Kuuki no Soko ni (feat. Shohei Takagi) (4:44)
06. Bite My Nails (feat. Sakura Fujiwara) (4:44)
07. Kodou (feat. Akiko Kido) (5:43)
08. Yuki no Machi (feat. Yuma Abe) (4:39)
09. Waratte Regret (feat. Akio) (4:57)
10. Superfine Ending (Instrumental) (1:11)
Лог создания рипа
Exact Audio Copy V1.3 from 2. September 2016
EAC extraction logfile from 5. December 2016, 19:58
冨田ラボ / Superfine
Used drive : ATAPI BD O DH4O3S Adapter: 1 ID: 0
Read mode : Secure
Utilize accurate stream : Yes
Defeat audio cache : Yes
Make use of C2 pointers : No
Read offset correction : 696
Overread into Lead-In and Lead-Out : No
Fill up missing offset samples with silence : Yes
Delete leading and trailing silent blocks : No
Null samples used in CRC calculations : Yes
Used interface : Native Win32 interface for Win NT & 2000
Gap handling : Appended to previous track
Used output format : User Defined Encoder
Selected bitrate : 128 kBit/s
Quality : High
Add ID3 tag : No
Command line compressor : C:\Program Files (x86)\Exact Audio Copy\Flac\flac.exe
Additional command line options : -8 -e -p -V -T "ARTIST=%artist%" -T "TITLE=%title%" -T "ALBUM=%albumtitle%" -T "DATE=%year%" -T "TRACKNUMBER=%tracknr%" -T "GENRE=%genre%" -T "PERFORMER=%albuminterpret%" -T "COMPOSER=%composer%" %haslyrics%--tag-from-file=LYRICS="%lyricsfile%"%haslyrics% -T "ALBUMARTIST=%albumartist%" -T "DISCNUMBER=%cdnumber%" -T "TOTALDISCS=%totalcds%" -T "TOTALTRACKS=%numtracks%" -T "COMMENT=%comment%" %source% -o %dest%
TOC of the extracted CD
Track | Start | Length | Start sector | End sector
---------------------------------------------------------
1 | 0:00.00 | 2:04.40 | 0 | 9339
2 | 2:04.40 | 4:09.60 | 9340 | 28074
3 | 6:14.25 | 4:28.15 | 28075 | 48189
4 | 10:42.40 | 6:10.40 | 48190 | 75979
5 | 16:53.05 | 4:43.70 | 75980 | 97274
6 | 21:37.00 | 4:43.45 | 97275 | 118544
7 | 26:20.45 | 5:42.65 | 118545 | 144259
8 | 32:03.35 | 4:39.35 | 144260 | 165219
9 | 36:42.70 | 4:56.50 | 165220 | 187469
10 | 41:39.45 | 1:11.25 | 187470 | 192819
Track 1
Filename C:\EAC\冨田ラボ - Superfine (2016) {VICL-1040} [FLAC]\01 SUPERFINE OPENING(instrumental).wav
Pre-gap length 0:00:02.00
Peak level 99.2 %
Extraction speed 0.9 X
Track quality 100.0 %
Test CRC 94D3CB15
Copy CRC 94D3CB15
Accurately ripped (confidence 1) [16828749] (AR v2)
Copy OK
Track 2
Filename C:\EAC\冨田ラボ - Superfine (2016) {VICL-1040} [FLAC]\02 Radio体操ガール feat.YONCE.wav
Peak level 99.9 %
Extraction speed 1.2 X
Track quality 100.0 %
Test CRC 2B8B59E6
Copy CRC 2B8B59E6
Accurately ripped (confidence 1) [6BA99F58] (AR v2)
Copy OK
Track 3
Filename C:\EAC\冨田ラボ - Superfine (2016) {VICL-1040} [FLAC]\03 冨田魚店 feat.コムアイ.wav
Pre-gap length 0:00:01.93
Peak level 99.9 %
Extraction speed 1.3 X
Track quality 100.0 %
Test CRC ED956D61
Copy CRC ED956D61
Accurately ripped (confidence 1) [DA7D720F] (AR v2)
Copy OK
Track 4
Filename C:\EAC\冨田ラボ - Superfine (2016) {VICL-1040} [FLAC]\04 荒川小景 feat.坂本真綾.wav
Pre-gap length 0:00:01.40
Peak level 96.5 %
Extraction speed 1.3 X
Track quality 99.9 %
Test CRC CB0127ED
Copy CRC CB0127ED
Accurately ripped (confidence 1) [22FDB262] (AR v2)
Copy OK
Track 5
Filename C:\EAC\冨田ラボ - Superfine (2016) {VICL-1040} [FLAC]\05 ふたりは空気の底に feat.髙城晶平.wav
Pre-gap length 0:00:01.40
Peak level 96.5 %
Extraction speed 1.6 X
Track quality 100.0 %
Test CRC A6B99979
Copy CRC A6B99979
Accurately ripped (confidence 1) [3E018858] (AR v2)
Copy OK
Track 6
Filename C:\EAC\冨田ラボ - Superfine (2016) {VICL-1040} [FLAC]\06 Bite My Nails feat.藤原さくら.wav
Pre-gap length 0:00:01.93
Peak level 98.8 %
Extraction speed 1.7 X
Track quality 100.0 %
Test CRC 289A5153
Copy CRC 289A5153
Accurately ripped (confidence 1) [6A540EC3] (AR v2)
Copy OK
Track 7
Filename C:\EAC\冨田ラボ - Superfine (2016) {VICL-1040} [FLAC]\07 鼓動 feat.城戸あき子.wav
Peak level 99.9 %
Extraction speed 1.9 X
Track quality 100.0 %
Test CRC E925B2BB
Copy CRC E925B2BB
Accurately ripped (confidence 1) [BE1783DE] (AR v2)
Copy OK
Track 8
Filename C:\EAC\冨田ラボ - Superfine (2016) {VICL-1040} [FLAC]\08 雪の街 feat.安部勇磨.wav
Pre-gap length 0:00:00.40
Peak level 99.9 %
Extraction speed 1.9 X
Track quality 100.0 %
Test CRC 50AACEBB
Copy CRC 50AACEBB
Accurately ripped (confidence 1) [E56E0A95] (AR v2)
Copy OK
Track 9
Filename C:\EAC\冨田ラボ - Superfine (2016) {VICL-1040} [FLAC]\09 笑ってリグレット feat.AKIO.wav
Pre-gap length 0:00:01.93
Peak level 99.6 %
Extraction speed 2.1 X
Track quality 100.0 %
Test CRC 2FFEA03A
Copy CRC 2FFEA03A
Accurately ripped (confidence 1) [1197475E] (AR v2)
Copy OK
Track 10
Filename C:\EAC\冨田ラボ - Superfine (2016) {VICL-1040} [FLAC]\10 SUPERFINE ENDING(instrumental).wav
Pre-gap length 0:00:01.40
Peak level 98.6 %
Extraction speed 1.5 X
Track quality 100.0 %
Test CRC A3B9BD10
Copy CRC A3B9BD10
Accurately ripped (confidence 1) [3C57FD14] (AR v2)
Copy OK
All tracks accurately ripped
No errors occurred
End of status report
---- CUETools DB Plugin V2.1.6
[CTDB TOCID: 2MPzYj58fAMZgqQ7UaAm7r9SJ0E-] found
Submit result: 2MPzYj58fAMZgqQ7UaAm7r9SJ0E- has been confirmed
Track | CTDB Status
1 | (6/6) Accurately ripped
2 | (6/6) Accurately ripped
3 | (6/6) Accurately ripped
4 | (6/6) Accurately ripped
5 | (6/6) Accurately ripped
6 | (6/6) Accurately ripped
7 | (6/6) Accurately ripped
8 | (6/6) Accurately ripped
9 | (6/6) Accurately ripped
10 | (6/6) Accurately ripped
==== Log checksum A0A3ACD0F326C4298CD20650558D07627C8D8CA63CB42C744E8E4465C1DCBA70 ====
Содержание индексной карты (.CUE)
REM GENRE JPop
REM DATE 2016
REM DISCID 760A0A0A
REM COMMENT "ExactAudioCopy v1.3"
CATALOG 4988002724062
PERFORMER "Tomita Lab"
TITLE "Superfine"
FILE "01 - Superfine Opening (Instrumental).wav" WAVE
TRACK 01 AUDIO
TITLE "Superfine Opening (Instrumental)"
PERFORMER "Tomita Lab"
ISRC JPVI01633120
INDEX 01 00:00:00
FILE "02 - Radio Taisou Girl (feat. Yonce).wav" WAVE
TRACK 02 AUDIO
TITLE "Radio Taisou Girl (feat. Yonce)"
PERFORMER "Tomita Lab"
ISRC JPVI01618120
INDEX 01 00:00:00
TRACK 03 AUDIO
TITLE "Tomita Sakana Ten (feat. Komuai)"
PERFORMER "Tomita Lab"
ISRC JPVI01627920
INDEX 00 04:07:65
FILE "03 - Tomita Sakana Ten (feat. Komuai).wav" WAVE
INDEX 01 00:00:00
TRACK 04 AUDIO
TITLE "Arakawa Show Kei (feat. Maaya Sakamoto)"
PERFORMER "Tomita Lab"
ISRC JPVI01633110
INDEX 00 04:26:60
FILE "04 - Arakawa Show Kei (feat. Maaya Sakamoto).wav" WAVE
INDEX 01 00:00:00
TRACK 05 AUDIO
TITLE "Futari ha Kuuki no Soko ni (feat. Shohei Takagi)"
PERFORMER "Tomita Lab"
ISRC JPVI01633100
INDEX 00 06:09:10
FILE "05 - Futari ha Kuuki no Soko ni (feat. Shohei Takagi).wav" WAVE
INDEX 01 00:00:00
TRACK 06 AUDIO
TITLE "Bite My Nails (feat. Sakura Fujiwara)"
PERFORMER "Tomita Lab"
ISRC JPVI01633130
INDEX 00 04:42:00
FILE "06 - Bite My Nails (feat. Sakura Fujiwara).wav" WAVE
INDEX 01 00:00:00
FILE "07 - Kodou (feat. Akiko Kido).wav" WAVE
TRACK 07 AUDIO
TITLE "Kodou (feat. Akiko Kido)"
PERFORMER "Tomita Lab"
ISRC JPVI01627930
INDEX 01 00:00:00
TRACK 08 AUDIO
TITLE "Yuki no Machi (feat. Yuma Abe)"
PERFORMER "Tomita Lab"
ISRC JPVI01618130
INDEX 00 05:42:35
FILE "08 - Yuki no Machi (feat. Yuma Abe).wav" WAVE
INDEX 01 00:00:00
TRACK 09 AUDIO
TITLE "Waratte Regret (feat. Akio)"
PERFORMER "Tomita Lab"
ISRC JPVI01633140
INDEX 00 04:37:40
FILE "09 - Waratte Regret (feat. Akio).wav" WAVE
INDEX 01 00:00:00
TRACK 10 AUDIO
TITLE "Superfine Ending (Instrumental)"
PERFORMER "Tomita Lab"
ISRC JPVI01633150
INDEX 00 04:55:20
FILE "10 - Superfine Ending (Instrumental).wav" WAVE
INDEX 01 00:00:00
Отчет CUETools
[CUETools log; Date: 30.01.2017 0:21:22; Version: 2.1.5]
[CTDB TOCID: 2MPzYj58fAMZgqQ7UaAm7r9SJ0E-] found.
Track | CTDB Status
1 | (38/38) Accurately ripped
2 | (38/38) Accurately ripped
3 | (38/38) Accurately ripped
4 | (38/38) Accurately ripped
5 | (38/38) Accurately ripped
6 | (38/38) Accurately ripped
7 | (38/38) Accurately ripped
8 | (38/38) Accurately ripped
9 | (38/38) Accurately ripped
10 | (38/38) Accurately ripped
[AccurateRip ID: 001048a7-00852533-760a0a0a] found.
Track [ CRC | V2 ] Status
01 [d7ed58ec|16828749] (0+1/1) Accurately ripped
02 [75474941|6ba99f58] (0+1/1) Accurately ripped
03 [c2a92e7d|da7d720f] (0+1/1) Accurately ripped
04 [b0196b2e|22fdb262] (0+1/1) Accurately ripped
05 [d7e7e2be|3e018858] (0+1/1) Accurately ripped
06 [397f203f|6a540ec3] (0+1/1) Accurately ripped
07 [2e5bacaf|be1783de] (0+1/1) Accurately ripped
08 [e905b3f3|e56e0a95] (0+1/1) Accurately ripped
09 [b2f001a0|1197475e] (0+1/1) Accurately ripped
10 [64062e93|3c57fd14] (0+1/1) Accurately ripped
Track Peak [ CRC32 ] [W/O NULL] [ LOG ]
-- 99,9 [AEB6515D] [37A17A73]
01 99,2 [94D3CB15] [8919A49C] CRC32
02 99,9 [2B8B59E6] [81DE5C06] CRC32
03 99,9 [ED956D61] [7DC6BDC3] CRC32
04 96,5 [CB0127ED] [711CC541] CRC32
05 96,5 [A6B99979] [0A5562D2] CRC32
06 98,8 [289A5153] [27291216] CRC32
07 99,9 [E925B2BB] [DB8C4FCA] CRC32
08 99,9 [50AACEBB] [A89540D1] CRC32
09 99,6 [2FFEA03A] [EDB759FB] CRC32
10 98,6 [A3B9BD10] [03E5D7F9] CRC32
Зарегистрирован:
  • 30-Янв-17 00:24
  • Скачан: 183 раза

Скачать .torrent

12 KB

Тип: обычная
Статус: проверено
Размер: 280.9 MB  ·  magnetE87B1E4C7AFB42BAC2BCA7C231651F5914593E14
  • Свернуть поддиректории
  • Развернуть
  • Переключить
  • Увел./умен. окно
загружается...
МОИ РАЗДАЧИ
Раздачи, перезалитые в рамках замены приватных раздач, сидирую только два месяца. НЕ УХОДИТЕ С РАЗДАЧ!!!
 
All rights reserved © 2017-2018
Loading...
Error