Актриса тысячелетия / Sennen Joyuu / Millennium Actress [Movie] [Без хардсаба] [RUS(int), JAP, SUB] [2001, драма, история, романтика, приключения, BDRip] [HWP]

Статистика раздачи
Размер:  2.02 GB   |   Зарегистрирован:  1 год 8 месяцев   |   .torrent скачан:  599 раз
Сиды:  2
Автор
Сообщение

tеko

Moderator

Стаж: 9 лет 11 месяцев

Сообщений: 16131

flag

tеko · 28-Фев-17 21:09 (1 год 8 месяцев назад, ред. 03-Мар-17 16:37)

 

Актриса тысячелетия / Sennen Joyuu / Millennium Actress
Страна: Япония
Год выпуска: 2001
Жанр: драма, история, романтика, приключения
Тип: Movie
Продолжительность: 86 мин.

Режиссер: Кон Сатоси
Студия:
Описание: Десятилетиями Тиёко Фудзивара была выдающейся актрисой, снимавшейся в фильмах различных жанров. Однажды ее высокогорную виллу посетили продюсер и хроникер, работающие над историей жизни и карьеры Тиёко. Они принесли с собой маленький старый ключик, открывший многие тайны ее воспоминаний...
Качество: BDRip [tеko]
Тип релиза: Без хардсаба
Формат видео: AVI
Совместимость с бытовыми плеерами: Да
Видео: 704x384 (1.83:1), 23.976 fps, XviD MPEG-4 ~2317 kbps avg, 0.36 bit/pixel
Аудио #1: (в контейнере) русская - 48 kHz, AC3 Dolby Digital, 3/2 (L,C,R,l,r) + LFE ch, ~384 kbps - многоголосый (MC Entertainment)
Аудио #2: (в контейнере) русская - 48 kHz, AC3 Dolby Digital, 2/0 (L,R) ch, ~192 kbps - одноголосый (Юрий Сербин)
Аудио #3: (в контейнере) японская - 48 kHz, AC3 Dolby Digital, 3/2 (L,C,R,l,r) + LFE ch, ~448 kbps
Субтитры #1: SRT - внешние, русские - MC Entertainment
Субтитры #2: SRT - внешние, английские
Подробные тех. данные
General
Complete name : H:\Millennium.Actress.2001.bdrip_[teko]\Millennium.Actress.2001.bdrip.avi
Format : AVI
Format/Info : Audio Video Interleave
Format profile : OpenDML
File size : 2.02 GiB
Duration : 1h 26mn
Overall bit rate : 3 348 Kbps
Writing application : VirtualDubMod 1.5.10.3 | www.virtualdub-fr.org || (build 2550/release)
Writing library : VirtualDubMod build 2550/release
Video
ID : 0
Format : MPEG-4 Visual
Format profile : Advanced Simple@L5
Format settings, BVOP : 2
Format settings, QPel : No
Format settings, GMC : No warppoints
Format settings, Matrix : Custom
Codec ID : XVID
Codec ID/Hint : XviD
Duration : 1h 26mn
Bit rate : 2 300 Kbps
Width : 704 pixels
Height : 384 pixels
Display aspect ratio : 1.85:1
Frame rate : 23.976 (23976/1000) fps
Color space : YUV
Chroma subsampling : 4:2:0
Bit depth : 8 bits
Scan type : Progressive
Compression mode : Lossy
Bits/(Pixel*Frame) : 0.355
Stream size : 1.39 GiB (69%)
Writing library : XviD 73
Audio #1
ID : 1
Format : AC-3
Format/Info : Audio Coding 3
Mode extension : CM (complete main)
Format settings, Endianness : Big
Codec ID : 2000
Duration : 1h 26mn
Bit rate mode : Constant
Bit rate : 384 Kbps
Channel(s) : 6 channels
Channel positions : Front: L C R, Side: L R, LFE
Sampling rate : 48.0 KHz
Frame rate : 31.250 fps (1536 spf)
Compression mode : Lossy
Stream size : 237 MiB (11%)
Alignment : Split accross interleaves
Interleave, duration : 42 ms (1.00 video frame)
Interleave, preload duratio : 500 ms
Audio #2
ID : 2
Format : AC-3
Format/Info : Audio Coding 3
Mode extension : CM (complete main)
Format settings, Endianness : Big
Codec ID : 2000
Duration : 1h 26mn
Bit rate mode : Constant
Bit rate : 192 Kbps
Channel(s) : 2 channels
Channel positions : Front: L R
Sampling rate : 48.0 KHz
Frame rate : 31.250 fps (1536 spf)
Compression mode : Lossy
Stream size : 119 MiB (6%)
Alignment : Split accross interleaves
Interleave, duration : 42 ms (1.00 video frame)
Interleave, preload duratio : 500 ms
Audio #3
ID : 3
Format : AC-3
Format/Info : Audio Coding 3
Mode extension : CM (complete main)
Format settings, Endianness : Big
Codec ID : 2000
Duration : 1h 26mn
Bit rate mode : Constant
Bit rate : 448 Kbps
Channel(s) : 6 channels
Channel positions : Front: L C R, Side: L R, LFE
Sampling rate : 48.0 KHz
Frame rate : 31.250 fps (1536 spf)
Compression mode : Lossy
Stream size : 277 MiB (13%)
Alignment : Split accross interleaves
Interleave, duration : 42 ms (1.00 video frame)
Interleave, preload duratio : 500 ms
Скриншоты
Релиз группы:


Зарегистрирован:
  • 01-Мар-17 22:08
  • Скачан: 599 раз

Скачать .torrent

11 KB

Тип: обычная
Статус: проверено
Размер: 2.02 GB  ·  magnet2FAC9BD96ECB15CBB1EFF337B7ACCD118BD9EB2C
  • Свернуть поддиректории
  • Развернуть
  • Переключить
  • Увел./умен. окно
загружается...

Rumiko

VIP (Заслуженный)

Стаж: 10 лет 10 месяцев

Сообщений: 4133

flag

Rumiko · 03-Мар-17 13:52 (спустя 2 дня 16 часов, ред. 03-Мар-17 22:49)

скрытый текст
в заголовке надо поменять местами английское название(Millennium Actress) и оригинальное латиницей(Sennen Joyuu)
укажите авторство рипа
отличия от другого подраздела не нужны
У здравого смысла, как великолепно знают лемминги, есть свои пределы. Роберт Шекли
Обход блокировки bt*. трекеров
Неполадки в работе форума/трекера
ЗЕРКАЛА GOSTRACKER.XYZ

Что бы такого сделать хорошего, чтобы всем сразу плохо стало?

tеko

Moderator

Стаж: 9 лет 11 месяцев

Сообщений: 16131

flag

tеko · 03-Мар-17 16:38 (спустя 2 часа 46 мин.)

Rumiko писал(а):
72605068в заголовке надо поменять местами английское название(Millennium Actress) и оригинальное латиницей(Sennen Joyuu)
ок
Rumiko писал(а):
72605332укажите авторство рипа
мой, а в оформлении это обязательно нужно указывать. Я только свои рипы на трекер заливаю
Rumiko писал(а):
72605332отличия от другого подраздела не нужны
они хоть и лежат в другом разделе, но они плеерные.
да и в любом случае, сравнение при выборе вариантов просмотра вряд ли будет лишним

Rumiko

VIP (Заслуженный)

Стаж: 10 лет 10 месяцев

Сообщений: 4133

flag

Rumiko · 03-Мар-17 22:48 (спустя 6 часов)

Цитата:
ок
не совсем там. поправил сам
Цитата:
а в оформлении это обязательно нужно указывать
если известно - да.
Цитата:
но они плеерные
не совсем: например, MP3 vbr у нас плеерным не считается. так же как и H.264 для SD релизов.
и выбора особо не останется: плеерный бдрип с тем же набором озвучек поглощает своих предшественников из соседних разделов
У здравого смысла, как великолепно знают лемминги, есть свои пределы. Роберт Шекли
Обход блокировки bt*. трекеров
Неполадки в работе форума/трекера
ЗЕРКАЛА GOSTRACKER.XYZ

Что бы такого сделать хорошего, чтобы всем сразу плохо стало?
 
All rights reserved © 2017-2018
Loading...
Error