Экспресс "Скалистые горы" / Rocky Mountain Express (Стивен Лоу) [2011, Канада, документальный, BDRip HD (720p)] Original + SUB (rus, eng)

Статистика раздачи
Размер:  2.43 GB   |   Зарегистрирован:  1 год 8 месяцев   |   .torrent скачан:  287 раз

Полный источник: был сегодня

Автор
Сообщение

yv_apple

Moderator

Стаж: 8 лет 5 месяцев

Сообщений: 5559

flag

yv_apple · 03-Мар-17 09:39 (1 год 8 месяцев назад, ред. 03-Мар-17 12:21)

 

Экспресс "Скалистые горы" / Rocky Mountain Express
- / 10

Год выпуска: 2011
Страна: Канада
Жанр: документальный
Продолжительность: 47 мин.
Перевод: Нет
Оригинальная аудиодорожка: Есть
Субтитры: Русские полные, английские полные SDH
Режиссёр: Стивен Лоу
Продюсер: Александр Лоу, Пьетро Л. Серапилья
Композитор: Мишель Кюссон
Монтаж: Джеймс Лахти
Мировая премьера: 30 сентября 2011
Описание: Вместе с экспрессом "Скалистые горы" зрители отправятся в путешествие, на паровозе через захватывающие ландшафты канадских Скалистых гор и попутно услышат эпическое повествование о строительстве первой трансконтинентальной железной дороги страны.
На движущемся по первоначальному маршруту борту величественного парового локомотива № 2816, фильм переносит зрителя обратно в век пара, чтобы вновь пережить эту строительную одиссею. В фильме переплетаются захватывающие воздушные съемки захватывающих дух видов на западе, архивные фотографии и карты, а также мощная энергия и ритмы паровоза. Всё это для того, чтобы погрузить зрителей в эпоху изобретательности и борьбы в местах потрясающей природной красоты. Поездка вдоль глубоких речных ущелий и над высокими горными перевалами. Откройте для себя некоторые из самых красивых и величественных ландшафтов на земле, героическую людскую драму и искусство инженерии, которые сформировали континент.
Качество исходника: Blu-Ray 1080p (HDClub)
Качество: BDRip
Тип: 720p
Контейнер: m4v
Видео: 1280x720 at 23.976 fps, MPEG-4 AVC, ~5800 kbps avg
Аудио#1: English: 48 kHz, ААС, 2/0 (L,R), ~160.00 kbps avg
Аудио#2: Spanish: 48 kHz, ААС, 2/0 (L,R), ~160.00 kbps avg
Аудио#3: English: 48 kHz, AC3, 3/2 (L,C,R,l,r) + LFE ch, ~640.00 kbps avg
Аудио#4: Spanish: 48 kHz, AC3, 3/2 (L,C,R,l,r) + LFE ch, ~640.00 kbps avg
Субтитры №1: Russian: |Полные, SDH (метрическая система измерений)|
Субтитры №2: Russian: |Полные, SDH (британская система измерений)|
Субтитры №3: English: |Полные, SDH|
iTunes MetaTags
Код:
Sort Name: Rocky Mountain Express
XID: Apple:vendor_id:2011-671164
contentID: 671164
Producers: Александр Лоу, Пьетро Л. Серапилья
Director: Стивен Лоу
Long Description: Вместе с  экспрессом  "Скалистые горы"  зрители отправятся в путешествие, на паровозе через захватывающие ландшафты канадских Скалистых гор и попутно услышат эпическое повествование о строительстве первой трансконтинентальной железной дороги страны.
На движущемся по первоначальному маршруту борту величественного парового локомотива № 2816, фильм переносит зрителя обратно в век пара, чтобы вновь пережить эту строительную одиссею. В фильме переплетаются захватывающие воздушные съемки захватывающих дух видов на западе, архивные фотографии и карты, а также мощная энергия и ритмы паровоза. Всё это для того,  чтобы погрузить зрителей в эпоху изобретательности и борьбы в  местах потрясающей природной красоты. Поездка вдоль глубоких речных ущелий и над высокими горными перевалами. Откройте для себя некоторые из самых красивых и величественных ландшафтов на земле, героическую людскую драму и искусство инженерии, которые сформировали континент.
Description: Вместе с  экспрессом  "Скалистые горы"  зрители отправятся в путешествие, на паровозе через захватывающие ландшафты канадских Скалистых гор и попутно услышат эпическое повествование о строительстве первой трансконтинентальной железной дороги страны...
Release Date: 2011-09-30T08:00:00Z
Genre: Documentary
Artist: Stephen Low
Name: Rocky Mountain Express
MediaInfo 720p Release
Код:
General
Complete name                            : Rocky Mountain Express (HD).m4v
Format                                   : MPEG-4
Codec ID                                 : M4V  (M4V /M4A /mp42/isom)
File size                                : 2.43 GiB
Duration                                 : 46mn 55s
Overall bit rate mode                    : Variable
Overall bit rate                         : 7 413 Kbps
Movie name                               : Rocky Mountain Express
Performer                                : Stephen Low
Director                                 : Стивен Лоу
Producer                                 : Александр Лоу / Пьетро Л. Серапилья
Genre                                    : Documentary
ContentType                              : Short Film
Description                              : Вместе с  экспрессом  "Скалистые горы"  зрители отправятся в путешествие, на паровозе через захватывающие ландшафты канадских Скалистых гор и попутно услышат эпическое повествование о строительстве первой трансконтинентальной железной дороги страны...
Recorded date                            : UTC 2011-09-30 08:00:00
Encoded date                             : UTC 2017-03-01 20:17:09
Tagged date                              : UTC 2017-03-02 10:41:31
Cover                                    : Yes
Rating                                   : None
Title/Sort                               : Rocky Mountain Express
LongDescription                          : Вместе с  экспрессом  "Скалистые горы"  зрители отправятся в путешествие, на паровозе через захватывающие ландшафты канадских Скалистых гор и попутно услышат эпическое повествование о строительстве первой трансконтинентальной железной дороги страны. / На движущемся по первоначальному маршруту борту величественного парового локомотива № 2816, фильм переносит зрителя обратно в век пара, чтобы вновь пережить эту строительную одиссею. В фильме переплетаются захватывающие воздушные съемки захватывающих дух видов на западе, архивные фотографии и карты, а также мощная энергия и ритмы паровоза. Всё это для того,  чтобы погрузить зрителей в эпоху изобретательности и борьбы в  местах потрясающей природной красоты. Поездка вдоль глубоких речных ущелий и над высокими горными перевалами. Откройте для себя некоторые из самых красивых и величественных ландшафтов на земле, героическую людскую драму и искусство инженерии, которые сформировали континент.
HDVideo                                  : Yes
AppleStoreCatalogID                      : 671164
Vendor                                   : Apple:vendor_id:2011-671164
Video #1
ID                                       : 1
Format                                   : AVC
Format/Info                              : Advanced Video Codec
Format profile                           : High@L3.1
Format settings, CABAC                   : No
Format settings, ReFrames                : 3 frames
Codec ID                                 : avc1
Codec ID/Info                            : Advanced Video Coding
Duration                                 : 46mn 55s
Source duration                          : 46mn 55s
Bit rate                                 : 5 800 Kbps
Width                                    : 1 280 pixels
Height                                   : 720 pixels
Display aspect ratio                     : 16:9
Frame rate mode                          : Variable
Frame rate                               : 23.976 (24000/1001) fps
Minimum frame rate                       : 23.974 fps
Maximum frame rate                       : 23.981 fps
Color space                              : YUV
Chroma subsampling                       : 4:2:0
Bit depth                                : 8 bits
Scan type                                : Progressive
Bits/(Pixel*Frame)                       : 0.262
Stream size                              : 1.89 GiB (78%)
Source stream size                       : 1.89 GiB (78%)
Title                                    : Main Program
Writing library                          : x264 core 142 r2479 dd79a61
Encoding settings                        : cabac=0 / ref=3 / deblock=1:-3:-2 / analyse=0x3:0x113 / me=umh / subme=9 / psy=1 / psy_rd=1.00:0.25 / mixed_ref=1 / me_range=32 / chroma_me=1 / trellis=0 / 8x8dct=1 / cqm=0 / deadzone=21,11 / fast_pskip=0 / chroma_qp_offset=-2 / threads=18 / lookahead_threads=1 / sliced_threads=0 / nr=0 / decimate=0 / interlaced=0 / bluray_compat=0 / constrained_intra=0 / bframes=3 / b_pyramid=0 / b_adapt=2 / b_bias=0 / direct=1 / weightb=0 / open_gop=0 / weightp=0 / keyint=240 / keyint_min=24 / scenecut=40 / intra_refresh=0 / rc_lookahead=40 / rc=2pass / mbtree=1 / bitrate=5800 / ratetol=1.0 / qcomp=0.60 / qpmin=0 / qpmax=69 / qpstep=4 / cplxblur=20.0 / qblur=0.5 / vbv_maxrate=9500 / vbv_bufsize=9500 / nal_hrd=none / filler=0 / ip_ratio=1.40 / aq=1:0.80
Language                                 : English
Encoded date                             : UTC 2017-03-01 20:17:09
Tagged date                              : UTC 2017-03-01 20:20:40
Color range                              : Limited
Color primaries                          : BT.709
Transfer characteristics                 : BT.709
Matrix coefficients                      : BT.709
Menus                                    : 9,10
Video #2
ID                                       : 10
Format                                   : JPEG
Codec ID                                 : jpeg
Duration                                 : 46mn 55s
Bit rate mode                            : Variable
Bit rate                                 : 3 333 bps
Width                                    : 640 pixels
Height                                   : 360 pixels
Display aspect ratio                     : 16:9
Frame rate mode                          : Variable
Frame rate                               : 0.006 fps
Minimum frame rate                       : 0.003 fps
Maximum frame rate                       : 0.094 fps
Color space                              : YUV
Chroma subsampling                       : 4:2:0
Bit depth                                : 8 bits
Compression mode                         : Lossy
Bits/(Pixel*Frame)                       : 2.411
Stream size                              : 1.19 MiB (0%)
Title                                    : Chapter Images
Language                                 : English
Default                                  : No
Encoded date                             : UTC 2017-03-02 10:24:12
Tagged date                              : UTC 2017-03-02 10:24:12
Menu For                                 : 1
Audio #1
ID                                       : 2
Format                                   : AAC
Format/Info                              : Advanced Audio Codec
Format profile                           : LC
Codec ID                                 : 40
Duration                                 : 46mn 55s
Bit rate mode                            : Variable
Bit rate                                 : 171 Kbps
Maximum bit rate                         : 247 Kbps
Channel(s)                               : 2 channels
Channel positions                        : Front: L R
Sampling rate                            : 48.0 KHz
Frame rate                               : 46.875 fps (1024 spf)
Compression mode                         : Lossy
Stream size                              : 57.4 MiB (2%)
Title                                    : English Stereo
Language                                 : English
Default                                  : Yes
Alternate group                          : 1
Encoded date                             : UTC 2017-03-01 20:17:09
Tagged date                              : UTC 2017-03-01 20:20:53
Fallback From                            : 4
Menus                                    : 9
Audio #2
ID                                       : 3
Format                                   : AAC
Format/Info                              : Advanced Audio Codec
Format profile                           : LC
Codec ID                                 : 40
Duration                                 : 46mn 55s
Bit rate mode                            : Variable
Bit rate                                 : 171 Kbps
Maximum bit rate                         : 262 Kbps
Channel(s)                               : 2 channels
Channel positions                        : Front: L R
Sampling rate                            : 48.0 KHz
Frame rate                               : 46.875 fps (1024 spf)
Compression mode                         : Lossy
Stream size                              : 57.3 MiB (2%)
Title                                    : Spanish DUB Stereo
Language                                 : Spanish
Default                                  : No
Alternate group                          : 1
Encoded date                             : UTC 2017-03-01 20:17:09
Tagged date                              : UTC 2017-03-01 20:20:53
Fallback From                            : 5
Audio #3
ID                                       : 4
Format                                   : AC-3
Format/Info                              : Audio Coding 3
Mode extension                           : CM (complete main)
Format settings, Endianness              : Big
Codec ID                                 : ac-3
Duration                                 : 46mn 55s
Bit rate mode                            : Constant
Bit rate                                 : 640 Kbps
Channel(s)                               : 6 channels
Channel positions                        : Front: L C R, Side: L R, LFE
Sampling rate                            : 48.0 KHz
Frame rate                               : 31.250 fps (1536 spf)
Bit depth                                : 16 bits
Compression mode                         : Lossy
Stream size                              : 215 MiB (9%)
Title                                    : English DD 5.1
Language                                 : English
Default                                  : Inherited From: 2
Alternate group                          : 1
Encoded date                             : UTC 2017-03-01 20:17:09
Tagged date                              : UTC 2017-03-01 20:17:59
Fallback To                              : 2
Audio #4
ID                                       : 5
Format                                   : AC-3
Format/Info                              : Audio Coding 3
Mode extension                           : CM (complete main)
Format settings, Endianness              : Big
Codec ID                                 : ac-3
Duration                                 : 46mn 55s
Bit rate mode                            : Constant
Bit rate                                 : 640 Kbps
Channel(s)                               : 6 channels
Channel positions                        : Front: L C R, Side: L R, LFE
Sampling rate                            : 48.0 KHz
Frame rate                               : 31.250 fps (1536 spf)
Bit depth                                : 16 bits
Compression mode                         : Lossy
Stream size                              : 215 MiB (9%)
Title                                    : Spanish DUB DD 5.1
Language                                 : Spanish
Default                                  : No
Alternate group                          : 1
Encoded date                             : UTC 2017-03-01 20:17:09
Tagged date                              : UTC 2017-03-01 20:17:59
Fallback To                              : 3
Text #1
ID                                       : 6
Format                                   : Timed Text
Muxing mode                              : sbtl
Codec ID                                 : tx3g
Duration                                 : 46mn 42s
Bit rate mode                            : Variable
Bit rate                                 : 82 bps
Stream size                              : 28.2 KiB (0%)
Title                                    : Russian SDH (Metric system) Subtitle
Language                                 : Russian
Default                                  : Yes
Forced                                   : No
Alternate group                          : 2
Encoded date                             : UTC 2017-03-02 10:23:08
Tagged date                              : UTC 2017-03-02 10:23:08
Text #2
ID                                       : 7
Format                                   : Timed Text
Muxing mode                              : sbtl
Codec ID                                 : tx3g
Duration                                 : 46mn 42s
Bit rate mode                            : Variable
Bit rate                                 : 82 bps
Stream size                              : 28.0 KiB (0%)
Title                                    : Russian SDH (The English system of measures) Subtitle
Language                                 : Russian
Default                                  : No
Forced                                   : No
Alternate group                          : 2
Encoded date                             : UTC 2017-03-02 10:23:08
Tagged date                              : UTC 2017-03-02 10:23:08
Text #3
ID                                       : 8
Format                                   : Timed Text
Muxing mode                              : sbtl
Codec ID                                 : tx3g
Duration                                 : 46mn 43s
Bit rate mode                            : Variable
Bit rate                                 : 49 bps
Stream size                              : 16.7 KiB (0%)
Title                                    : English SDH Subtitle
Language                                 : English
Default                                  : No
Forced                                   : No
Alternate group                          : 2
Encoded date                             : UTC 2017-03-02 10:23:08
Tagged date                              : UTC 2017-03-02 10:23:08
Menu #1
00:00:00.000                             : 1
00:00:44.044                             : 2
00:03:00.180                             : 3
00:05:37.295                             : 4
00:08:51.656                             : 5
00:12:39.175                             : 6
00:14:46.302                             : 7
00:17:03.773                             : 8
00:18:32.528                             : 9
00:24:52.908                             : 10
00:27:25.644                             : 11
00:31:57.415                             : 12
00:35:52.150                             : 13
00:36:50.041                             : 14
00:37:00.635                             : 15
00:38:48.743                             : 16
00:41:16.474                             : 17
00:43:03.998                             : 18
Menu #2
ID                                       : 9
Codec ID                                 : text
Duration                                 : 46mn 55s
Title                                    : Chapter Titles
Language                                 : English
Encoded date                             : UTC 2017-03-02 10:23:08
Tagged date                              : UTC 2017-03-02 10:23:08
Menu For                                 : 2,1
00:00:00.000                             : 1
00:00:44.044                             : 2
00:03:00.180                             : 3
00:05:37.295                             : 4
00:08:51.656                             : 5
00:12:39.175                             : 6
00:14:46.302                             : 7
00:17:03.773                             : 8
00:18:32.528                             : 9
00:24:52.908                             : 10
00:27:25.644                             : 11
00:31:57.415                             : 12
00:35:52.150                             : 13
00:36:50.041                             : 14
00:37:00.635                             : 15
00:38:48.743                             : 16
00:41:16.474                             : 17
00:43:03.998                             : 18
Bit rate mode                            : VBR
x264 лог 720p Release
Код:
HandBrakeCLI -i "/ROCKY_MTN_EXPRESS/BDMV/STREAM/00021.m2ts" -t 1 -o Rocky.Mountain.Express.720p.eng.m4v -f mp4 -4 -O -w 1280 -l 720 --crop 0:0:0:0 --modulus 16 -e x264 -b 5800 -2 -a none -x cabac=0:ref=3:me=umh:b-pyramid=none:b-adapt=2:weightb=0:trellis=0:weightp=0:vbv-maxrate=9500:vbv-bufsize=9500:subq=9:merange=32:deblock=-3,-2:qcomp=0.60:qpmin=0:qpmax=69:fast_pskip=0:aq-strength=0.8:no-dct-decimate=1:psy-rd=1.00,0.25 --verbose=1
x264 [info]: frame I:352   Avg QP:17.91  size:229166
x264 [info]: frame P:25226 Avg QP:20.79  size: 60739
x264 [info]: frame B:41921 Avg QP:24.33  size: 10029
x264 [info]: consecutive B-frames:  3.0% 30.4% 36.6% 30.0%
x264 [info]: mb I  I16..4:  9.8% 51.0% 39.2%
x264 [info]: mb P  I16..4:  1.1%  4.2%  2.2%  P16..4: 42.3% 24.6% 13.9%  0.0%  0.0%    skip:11.6%
x264 [info]: mb B  I16..4:  0.2%  0.8%  0.4%  B16..8: 37.6%  7.2%  1.6%  direct: 3.8%  skip:48.5%  L0:33.2% L1:49.2% BI:17.6%
x264 [info]: 8x8 transform intra:55.3% inter:45.2%
x264 [info]: coded y,uvDC,uvAC intra: 82.7% 68.2% 37.4% inter: 28.7% 18.6% 9.4%
x264 [info]: i16 v,h,dc,p: 35% 19%  8% 37%
x264 [info]: i8 v,h,dc,ddl,ddr,vr,hd,vl,hu:  6%  7%  4% 11% 17% 13% 18% 10% 13%
x264 [info]: i4 v,h,dc,ddl,ddr,vr,hd,vl,hu:  7%  9%  3% 10% 19% 14% 19%  9% 11%
x264 [info]: i8c dc,h,v,p: 55% 18% 17% 10%
x264 [info]: ref P L0: 80.6% 11.9%  7.4%
x264 [info]: ref B L0: 85.1% 14.9%
x264 [info]: kb/s:5777.76
Скриншоты 720p Release
Цитата:
  • Сохранены оригинальные чаптеры как на Blu-ray;
  • За перевод субтитров с английского спасибо DeTorquemada;
  • Русские субтитры 2-х видов: в метрической и британской системе измерений.



Релиз подготовлен для просмотра на Apple TV, iPad, iPhone, iPod Touch.
Для просмотра данного релиза на компьютере с ОС Windows рекомендуется использовать VLC media player
Зарегистрирован:
  • 03-Мар-17 09:39
  • Скачан: 287 раз

Скачать .torrent

25 KB

Тип: обычная
Статус: проверено
Размер: 2.43 GB  ·  magnetD5CF6E40B169BB55679D50FBA13D56406C7E3EF4
  • Свернуть поддиректории
  • Развернуть
  • Переключить
  • Увел./умен. окно
загружается...
 
All rights reserved © 2017-2018
Loading...
Error