Конец Евангелиона / Neon Genesis Evangelion: The End of Evangelion / Shinseiki Evangelion Gekijouban: The End of Evangelion [Movie] [2 из 2] [Без хардсаба] [RUS(int), JAP, SUB] [1997, драма, фантастика, меха, BDRip] [720p] [HD]

Статистика раздачи
Размер:  3.01 GB   |   Зарегистрирован:  1 год 3 месяца   |   .torrent скачан:  1,573 раза
Сиды:  10
Автор
Сообщение

workuz

Стаж: 4 года 1 месяц

Сообщений: 58


workuz · 11-Апр-17 21:48 (1 год 7 месяцев назад, ред. 27-Июл-17 11:46)

 

Конец Евангелиона / Neon Genesis Evangelion: The End of Evangelion / Shinseiki Evangelion Gekijouban: The End of Evangelion
Страна: Япония
Год выпуска: 1997
Жанр: драма, фантастиха, меха
Тип: Movie
Продолжительность: 1 эп. ~46 мин. / 2 эп. ~40 мин
Режиссер: Анно Хидэаки
Студия: GAINAX, Production I.G
Описание: Конец Евангелиона – это второй фильм в линейке Neon Genesis Evangelion. Фильм представляет собой альтернативную концовку сериала и показывает события, происходящие после 24 эпизода.
Фильм разделён на два 45-минутных эпизода, имеющих такую же нумерацию, как и в сериале: Эпизод 25’: Воздух и Эпизод 26’: Искренне ваш. Сами создатели рассматривают его как альтернативный финал телесериала или более подробный: «реальный мир» во время событий последних 25 и 26 серий сериала, которые преимущественно состоят из картин сознания главных героев (такой стиль был выбран из-за сроков выхода на ТВ и нехватки бюджета).
Качество: BDRip
Тип релиза: Без хардсаба
Формат видео: MKV
Релиз/Автор рипа: workuz
Совместимость с бытовыми плеерами: Да
Видео: h264, 1280x720, 4000 kbps, 23.976 fps
Аудио: ac3, 448 kbps, 48.0 kHz, 6 ch Язык Русский (в составе контейнера) ; Озвучка: Евгения Лурье (Suzaku)
Аудио 2: MP3, 160 kbps, 48.0 kHz, 2 ch Язык Русский (в составе контейнера) ; Озвучка: Azazel
Аудио 3: MP3, 128 kbps, 48.0 kHz, 2 ch Язык Русский (в составе контейнера) ; Озвучка: Digital Force
Аудио 4: ac3, 224 kbps, 48.0 kHz, 2 ch Язык Японский
Субтитры: srt, внешние Язык субтитров русский ; Перевод: VikER (рекомендуемая версия)
Субтитры 2: ass, внешние Язык субтитров русский ; Перевод: VikER (рекомендуемая версия)
Подробные тех. данные
Общее
Уникальный идентификатор : 248920051978081756494758082162603871681 (0xBB4442187F5927CEB22063B151084DC1)
Полное имя : C:\Users\Magos\Desktop\The End of Evangelion\The End of Evangelion 01.mkv
Формат : Matroska
Версия формата : Version 4 / Version 2
Размер файла : 1,62 Гбайт
Продолжительность : 46 м. 43 с.
Общий поток : 4961 Кбит/сек
Дата кодирования : UTC 2017-07-27 08:33:17
Программа кодирования : mkvmerge v14.0.0 ('Flow') 64bit
Библиотека кодирования : libebml v1.3.4 + libmatroska v1.4.5
Обложка : Yes
Attachments : Cover.jpg
Видео
Идентификатор : 1
Формат : AVC
Формат/Информация : Advanced Video Codec
Профиль формата : High@L4
Параметр CABAC формата : Да
Параметр RefFrames формата : 9 кадров
Идентификатор кодека : V_MPEG4/ISO/AVC
Продолжительность : 46 м. 42 с.
Битрейт : 4000 Кбит/сек
Ширина : 1280 пикселей
Высота : 720 пикселей
Соотношение сторон : 16:9
Режим частоты кадров : Постоянный
Частота кадров : 23,976 (24000/1001) кадра/сек
Цветовое пространство : YUV
Субдискретизация насыщенности : 4:2:0
Битовая глубина : 8 бит
Тип развёртки : Прогрессивная
Бит/(Пиксели*Кадры) : 0.181
Размер потока : 1,30 Гбайт (81%)
Библиотека кодирования : x264 core 148 r2638 7599210
Настройки программы : cabac=1 / ref=9 / deblock=1:0:0 / analyse=0x3:0x133 / me=umh / subme=10 / psy=1 / psy_rd=1.00:0.00 / mixed_ref=1 / me_range=24 / chroma_me=1 / trellis=2 / 8x8dct=1 / cqm=0 / deadzone=21,11 / fast_pskip=1 / chroma_qp_offset=-2 / threads=6 / lookahead_threads=1 / sliced_threads=0 / nr=0 / decimate=1 / interlaced=0 / bluray_compat=0 / constrained_intra=0 / bframes=8 / b_pyramid=2 / b_adapt=2 / b_bias=0 / direct=3 / weightb=1 / open_gop=0 / weightp=2 / keyint=240 / keyint_min=23 / scenecut=40 / intra_refresh=0 / rc_lookahead=60 / rc=2pass / mbtree=1 / bitrate=4000 / ratetol=1.0 / qcomp=0.60 / qpmin=0 / qpmax=69 / qpstep=4 / cplxblur=20.0 / qblur=0.5 / vbv_maxrate=25000 / vbv_bufsize=31250 / nal_hrd=none / filler=0 / ip_ratio=1.40 / aq=1:1.00
Default : Да
Forced : Нет
Аудио #1
Идентификатор : 2
Формат : AC-3
Формат/Информация : Audio Coding 3
Параметр Endianness формата : Big
Идентификатор кодека : A_AC3
Продолжительность : 46 м. 43 с.
Вид битрейта : Постоянный
Битрейт : 448 Кбит/сек
Каналы : 6 каналов
Расположение каналов : Front: L C R, Side: L R, LFE
Частота : 48,0 КГц
Частота кадров : 31,250 кадров/сек (1536 SPF)
Битовая глубина : 16 бит
Метод сжатия : С потерями
Размер потока : 150 Мбайт (9%)
Заголовок : Евгения Лурье (Suzaku)
Язык : Russian
ServiceKind/String : Complete Main
Default : Да
Forced : Да
Аудио #2
Идентификатор : 3
Формат : MPEG Audio
Версия формата : Version 1
Профиль формата : Layer 3
Идентификатор кодека : A_MPEG/L3
Идентификатор кодека/Подсказка : MP3
Продолжительность : 46 м. 43 с.
Вид битрейта : Постоянный
Битрейт : 160 Кбит/сек
Каналы : 2 канала
Частота : 44,1 КГц
Частота кадров : 38,281 кадров/сек (1152 SPF)
Метод сжатия : С потерями
Размер потока : 53,5 Мбайт (3%)
Заголовок : Azazel
Язык : Russian
Default : Нет
Forced : Нет
Аудио #3
Идентификатор : 4
Формат : MPEG Audio
Версия формата : Version 1
Профиль формата : Layer 3
Идентификатор кодека : A_MPEG/L3
Идентификатор кодека/Подсказка : MP3
Продолжительность : 46 м. 42 с.
Вид битрейта : Постоянный
Битрейт : 128 Кбит/сек
Каналы : 2 канала
Частота : 48,0 КГц
Частота кадров : 41,667 кадра/сек (1152 SPF)
Метод сжатия : С потерями
Размер потока : 42,8 Мбайт (3%)
Заголовок : Digital Force
Язык : Russian
Default : Нет
Forced : Нет
Аудио #4
Идентификатор : 5
Формат : AC-3
Формат/Информация : Audio Coding 3
Параметр Endianness формата : Big
Идентификатор кодека : A_AC3
Продолжительность : 46 м. 42 с.
Вид битрейта : Постоянный
Битрейт : 224 Кбит/сек
Каналы : 2 канала
Расположение каналов : Front: L R
Частота : 48,0 КГц
Частота кадров : 31,250 кадров/сек (1536 SPF)
Битовая глубина : 16 бит
Метод сжатия : С потерями
Размер потока : 74,8 Мбайт (5%)
Заголовок : Original
ServiceKind/String : Complete Main
Default : Нет
Forced : Нет
Список эпизодов
Эпизод 25': Воздух («Air»)
Эпизод 26': Искренне Ваш... («Magokoro o, kimi ni (My Purest Heart for You)»)
Скриншоты
Зарегистрирован:
  • 27-Июл-17 11:46
  • Скачан: 1,573 раза

Скачать .torrent

16 KB

Тип: обычная
Статус: проверено
Размер: 3.01 GB  ·  magnet361283C13ECDF328353C995F22E5198469A8DE82
  • Свернуть поддиректории
  • Развернуть
  • Переключить
  • Увел./умен. окно
загружается...

Gostulf

Стаж: 4 года

Сообщений: 8

flag

Gostulf · 22-Июл-17 09:01 (спустя 3 месяца 10 дней)

Вау. МФТИ — технический ВУЗ Москвы? Или просто аббревиатура совпала?

Buka63

Moderator

Стаж: 7 лет 7 месяцев

Сообщений: 9338

flag

Buka63 · 25-Июл-17 22:17 (спустя 3 дня, ред. 27-Июл-17 21:35)

скрытый текст
workuz
Цитата:
Перевод: Baka Voice & Вилка (они же "Аниме-клуб МФТИ")
Цитата:
2.10 Запрещается раздавать контент в котором присутствует намеренно искаженный перевод (т.н. "шуточный", "вольный", "а-ля Гоблин" и т.д.). Вместе с тем, за нецензурные выражения, не предусмотренные оригинальным текстом и/или оскорбления конкретных лиц, размещенные в тексте субтитров или озвучки, раздача подлежит закрытию.
Поскольку данный перевод содержит ненормативную лексику, предлагаю заменить его на альтернативный, иначе раздача будет закрыта.
Пока же
! - не оформлено
Проверено

exTimecraft.

О дооформлении релизов прошу отписываться мне в личку с обязательным указанием ссылки.

workuz

Стаж: 4 года 1 месяц

Сообщений: 58


workuz · 26-Июл-17 22:02 (спустя 23 часа, ред. 27-Июл-17 11:48)

Заменил субтитры на версию от VikER (рекомендованный вариант). Добавил озвучки от Azazel и Digital Force.
 
All rights reserved © 2017-2018
Loading...
Error