(JPop) [CD] VA - Yakeppachi Rock: Yasagure Kayou Saizensen - 2006, FLAC (tracks+.cue), lossless

Статистика раздачи
Размер:  447.5 MB   |   Зарегистрирован:  1 год 7 месяцев   |   .torrent скачан:  129 раз
Сиды:  2
Автор
Сообщение

mithridat

Top Seed 01* 40r

Стаж: 11 лет 6 месяцев

Сообщений: 596

mithridat · 18-Апр-17 11:38 (1 год 7 месяцев назад, ред. 29-Май-17 21:43)

 

やけっぱちロック~やさぐれ歌謡最前線 : ビクター編 / Yakeppachi Rock: Yasagure Kayou Saizensen
Жанр: JPop
Носитель: CD
Страна-производитель диска (релиза): Japan
Год издания: 2006
Издатель (лейбл): Solid Records
Номер по каталогу: CDSOL-1128
Аудиокодек: FLAC (*.flac)
Тип рипа: tracks+.cue
Битрейт аудио: lossless
Продолжительность: 1:06:06
Источник (релизер): what.cd
Наличие сканов в содержимом раздачи: да
Треклист:
01.Reiko Ike - Metamorphosis (2:40)
02.Reiko Ike - 女の赤い血がさわぐ (2:48)
03.Miki Sugimoto - Shinjuku Carmen (2:54)
04.Miki Sugimoto - 女番長流れ者 (3:47)
05.Maria Anzai - Yakeppachi Rock (2:57)
06.Akiko Nakamura - Barefoot Blues (3:49)
07.Mayumi Nakahara - Take Ten (2:58)
08.Mimi Hiyoshi - Not Merely a Life (3:33)
09.Yasuko Naito - Lonely (3:02)
10.Akemi Ayu - Elegy of 17 (3:46)
11.Flower Kiss - Cheating Sue (2:51)
12.Tamaki Sawa - Tramp Blues (4:13)
13.Kazuko Morimoto - Start With Two Cups of Coffee (3:44)
14.Kazuko Morimoto - Drunk Woman's Flowing Song (3:19)
15.Yuki Yamakawa - Keri (3:27)
16.Sally May - 銀蝶流れ花 (4:14)
17.Maki Carrousel - Shinjuku Dizzy (3:03)
18.Minami Yasuda - Ironside (3:41)
19.Minami Yasuda - Desert of Love (2:41)
20.Anna Sanjou - That Is the Final Turn (2:39)
Лог создания рипа
X Lossless Decoder version 20140504 (147.0)
XLD extraction logfile from 2015-05-10 16:33:19 -0700
Various Artists / Yakeppachi Rock
Used drive : HL-DT-ST BD-RE WH16NS40 (revision 1.00)
Media type : Pressed CD
Ripper mode : XLD Secure Ripper
Disable audio cache : OK for the drive with a cache less than 1375KiB
Make use of C2 pointers : NO
Read offset correction : 6
Max retry count : 100
Gap status : Analyzed, Appended (except HTOA)
TOC of the extracted CD
Track | Start | Length | Start sector | End sector
---------------------------------------------------------
1 | 00:00:00 | 02:40:37 | 0 | 12036
2 | 02:40:37 | 02:47:45 | 12037 | 24606
3 | 05:28:07 | 02:54:14 | 24607 | 37670
4 | 08:22:21 | 03:47:17 | 37671 | 54712
5 | 12:09:38 | 02:56:47 | 54713 | 67959
6 | 15:06:10 | 03:48:56 | 67960 | 85115
7 | 18:54:66 | 02:57:61 | 85116 | 98451
8 | 21:52:52 | 03:33:00 | 98452 | 114426
9 | 25:25:52 | 03:01:57 | 114427 | 128058
10 | 28:27:34 | 03:45:54 | 128059 | 144987
11 | 32:13:13 | 02:51:18 | 144988 | 157830
12 | 35:04:31 | 04:12:74 | 157831 | 176804
13 | 39:17:30 | 03:44:19 | 176805 | 193623
14 | 43:01:49 | 03:18:73 | 193624 | 208546
15 | 46:20:47 | 03:27:10 | 208547 | 224081
16 | 49:47:57 | 04:13:50 | 224082 | 243106
17 | 54:01:32 | 03:03:33 | 243107 | 256864
18 | 57:04:65 | 03:41:22 | 256865 | 273461
19 | 60:46:12 | 02:41:18 | 273462 | 285554
20 | 63:27:30 | 02:38:51 | 285555 | 297455
AccurateRip Summary (DiscID: 002f1434-02ba040f-1e0f7e14)
Track 01 : OK (v1, confidence 1/1)
Track 02 : OK (v1, confidence 1/1)
Track 03 : OK (v1, confidence 1/1)
Track 04 : OK (v1, confidence 1/1)
Track 05 : OK (v1, confidence 1/1)
Track 06 : OK (v1, confidence 1/1)
Track 07 : OK (v1, confidence 1/1)
Track 08 : OK (v1, confidence 1/1)
Track 09 : OK (v1, confidence 1/1)
Track 10 : OK (v1, confidence 1/1)
Track 11 : OK (v1, confidence 1/1)
Track 12 : OK (v1, confidence 1/1)
Track 13 : OK (v1, confidence 1/1)
Track 14 : OK (v1, confidence 1/1)
Track 15 : OK (v1, confidence 1/1)
Track 16 : OK (v1, confidence 1/1)
Track 17 : OK (v1, confidence 1/1)
Track 18 : OK (v1, confidence 1/1)
Track 19 : OK (v1, confidence 1/1)
Track 20 : OK (v1, confidence 1/1)
->All tracks accurately ripped.
All Tracks
Album gain : -9.31 dB
Peak : 0.988586
Statistics
Read error : 0
Jitter error (maybe fixed) : 0
Retry sector count : 0
Damaged sector count : 0
Track 01
Filename : /Users/Maledeo/Desktop/aaaaa/XLD new files/01 - Metamorphosis.flac
/Users/Maledeo/Desktop/aaaaa/XLD new files/01 - Metamorphosis.mp3
Pre-gap length : 00:02:00
Track gain : -8.27 dB
Peak : 0.988525
CRC32 hash (test run) : 57ADD4AB
CRC32 hash : 57ADD4AB
CRC32 hash (skip zero) : 040322F2
AccurateRip v1 signature : FA7BE32F
AccurateRip v2 signature : 90EF8BF8
->Accurately ripped (v1, confidence 1/1)
Statistics
Read error : 0
Jitter error (maybe fixed) : 0
Retry sector count : 0
Damaged sector count : 0
Track 02
Filename : /Users/Maledeo/Desktop/aaaaa/XLD new files/02 - 女の赤い血がさわぐ.flac
/Users/Maledeo/Desktop/aaaaa/XLD new files/02 - 女の赤い血がさわぐ.mp3
Pre-gap length : 00:02:03
Track gain : -8.61 dB
Peak : 0.988525
CRC32 hash (test run) : 4DB1C173
CRC32 hash : 4DB1C173
CRC32 hash (skip zero) : ADC46A20
AccurateRip v1 signature : 326FFE07
AccurateRip v2 signature : 145B6774
->Accurately ripped (v1, confidence 1/1)
Statistics
Read error : 0
Jitter error (maybe fixed) : 0
Retry sector count : 0
Damaged sector count : 0
Track 03
Filename : /Users/Maledeo/Desktop/aaaaa/XLD new files/03 - Shinjuku Carmen.flac
/Users/Maledeo/Desktop/aaaaa/XLD new files/03 - Shinjuku Carmen.mp3
Pre-gap length : 00:01:33
Track gain : -9.03 dB
Peak : 0.988586
CRC32 hash (test run) : 4221EA8F
CRC32 hash : 4221EA8F
CRC32 hash (skip zero) : 05C0E8A5
AccurateRip v1 signature : 3E5E96FF
AccurateRip v2 signature : C59B9F34
->Accurately ripped (v1, confidence 1/1)
Statistics
Read error : 0
Jitter error (maybe fixed) : 0
Retry sector count : 0
Damaged sector count : 0
Track 04
Filename : /Users/Maledeo/Desktop/aaaaa/XLD new files/04 - 女番長流れ者.flac
/Users/Maledeo/Desktop/aaaaa/XLD new files/04 - 女番長流れ者.mp3
Pre-gap length : 00:01:33
Track gain : -7.59 dB
Peak : 0.988525
CRC32 hash (test run) : 5D3B47B0
CRC32 hash : 5D3B47B0
CRC32 hash (skip zero) : 38866234
AccurateRip v1 signature : 2642B3D9
AccurateRip v2 signature : 84A28D04
->Accurately ripped (v1, confidence 1/1)
Statistics
Read error : 0
Jitter error (maybe fixed) : 0
Retry sector count : 0
Damaged sector count : 0
Track 05
Filename : /Users/Maledeo/Desktop/aaaaa/XLD new files/05 - Yakeppachi Rock.flac
/Users/Maledeo/Desktop/aaaaa/XLD new files/05 - Yakeppachi Rock.mp3
Pre-gap length : 00:01:33
Track gain : -9.96 dB
Peak : 0.988525
CRC32 hash (test run) : 23E3BC3A
CRC32 hash : 23E3BC3A
CRC32 hash (skip zero) : 498EBA64
AccurateRip v1 signature : D54B71C5
AccurateRip v2 signature : 4DF7D7A9
->Accurately ripped (v1, confidence 1/1)
Statistics
Read error : 0
Jitter error (maybe fixed) : 0
Retry sector count : 0
Damaged sector count : 0
Track 06
Filename : /Users/Maledeo/Desktop/aaaaa/XLD new files/06 - Barefoot Blues.flac
/Users/Maledeo/Desktop/aaaaa/XLD new files/06 - Barefoot Blues.mp3
Pre-gap length : 00:01:63
Track gain : -9.92 dB
Peak : 0.988525
CRC32 hash (test run) : C047D118
CRC32 hash : C047D118
CRC32 hash (skip zero) : FAA8BDDD
AccurateRip v1 signature : BE0FE04C
AccurateRip v2 signature : F696D2C5
->Accurately ripped (v1, confidence 1/1)
Statistics
Read error : 0
Jitter error (maybe fixed) : 0
Retry sector count : 0
Damaged sector count : 0
Track 07
Filename : /Users/Maledeo/Desktop/aaaaa/XLD new files/07 - Take Ten.flac
/Users/Maledeo/Desktop/aaaaa/XLD new files/07 - Take Ten.mp3
Pre-gap length : 00:01:33
Track gain : -9.63 dB
Peak : 0.988525
CRC32 hash (test run) : D674FED7
CRC32 hash : D674FED7
CRC32 hash (skip zero) : 9606DE49
AccurateRip v1 signature : 6B559DF8
AccurateRip v2 signature : 11B4CFF0
->Accurately ripped (v1, confidence 1/1)
Statistics
Read error : 0
Jitter error (maybe fixed) : 0
Retry sector count : 0
Damaged sector count : 0
Track 08
Filename : /Users/Maledeo/Desktop/aaaaa/XLD new files/08 - Not Merely a Life.flac
/Users/Maledeo/Desktop/aaaaa/XLD new files/08 - Not Merely a Life.mp3
Pre-gap length : 00:01:33
Track gain : -8.64 dB
Peak : 0.988525
CRC32 hash (test run) : DA2B40E1
CRC32 hash : DA2B40E1
CRC32 hash (skip zero) : 59347A21
AccurateRip v1 signature : 675B3069
AccurateRip v2 signature : B925DBF4
->Accurately ripped (v1, confidence 1/1)
Statistics
Read error : 0
Jitter error (maybe fixed) : 0
Retry sector count : 0
Damaged sector count : 0
Track 09
Filename : /Users/Maledeo/Desktop/aaaaa/XLD new files/09 - Lonely.flac
/Users/Maledeo/Desktop/aaaaa/XLD new files/09 - Lonely.mp3
Pre-gap length : 00:01:33
Track gain : -10.09 dB
Peak : 0.988525
CRC32 hash (test run) : B90AE1BE
CRC32 hash : B90AE1BE
CRC32 hash (skip zero) : C08980C3
AccurateRip v1 signature : BFBA0ED5
AccurateRip v2 signature : 79830732
->Accurately ripped (v1, confidence 1/1)
Statistics
Read error : 0
Jitter error (maybe fixed) : 0
Retry sector count : 0
Damaged sector count : 0
Track 10
Filename : /Users/Maledeo/Desktop/aaaaa/XLD new files/10 - Elegy of 17.flac
/Users/Maledeo/Desktop/aaaaa/XLD new files/10 - Elegy of 17.mp3
Pre-gap length : 00:01:33
Track gain : -8.83 dB
Peak : 0.988525
CRC32 hash (test run) : D02F5E8B
CRC32 hash : D02F5E8B
CRC32 hash (skip zero) : 8D0C8B10
AccurateRip v1 signature : 455493DB
AccurateRip v2 signature : 2634E13D
->Accurately ripped (v1, confidence 1/1)
Statistics
Read error : 0
Jitter error (maybe fixed) : 0
Retry sector count : 0
Damaged sector count : 0
Track 11
Filename : /Users/Maledeo/Desktop/aaaaa/XLD new files/11 - Cheating Sue.flac
/Users/Maledeo/Desktop/aaaaa/XLD new files/11 - Cheating Sue.mp3
Pre-gap length : 00:01:33
Track gain : -9.86 dB
Peak : 0.988525
CRC32 hash (test run) : 5DE8D4D7
CRC32 hash : 5DE8D4D7
CRC32 hash (skip zero) : 78FB5D03
AccurateRip v1 signature : 363D2D69
AccurateRip v2 signature : C9E548B4
->Accurately ripped (v1, confidence 1/1)
Statistics
Read error : 0
Jitter error (maybe fixed) : 0
Retry sector count : 0
Damaged sector count : 0
Track 12
Filename : /Users/Maledeo/Desktop/aaaaa/XLD new files/12 - Tramp Blues.flac
/Users/Maledeo/Desktop/aaaaa/XLD new files/12 - Tramp Blues.mp3
Pre-gap length : 00:01:33
Track gain : -7.72 dB
Peak : 0.988525
CRC32 hash (test run) : 10818C17
CRC32 hash : 10818C17
CRC32 hash (skip zero) : 1D2C28DE
AccurateRip v1 signature : 490A11B3
AccurateRip v2 signature : 78E2052B
->Accurately ripped (v1, confidence 1/1)
Statistics
Read error : 0
Jitter error (maybe fixed) : 0
Retry sector count : 0
Damaged sector count : 0
Track 13
Filename : /Users/Maledeo/Desktop/aaaaa/XLD new files/13 - Start With Two Cups of Coffee.flac
/Users/Maledeo/Desktop/aaaaa/XLD new files/13 - Start With Two Cups of Coffee.mp3
Pre-gap length : 00:01:71
Track gain : -9.44 dB
Peak : 0.988525
CRC32 hash (test run) : BAB14FFD
CRC32 hash : BAB14FFD
CRC32 hash (skip zero) : 2F8CD782
AccurateRip v1 signature : F7E1C28E
AccurateRip v2 signature : 363098A1
->Accurately ripped (v1, confidence 1/1)
Statistics
Read error : 0
Jitter error (maybe fixed) : 0
Retry sector count : 0
Damaged sector count : 0
Track 14
Filename : /Users/Maledeo/Desktop/aaaaa/XLD new files/14 - Drunk Woman's Flowing Song.flac
/Users/Maledeo/Desktop/aaaaa/XLD new files/14 - Drunk Woman's Flowing Song.mp3
Pre-gap length : 00:01:33
Track gain : -7.97 dB
Peak : 0.988586
CRC32 hash (test run) : F3DF785E
CRC32 hash : F3DF785E
CRC32 hash (skip zero) : 167C46D2
AccurateRip v1 signature : A0FB5C4D
AccurateRip v2 signature : 0E089458
->Accurately ripped (v1, confidence 1/1)
Statistics
Read error : 0
Jitter error (maybe fixed) : 0
Retry sector count : 0
Damaged sector count : 0
Track 15
Filename : /Users/Maledeo/Desktop/aaaaa/XLD new files/15 - Keri.flac
/Users/Maledeo/Desktop/aaaaa/XLD new files/15 - Keri.mp3
Pre-gap length : 00:01:33
Track gain : -10.62 dB
Peak : 0.988586
CRC32 hash (test run) : 9263C83B
CRC32 hash : 9263C83B
CRC32 hash (skip zero) : C0411E62
AccurateRip v1 signature : BF63D2A8
AccurateRip v2 signature : 00A34981
->Accurately ripped (v1, confidence 1/1)
Statistics
Read error : 0
Jitter error (maybe fixed) : 0
Retry sector count : 0
Damaged sector count : 0
Track 16
Filename : /Users/Maledeo/Desktop/aaaaa/XLD new files/16 - 銀蝶流れ花.flac
/Users/Maledeo/Desktop/aaaaa/XLD new files/16 - 銀蝶流れ花.mp3
Pre-gap length : 00:01:33
Track gain : -9.06 dB
Peak : 0.988525
CRC32 hash (test run) : B474AAFA
CRC32 hash : B474AAFA
CRC32 hash (skip zero) : A11F87F2
AccurateRip v1 signature : 107600CE
AccurateRip v2 signature : 8CB15EB0
->Accurately ripped (v1, confidence 1/1)
Statistics
Read error : 0
Jitter error (maybe fixed) : 0
Retry sector count : 0
Damaged sector count : 0
Track 17
Filename : /Users/Maledeo/Desktop/aaaaa/XLD new files/17 - Shinjuku Dizzy.flac
/Users/Maledeo/Desktop/aaaaa/XLD new files/17 - Shinjuku Dizzy.mp3
Pre-gap length : 00:01:33
Track gain : -10.17 dB
Peak : 0.988525
CRC32 hash (test run) : F3AFB529
CRC32 hash : F3AFB529
CRC32 hash (skip zero) : 5101AE71
AccurateRip v1 signature : 6BCF9492
AccurateRip v2 signature : 5A030B23
->Accurately ripped (v1, confidence 1/1)
Statistics
Read error : 0
Jitter error (maybe fixed) : 0
Retry sector count : 0
Damaged sector count : 0
Track 18
Filename : /Users/Maledeo/Desktop/aaaaa/XLD new files/18 - Ironside.flac
/Users/Maledeo/Desktop/aaaaa/XLD new files/18 - Ironside.mp3
Pre-gap length : 00:02:01
Track gain : -9.84 dB
Peak : 0.988525
CRC32 hash (test run) : AD68AB4F
CRC32 hash : AD68AB4F
CRC32 hash (skip zero) : E86B0AD9
AccurateRip v1 signature : 908452FC
AccurateRip v2 signature : 1EAB2161
->Accurately ripped (v1, confidence 1/1)
Statistics
Read error : 0
Jitter error (maybe fixed) : 0
Retry sector count : 0
Damaged sector count : 0
Track 19
Filename : /Users/Maledeo/Desktop/aaaaa/XLD new files/19 - Desert of Love.flac
/Users/Maledeo/Desktop/aaaaa/XLD new files/19 - Desert of Love.mp3
Pre-gap length : 00:01:33
Track gain : -6.45 dB
Peak : 0.988586
CRC32 hash (test run) : A4FE6B73
CRC32 hash : A4FE6B73
CRC32 hash (skip zero) : 23B6080C
AccurateRip v1 signature : 2ED78830
AccurateRip v2 signature : F414AD91
->Accurately ripped (v1, confidence 1/1)
Statistics
Read error : 0
Jitter error (maybe fixed) : 0
Retry sector count : 0
Damaged sector count : 0
Track 20
Filename : /Users/Maledeo/Desktop/aaaaa/XLD new files/20 - That Is the Final Turn.flac
/Users/Maledeo/Desktop/aaaaa/XLD new files/20 - That Is the Final Turn.mp3
Pre-gap length : 00:01:52
Track gain : -8.67 dB
Peak : 0.988525
CRC32 hash (test run) : 76613F81
CRC32 hash : 76613F81
CRC32 hash (skip zero) : 4125DACE
AccurateRip v1 signature : B7661C7C
AccurateRip v2 signature : 2A3D7DAE
->Accurately ripped (v1, confidence 1/1)
Statistics
Read error : 0
Jitter error (maybe fixed) : 0
Retry sector count : 0
Damaged sector count : 0
No errors occurred
End of status report
-----BEGIN XLD SIGNATURE-----
SwlKEAoObaC63qwBT.raee8o3.G9O32T2vZSJqp.WGdFewUi.afmqghrRhuOL8CDhLk5WONUAyJJ7UMznYwHXBESL_a6Z2im6omcmWe
-----END XLD SIGNATURE-----
Содержание индексной карты (.CUE)
TITLE "Yakeppachi Rock"
PERFORMER "Various Artists"
CATALOG 4526180007340
REM GENRE "Pop"
REM DISCNUMBER 1
REM TOTALDISCS 1
REM DISCID 1E0F7E14
REM REPLAYGAIN_ALBUM_GAIN -9.31 dB
REM REPLAYGAIN_ALBUM_PEAK 0.988586
REM COMPILATION TRUE
FILE "01 - Metamorphosis.wav" WAVE
TRACK 01 AUDIO
TITLE "Metamorphosis"
PERFORMER "Reiko Ike"
ISRC JPVI07206070
REM DATE "1972"
REM REPLAYGAIN_TRACK_GAIN -8.27 dB
REM REPLAYGAIN_TRACK_PEAK 0.988525
INDEX 01 00:00:00
TRACK 02 AUDIO
TITLE "女の赤い血がさわぐ"
PERFORMER "Reiko Ike"
ISRC JPVI00622010
REM DATE "1972"
REM REPLAYGAIN_TRACK_GAIN -8.61 dB
REM REPLAYGAIN_TRACK_PEAK 0.988525
INDEX 00 02:38:34
FILE "02 - 女の赤い血がさわぐ.wav" WAVE
INDEX 01 00:00:00
TRACK 03 AUDIO
TITLE "Shinjuku Carmen"
PERFORMER "Miki Sugimoto"
ISRC JPVI00622330
REM DATE "1972"
REM REPLAYGAIN_TRACK_GAIN -9.03 dB
REM REPLAYGAIN_TRACK_PEAK 0.988586
INDEX 00 02:46:12
FILE "03 - Shinjuku Carmen.wav" WAVE
INDEX 01 00:00:00
TRACK 04 AUDIO
TITLE "女番長流れ者"
PERFORMER "Miki Sugimoto"
ISRC JPVI07206080
REM DATE "1972"
REM REPLAYGAIN_TRACK_GAIN -7.59 dB
REM REPLAYGAIN_TRACK_PEAK 0.988525
INDEX 00 02:52:56
FILE "04 - 女番長流れ者.wav" WAVE
INDEX 01 00:00:00
TRACK 05 AUDIO
TITLE "Yakeppachi Rock"
PERFORMER "Maria Anzai"
ISRC JPVI00622020
REM DATE "1976"
REM REPLAYGAIN_TRACK_GAIN -9.96 dB
REM REPLAYGAIN_TRACK_PEAK 0.988525
INDEX 00 03:45:59
FILE "05 - Yakeppachi Rock.wav" WAVE
INDEX 01 00:00:00
TRACK 06 AUDIO
TITLE "Barefoot Blues"
PERFORMER "Akiko Nakamura"
ISRC JPKI07047381
REM DATE "1971"
REM REPLAYGAIN_TRACK_GAIN -9.92 dB
REM REPLAYGAIN_TRACK_PEAK 0.988525
INDEX 00 02:54:59
FILE "06 - Barefoot Blues.wav" WAVE
INDEX 01 00:00:00
TRACK 07 AUDIO
TITLE "Take Ten"
PERFORMER "Mayumi Nakahara"
ISRC JPVI07107600
REM DATE "1971"
REM REPLAYGAIN_TRACK_GAIN -9.63 dB
REM REPLAYGAIN_TRACK_PEAK 0.988525
INDEX 00 03:47:23
FILE "07 - Take Ten.wav" WAVE
INDEX 01 00:00:00
TRACK 08 AUDIO
TITLE "Not Merely a Life"
PERFORMER "Mimi Hiyoshi"
ISRC JPVI07200150
REM DATE "1973"
REM REPLAYGAIN_TRACK_GAIN -8.64 dB
REM REPLAYGAIN_TRACK_PEAK 0.988525
INDEX 00 02:56:28
FILE "08 - Not Merely a Life.wav" WAVE
INDEX 01 00:00:00
TRACK 09 AUDIO
TITLE "Lonely"
PERFORMER "Yasuko Naito"
ISRC JPCO07694910
REM DATE "1976"
REM REPLAYGAIN_TRACK_GAIN -10.09 dB
REM REPLAYGAIN_TRACK_PEAK 0.988525
INDEX 00 03:31:42
FILE "09 - Lonely.wav" WAVE
INDEX 01 00:00:00
TRACK 10 AUDIO
TITLE "Elegy of 17"
PERFORMER "Akemi Ayu"
ISRC JPVI00622340
REM DATE "1975"
REM REPLAYGAIN_TRACK_GAIN -8.83 dB
REM REPLAYGAIN_TRACK_PEAK 0.988525
INDEX 00 03:00:24
FILE "10 - Elegy of 17.wav" WAVE
INDEX 01 00:00:00
TRACK 11 AUDIO
TITLE "Cheating Sue"
PERFORMER "Flower Kiss"
ISRC JPVI07607220
REM DATE "1976"
REM REPLAYGAIN_TRACK_GAIN -9.86 dB
REM REPLAYGAIN_TRACK_PEAK 0.988525
INDEX 00 03:44:21
FILE "11 - Cheating Sue.wav" WAVE
INDEX 01 00:00:00
TRACK 12 AUDIO
TITLE "Tramp Blues"
PERFORMER "Tamaki Sawa"
ISRC JPVI00622350
REM DATE "1971"
REM REPLAYGAIN_TRACK_GAIN -7.72 dB
REM REPLAYGAIN_TRACK_PEAK 0.988525
INDEX 00 02:49:60
FILE "12 - Tramp Blues.wav" WAVE
INDEX 01 00:00:00
TRACK 13 AUDIO
TITLE "Start With Two Cups of Coffee"
PERFORMER "Kazuko Morimoto"
ISRC JPVI00622360
REM DATE "1972"
REM REPLAYGAIN_TRACK_GAIN -9.44 dB
REM REPLAYGAIN_TRACK_PEAK 0.988525
INDEX 00 04:11:03
FILE "13 - Start With Two Cups of Coffee.wav" WAVE
INDEX 01 00:00:00
TRACK 14 AUDIO
TITLE "Drunk Woman's Flowing Song"
PERFORMER "Kazuko Morimoto"
ISRC JPVI07003070
REM DATE "1970"
REM REPLAYGAIN_TRACK_GAIN -7.97 dB
REM REPLAYGAIN_TRACK_PEAK 0.988586
INDEX 00 03:42:61
FILE "14 - Drunk Woman's Flowing Song.wav" WAVE
INDEX 01 00:00:00
TRACK 15 AUDIO
TITLE "Keri"
PERFORMER "Yuki Yamakawa"
ISRC JPTK07901360
REM DATE "1979"
REM REPLAYGAIN_TRACK_GAIN -10.62 dB
REM REPLAYGAIN_TRACK_PEAK 0.988586
INDEX 00 03:17:40
FILE "15 - Keri.wav" WAVE
INDEX 01 00:00:00
TRACK 16 AUDIO
TITLE "銀蝶流れ花"
PERFORMER "Sally May"
ISRC JPVI06903080
REM DATE "1969"
REM REPLAYGAIN_TRACK_GAIN -9.06 dB
REM REPLAYGAIN_TRACK_PEAK 0.988525
INDEX 00 03:25:52
FILE "16 - 銀蝶流れ花.wav" WAVE
INDEX 01 00:00:00
TRACK 17 AUDIO
TITLE "Shinjuku Dizzy"
PERFORMER "Maki Carrousel"
ISRC JPVI00622370
REM DATE "1977"
REM REPLAYGAIN_TRACK_GAIN -10.17 dB
REM REPLAYGAIN_TRACK_PEAK 0.988525
INDEX 00 04:12:17
FILE "17 - Shinjuku Dizzy.wav" WAVE
INDEX 01 00:00:00
TRACK 18 AUDIO
TITLE "Ironside"
PERFORMER "Minami Yasuda"
ISRC JPVI07303790
REM DATE "1973"
REM REPLAYGAIN_TRACK_GAIN -9.84 dB
REM REPLAYGAIN_TRACK_PEAK 0.988525
INDEX 00 03:01:32
FILE "18 - Ironside.wav" WAVE
INDEX 01 00:00:00
TRACK 19 AUDIO
TITLE "Desert of Love"
PERFORMER "Minami Yasuda"
ISRC JPVI00622380
REM DATE "1971"
REM REPLAYGAIN_TRACK_GAIN -6.45 dB
REM REPLAYGAIN_TRACK_PEAK 0.988586
INDEX 00 03:39:64
FILE "19 - Desert of Love.wav" WAVE
INDEX 01 00:00:00
TRACK 20 AUDIO
TITLE "That Is the Final Turn"
PERFORMER "Anna Sanjou"
ISRC JPVI00622390
REM DATE "1971"
REM REPLAYGAIN_TRACK_GAIN -8.67 dB
REM REPLAYGAIN_TRACK_PEAK 0.988525
INDEX 00 02:39:41
FILE "20 - That Is the Final Turn.wav" WAVE
INDEX 01 00:00:00
Скриншот спектра частот
Доп. информация: https://www.discogs.com/Various-やけっぱちロ&.../release/1936110
Зарегистрирован:
  • 18-Апр-17 11:38
  • Скачан: 129 раз

Скачать .torrent

11 KB

Тип: обычная
Статус: проверено
Размер: 447.5 MB  ·  magnet207BDBC56BEFEC22002CF6F0CB3BD0BDF06D8B43
  • Свернуть поддиректории
  • Развернуть
  • Переключить
  • Увел./умен. окно
загружается...
 
All rights reserved © 2017-2018
Loading...
Error