Детройт, Город Металла / Detroit Metal City / DMC (Нагахама Хироси) [OVA] [12 из 12] [Без хардсаба] [RUS(int), JAP+SUB] [2008, комедия, музыкальный, BDRip] [HWP]

Статистика раздачи
Размер:  1.67 GB   |   Зарегистрирован:  1 год 7 месяцев   |   .torrent скачан:  314 раз
Сиды:  4   Личи:  1
Автор
Сообщение

VintWolf

Стаж: 10 лет 7 месяцев

Сообщений: 618

VintWolf · 11-Май-17 13:23 (1 год 7 месяцев назад, ред. 15-Май-17 14:39)

 

Детройт, Город Металла / Detroit Metal City
Страна: Япония
Год выпуска: 2008 г.
Жанр: Комедия, музыкальный.
Тип: OVA
Продолжительность: 12 эп. х ~15 мин.
Режиссер: Нагахама Хироси
Студия: Studio 4°C
Описание:
Сойти Нэгиси приехал в Токио, чтобы сочинять и играть музыку. Он любит нежный «поп», мягкие гитарные наигрыши, тексты про первую любовь и малиновый привкус поцелуя. Но удача подкараулила Нэгиси-куна совсем на другом поприще – он стал солистом металлической группы «Детройт - город металла», жутким Краузером, автором прославляющих насилие хитов. Согласно официальной легенде, Краузер еще в детстве убил родителей, а потом сбежал из колонии, чтобы основать «ДГМ». Каково целомудренному Нэгисе-куну, любящему сыну и убежденному пацифисту, воплощать в себе идола агрессивных анархистов?.. но успех есть успех. И пока скромняге-Нэгисе хочется славы, Иоганн Краузер будет зубами грызть струны, призывать к погромам и обещать перетрахать всех фанаток.
Качество: BDRip [VintWolf]
Тип релиза: Без хардсаба
Формат видео: AVI
Совместимость с бытовыми плеерами: Да
Видео: Xvid, 704x396, ~940 Kbps, 23.976fps
Аудио 1: MP3, 48000Hz, 2ch, 160kbps, Язык Русский (в составе контейнера) l Озвучка трёхголосая: Sadzurami & Apachay & Holly [AniDub] l Сэмпл
Аудио 2: MP3, 48000Hz, 2ch, 160kbps, Язык Японский (в составе контейнера)
Субтитры: Русские внешние (отдельной папкой) *ass, *srt от Blaise
Скриншоты#
Подробные тех. данные#
Complete name : E:\Video\Com\relizes\Detroit Metal City BDRip [HWP]\DMC_e01.avi
Format : AVI
Format/Info : Audio Video Interleave
File size : 143 MiB
Duration : 15mn 39s
Overall bit rate : 1 276 Kbps
Writing application : VirtualDubMod 1.5.10.3 (build 2550/release)
Writing library : VirtualDubMod build 2550/release
Video #0
ID : 0
Format : MPEG-4 Visual
Format profile : Advanced Simple@L5
Format settings, BVOP : 1
Format settings, QPel : No
Format settings, GMC : No warppoints
Format settings, Matrix : Default (H.263)
Codec ID : XVID
Codec ID/Hint : XviD
Duration : 15mn 39s
Bit rate : 942 Kbps
Width : 704 pixels
Height : 396 pixels
Display aspect ratio : 16:9
Frame rate : 23.976 fps
Color space : YUV
Chroma subsampling : 4:2:0
Bit depth : 8 bits
Scan type : Progressive
Compression mode : Lossy
Bits/(Pixel*Frame) : 0.141
Stream size : 106 MiB (74%)
Writing library : XviD 1.2.1 (UTC 2008-12-04)
Audio #1
ID : 1
Format : MPEG Audio
Format version : Version 1
Format profile : Layer 3
Mode : Joint stereo
Codec ID : 55
Codec ID/Hint : MP3
Duration : 15mn 39s
Bit rate mode : Constant
Bit rate : 160 Kbps
Channel(s) : 2 channels
Sampling rate : 48.0 KHz
Compression mode : Lossy
Stream size : 17.9 MiB (13%)
Alignment : Aligned on interleaves
Interleave, duration : 42 ms (1.00 video frame)
Interleave, preload duration : 504 ms
Title : Rus
Audio #2
ID : 2
Format : MPEG Audio
Format version : Version 1
Format profile : Layer 3
Codec ID : 55
Codec ID/Hint : MP3
Duration : 15mn 39s
Bit rate mode : Constant
Bit rate : 160 Kbps
Channel(s) : 2 channels
Sampling rate : 48.0 KHz
Compression mode : Lossy
Stream size : 17.9 MiB (13%)
Alignment : Aligned on interleaves
Interleave, duration : 42 ms (1.00 video frame)
Interleave, preload duration : 504 ms
Title : Jap
Writing library : LAME3.99r
Encoding settings : -m s -V 4 -q 2 -lowpass 17.5 -b 160
Список эпизодов#
01. Превью / Больной убийца
02. Живая легенда / Сатана
03. Свинья / Наркотик
04. Разочарование / Хорошая песня
05. Мазохист / Семья
06. Панк 1 / Панк 2
07. Башня / Исповедь
08. Обещание / Чередование
09. Кино 1 / Кино 2
10. Подделка / Детройт Моэ Сити
11. Хип хоп 1 / Хип хоп 2
12. Император 1 / Император 2
Отличия#
http://GOSTRACKER.XYZ/viewtopic.php?t=4882615 - совместимость с бытовыми плеерами.
http://GOSTRACKER.XYZ/viewtopic.php?t=2815399 - альтернативная озвучка
Зарегистрирован:
  • 11-Май-17 13:23
  • Скачан: 314 раз

Скачать .torrent

19 KB

Тип: обычная
Статус: T временная
Размер: 1.67 GB  ·  magnetB236286DB65CCD02C258923C485AE4EB83FF4EA7
  • Свернуть поддиректории
  • Развернуть
  • Переключить
  • Увел./умен. окно
загружается...

Zаbr

Помощник модератора

Стаж: 4 года 9 месяцев

Сообщений: 3090

flag

Zаbr · 14-Май-17 23:35 (спустя 3 дня, ред. 15-Май-17 22:11)

скрытый текст
Добавьте отличие от раздачи в плеерном
?недооформлено

Tвременная
Практически полностью отсутствую. Все будет как только, так сразу.


Finally done: Rewrite (Full), Fairy Tail (TV 2), Umaru (TV 2)
Hot ongoings: Gintama (TV 5), Souma (OVA)
Plan to do: Sister Princess (Full), Galaxy Angel (Full), Aria (Full), Bakuman (Full)
мои раздачи

VintWolf

Стаж: 10 лет 7 месяцев

Сообщений: 618

VintWolf · 28-Авг-17 14:57 (спустя 3 месяца 13 дней, ред. 28-Авг-17 14:57)

Смотрю качающих не густо, а зря, анимэха - огонь. чем-то напоминает бивиса и батхеда. озвучка тоже идеально подходит. если кто ещё не смотрел, гляньте - не пожалеете.
 
All rights reserved © 2017-2018
Loading...
Error