Гарри Поттер и философский камень / Harry Potter and the Sorcerer's Stone (Крис Коламбус / Chris Columbus) [2001, Великобритания, США, Фэнтези, приключения, семейный, BDRip 720p] [Театральная версия] Eng+15 Rus

Статистика раздачи
Размер:  10.9 GB   |   Зарегистрирован:  1 год 4 месяца   |   .torrent скачан:  3,688 раз
Сиды:  9   Личи:  1
Автор
Сообщение

Luxich

Стаж: 9 лет 9 месяцев

Сообщений: 237

flag

Luxich · 01-Авг-17 16:04 (1 год 4 месяца назад, ред. 13-Янв-18 23:58)

 

Гарри Поттер и философский камень / Harry Potter and the Sorcerer's Stone / Театральная версия/Eng+15Rus
Страна:Великобритания, США
Студия: Warner Bros Pictures
Жанр: Фэнтези, приключения, семейный
Год выпуска: 2001
Продолжительность: 02:32:21
Перевод 01:Профессиональный (дублированный) Blu-ray CEE
Перевод 02:Профессиональный (многоголосый закадровый) Карусель (DDV БИЗ-Видео)
Перевод 03:Профессиональный (многоголосый закадровый) Кравец С.Р.И ( Специальное Российское Издание )
Перевод 04:Профессиональный (многоголосый закадровый) Парус-видео
Перевод 05:Профессиональный (двухголосый закадровый) Киномания FDV (первый Легендарный)
Перевод 06:Профессиональный (многоголосый закадровый) LDV по переводу Киномании (второй Легендарный)
Перевод 07:Профессиональный (двухголосый закадровый) Пётр Гланц и Инна Королева
Перевод 08:Авторский (двухголосый закадровый) Сергей Визгунов и Нина Гвамичава
Перевод 09:Авторский (одноголосый закадровый) Сергей Визгунов (ранний)
Перевод 10:Авторский (одноголосый закадровый) Сергей Визгунов (поздний)
Перевод 11:Авторский (одноголосый закадровый) Сергей Визгунов (самый поздний)
Перевод 12:Авторский (одноголосый закадровый) Андрей Дольский
Перевод 13:Авторский (одноголосый закадровый) Юрий Сербин
Перевод 14:Авторский (одноголосый закадровый) Сергей Рябов
Перевод 15:Любительский (одноголосый закадровый) Евгений Солодухин
Субтитры: русские,английские
Оригинальная аудиодорожка: английский
Режиссер: Крис Коламбус / Chris Columbus
В ролях: Дэниэл Рэдклифф, Руперт Гринт, Эмма Уотсон, Том Фелтон, Ричард Харрис, Мэгги Смит, Алан Рикман, Робби Колтрейн, Саундерс Триплетс, Фиона Шоу, Гарри Меллинг, Дэвид Брэдли, Ричард Гриффитс, Дерек Дэдмен, Иэн Харт, Бен Боровецки, Уорвик Дэвис, Верн Тройер, Джон Херт, Ричард Бреммер, Джеральдин Сомервилль, Гарри Тейлор, Джули Уолтерс, Бонни Райт, Крис Рэнкин, Джеймс Фелпс, Оливер Фелпс, Жан Саузерн, Мэттью Льюис, Джеми Вайлет, Джошуа Хердман, Девон Мюррэй, Альфред Энок, Лесли Филлипс, Джон Клиз, Люк Янблад, Рэй Фиарон, Зои Уонамейкер, Нина Янг и др.
Описание: Жизнь десятилетнего Гарри Поттера нельзя назвать сладкой: его родители умерли, едва ему исполнился год, а от дяди и тётки, взявших сироту на воспитание, достаются лишь тычки да подзатыльники. Но в одиннадцатый день рождения Гарри всё меняется. Странный гость, неожиданно появившийся на пороге, приносит письмо, из которого мальчик узнаёт, что на самом деле он волшебник и принят в Хогвартс — школу магии. А уже через пару недель Гарри будет мчаться в поезде Хогвартс-экспресс навстречу новой жизни, где его ждут невероятные приключения, верные друзья и самое главное — ключ к разгадке тайны смерти его родителей
Доп. информация: Сборка с 15 русскими звуковыми дорожками
Информация по звуковым дорожкам
+ Звуковые дорожки № 1,2,3,7,9,10,11,12 взяты с этой раздачи, как есть http://GOSTRACKER.XYZ/viewtopic.php?t=5433048, спасибо Socrat
+ Звуковые дорожки № 7,14 взяты так же с этой раздачи, http://GOSTRACKER.XYZ/viewtopic.php?t=5433048 , но переконвертированы в АС3 с помощью eac3to мной
+ Звуковые дорожки № 4,6 любезно предоставлены Selena_a, синхронизация с видео произведена в Vegas Pro мной
+ Звуковая дорожка № 5 взята отсюда http://GOSTRACKER.XYZ/viewtopic.php?t=2828540, спасибо DiDimus, синхронизация с видео произведена в Vegas Pro мной
+ Звуковая дорожка № 13 взята отсюда http://GOSTRACKER.XYZ/viewtopic.php?t=5416622, синхронизация с видео произведена в Vegas Pro мной
+ Звуковая дорожка № 15 взята отсюда http://GOSTRACKER.XYZ/viewtopic.php?t=5259268. спасибо eugeen.solod
Сэмпл: https://cloud.mail.ru/public/5ppB/jG6euL8ck
Тип релиза: BDRip 720p
Контейнер: MKV
Видео: AVC, 1280x530 (2.40:1) at 23.976 fps, AVC at 4 025 kbps
Аудио 1: 48 kHz, AC3 Dolby Digital, 3/2 (L,C,R,l,r) + LFE ch, 640.00 kbps - Russian Blu-ray CEE
Аудио 2: 48 kHz, AC3 Dolby Digital, 3/2 (L,C,R,l,r) + LFE ch, 448.00 kbps - Russian Карусель (DDV БИЗ-Видео)
Аудио 3: 48 kHz, AC3 Dolby Digital, 3/2 (L,C,R,l,r) + LFE ch, 448.00 kbps - Russian Кравец С.Р.И ( Специальное Российское Издание )
Аудио 4: 48 kHz, AC3 Dolby Digital, 2/0 ( Front: L R), 256.00 kbps - Russian Парус-Видео
Аудио 5: 48 kHz, AC3 Dolby Digital, 2/0 ( Front: L R), 256.00 kbps - Russian Киномания FDV (первый Легендарный)
Аудио 6: 48 kHz, AC3 Dolby Digital, 2/0 ( Front:L R), 256.00 kbps - Russian LDV по переводу Киномании (второй Легендарный)
Аудио 7: 48 kHz, AC3 Dolby Digital, 3/2 (L,C,R,l,r) + LFE ch, 640.00 kbps - Russian Пётр Гланц и Инна Королева
Аудио 8: 48 kHz, AC3 Dolby Digital, 2/0 (Front: L R), 256.00 kbps - Russian Сергей Визгунов и Нина Гвамичава
Аудио 9: 48 kHz, AC3 Dolby Digital, 2/0 (Front: L R), 256.00 kbps - Russian Сергей Визгунов (ранний)
Аудио 10: 48 kHz, AC3 Dolby Digital, 2/0 (Front: L R), 256.00 kbps - Russian Сергей Визгунов (поздний)
Аудио 11: 48 kHz, AC3 Dolby Digital, 2/0 (Front: L R), 256.00 kbps - Russian Сергей Визгунов (самый поздний)
Аудио 12: 48 kHz, AC3 Dolby Digital, 2/0 (Front: L R), 256.00 kbps - Russian Андрей Дольский
Аудио 13: 48 kHz, AC3 Dolby Digital, 2/0 (Front: L R), 256.00 kbps - Russian Юрий Сербин
Аудио 14: 48 kHz, AC3 Dolby Digital, 3/2 (L,C,R,l,r) + LFE ch, 640.00 kbps - Russian Сергей Рябов
Аудио 15: 48 kHz, AC3 Dolby Digital, 3/2 (L,C,R,l,r) + LFE ch, 448.00 kbps - Russian Евгений Солодухин
Аудио 16: 48 kHz, AC3 Dolby Digital, 3/2 (L,C,R,l,r) + LFE ch, 448.00 kbps - English Оригинал
MediaInfo
General
Unique ID : 226572498868521446723730174758785283824 (0xAA7446A8E3C5BD7590355C76748676F0)
Complete name : C:\Закачки с Торента\Гарри Поттер звуковые дорожки\1 Филосовский камень 2001\Harry Potter and the Sorcerer's Stone.2001.720p.Eng+15Rus.mkv
Format : Matroska
Format version : Version 1
File size : 10.9 GiB
Duration : 2h 32mn
Overall bit rate : 10.2 Mbps
Movie name : -=LEONARDO=-
Encoded date : UTC 2017-07-31 21:05:15
Writing application : mkvmerge v2.3.0 ('Freak U') built on Sep 8 2008 18:32:16
Writing library : libebml v0.7.7 + libmatroska v0.8.1
Video
ID : 1
Format : AVC
Format/Info : Advanced Video Codec
Format profile : High@L4.1
Format settings, CABAC : Yes
Format settings, ReFrames : 8 frames
Codec ID : V_MPEG4/ISO/AVC
Duration : 2h 32mn
Bit rate : 4 025 Kbps
Width : 1 280 pixels
Height : 530 pixels
Display aspect ratio : 2.40:1
Frame rate mode : Constant
Frame rate : 23.976 (24000/1001) fps
Color space : YUV
Chroma subsampling : 4:2:0
Bit depth : 8 bits
Scan type : Progressive
Bits/(Pixel*Frame) : 0.247
Stream size : 4.28 GiB (39%)
Writing library : x264 core 125 r2208 d9d2288
Encoding settings : cabac=1 / ref=8 / deblock=1:-3:-3 / analyse=0x3:0x133 / me=umh / subme=11 / psy=1 / psy_rd=1.00:0.20 / mixed_ref=1 / me_range=32 / chroma_me=1 / trellis=2 / 8x8dct=1 / cqm=0 / deadzone=21,11 / fast_pskip=0 / chroma_qp_offset=-3 / threads=12 / lookahead_threads=2 / sliced_threads=0 / nr=0 / decimate=1 / interlaced=0 / bluray_compat=0 / constrained_intra=0 / bframes=12 / b_pyramid=2 / b_adapt=2 / b_bias=0 / direct=1 / weightb=1 / open_gop=0 / weightp=2 / keyint=250 / keyint_min=23 / scenecut=40 / intra_refresh=0 / rc=crf / mbtree=0 / crf=18.0 / qcomp=0.60 / qpmin=0 / qpmax=69 / qpstep=4 / ip_ratio=1.40 / pb_ratio=1.30 / aq=2:1.00
Language : English
Default : Yes
Forced : No
Audio #1
ID : 2
Format : AC-3
Format/Info : Audio Coding 3
Mode extension : CM (complete main)
Format settings, Endianness : Big
Codec ID : A_AC3
Duration : 2h 32mn
Bit rate mode : Constant
Bit rate : 640 Kbps
Channel(s) : 6 channels
Channel positions : Front: L C R, Side: L R, LFE
Sampling rate : 48.0 KHz
Frame rate : 31.250 fps (1536 spf)
Compression mode : Lossy
Stream size : 697 MiB (6%)
Title : Dub "Blu-ray CEE"
Language : Russian
Default : Yes
Forced : No
Audio #2
ID : 3
Format : AC-3
Format/Info : Audio Coding 3
Mode extension : CM (complete main)
Format settings, Endianness : Big
Codec ID : A_AC3
Duration : 2h 32mn
Bit rate mode : Constant
Bit rate : 448 Kbps
Channel(s) : 6 channels
Channel positions : Front: L C R, Side: L R, LFE
Sampling rate : 48.0 KHz
Frame rate : 31.250 fps (1536 spf)
Compression mode : Lossy
Stream size : 488 MiB (4%)
Title : MVO DDV "БИЗ-Видео"
Language : Russian
Default : No
Forced : No
Audio #3
ID : 4
Format : AC-3
Format/Info : Audio Coding 3
Mode extension : CM (complete main)
Format settings, Endianness : Big
Codec ID : A_AC3
Duration : 2h 32mn
Bit rate mode : Constant
Bit rate : 448 Kbps
Channel(s) : 6 channels
Channel positions : Front: L C R, Side: L R, LFE
Sampling rate : 48.0 KHz
Frame rate : 31.250 fps (1536 spf)
Compression mode : Lossy
Stream size : 488 MiB (4%)
Title : MVO "Кравец" С.Р.И (Специальное Российское Издание)
Language : Russian
Default : No
Forced : No
Audio #4
ID : 5
Format : AC-3
Format/Info : Audio Coding 3
Mode extension : CM (complete main)
Format settings, Endianness : Big
Codec ID : A_AC3
Duration : 2h 32mn
Bit rate mode : Constant
Bit rate : 256 Kbps
Channel(s) : 2 channels
Channel positions : Front: L R
Sampling rate : 48.0 KHz
Frame rate : 31.250 fps (1536 spf)
Compression mode : Lossy
Stream size : 279 MiB (2%)
Title : MVO "Парус-Видео"
Language : Russian
Default : No
Forced : No
Audio #5
ID : 6
Format : AC-3
Format/Info : Audio Coding 3
Mode extension : CM (complete main)
Format settings, Endianness : Big
Codec ID : A_AC3
Duration : 2h 32mn
Bit rate mode : Constant
Bit rate : 256 Kbps
Channel(s) : 2 channels
Channel positions : Front: L R
Sampling rate : 48.0 KHz
Frame rate : 31.250 fps (1536 spf)
Compression mode : Lossy
Stream size : 279 MiB (2%)
Title : MVO "Первый "Легендарный"
Language : Russian
Default : No
Forced : No
Audio #6
ID : 7
Format : AC-3
Format/Info : Audio Coding 3
Mode extension : CM (complete main)
Format settings, Endianness : Big
Codec ID : A_AC3
Duration : 2h 32mn
Bit rate mode : Constant
Bit rate : 256 Kbps
Channel(s) : 2 channels
Channel positions : Front: L R
Sampling rate : 48.0 KHz
Frame rate : 31.250 fps (1536 spf)
Compression mode : Lossy
Stream size : 279 MiB (2%)
Title : MVO "Второй "Легендарный"
Language : Russian
Default : No
Forced : No
Audio #7
ID : 8
Format : AC-3
Format/Info : Audio Coding 3
Mode extension : CM (complete main)
Format settings, Endianness : Big
Codec ID : A_AC3
Duration : 2h 32mn
Bit rate mode : Constant
Bit rate : 640 Kbps
Channel(s) : 6 channels
Channel positions : Front: L C R, Side: L R, LFE
Sampling rate : 48.0 KHz
Frame rate : 31.250 fps (1536 spf)
Compression mode : Lossy
Stream size : 697 MiB (6%)
Title : DVO "Петр Гланц и Инна Королева"
Language : Russian
Default : No
Forced : No
Audio #8
ID : 9
Format : AC-3
Format/Info : Audio Coding 3
Mode extension : CM (complete main)
Format settings, Endianness : Big
Codec ID : A_AC3
Duration : 2h 32mn
Bit rate mode : Constant
Bit rate : 256 Kbps
Channel(s) : 2 channels
Channel positions : Front: L R
Sampling rate : 48.0 KHz
Frame rate : 31.250 fps (1536 spf)
Compression mode : Lossy
Stream size : 279 MiB (2%)
Title : DVO "Сергей Визгунов с "подругой"
Language : Russian
Default : No
Forced : No
Audio #9
ID : 10
Format : AC-3
Format/Info : Audio Coding 3
Mode extension : CM (complete main)
Format settings, Endianness : Big
Codec ID : A_AC3
Duration : 2h 32mn
Bit rate mode : Constant
Bit rate : 256 Kbps
Channel(s) : 2 channels
Channel positions : Front: L R
Sampling rate : 48.0 KHz
Frame rate : 31.250 fps (1536 spf)
Compression mode : Lossy
Stream size : 279 MiB (2%)
Title : AVO "Сергей Визгунов (ранний)"
Language : Russian
Default : No
Forced : No
Audio #10
ID : 11
Format : AC-3
Format/Info : Audio Coding 3
Mode extension : CM (complete main)
Format settings, Endianness : Big
Codec ID : A_AC3
Duration : 2h 32mn
Bit rate mode : Constant
Bit rate : 256 Kbps
Channel(s) : 2 channels
Channel positions : Front: L R
Sampling rate : 48.0 KHz
Frame rate : 31.250 fps (1536 spf)
Compression mode : Lossy
Stream size : 279 MiB (2%)
Title : AVO "Сергей Визгунов (средний)"
Language : Russian
Default : No
Forced : No
Audio #11
ID : 12
Format : AC-3
Format/Info : Audio Coding 3
Mode extension : CM (complete main)
Format settings, Endianness : Big
Codec ID : A_AC3
Duration : 2h 32mn
Bit rate mode : Constant
Bit rate : 256 Kbps
Channel(s) : 2 channels
Channel positions : Front: L R
Sampling rate : 48.0 KHz
Frame rate : 31.250 fps (1536 spf)
Compression mode : Lossy
Stream size : 279 MiB (2%)
Title : AVO "Сергей Визгунов (поздний)"
Language : Russian
Default : No
Forced : No
Audio #12
ID : 13
Format : AC-3
Format/Info : Audio Coding 3
Mode extension : CM (complete main)
Format settings, Endianness : Big
Codec ID : A_AC3
Duration : 2h 32mn
Bit rate mode : Constant
Bit rate : 256 Kbps
Channel(s) : 2 channels
Channel positions : Front: L R
Sampling rate : 48.0 KHz
Frame rate : 31.250 fps (1536 spf)
Compression mode : Lossy
Stream size : 279 MiB (2%)
Title : AVO "Андрей Дольский"
Language : Russian
Default : No
Forced : No
Audio #13
ID : 14
Format : AC-3
Format/Info : Audio Coding 3
Mode extension : CM (complete main)
Format settings, Endianness : Big
Codec ID : A_AC3
Duration : 2h 32mn
Bit rate mode : Constant
Bit rate : 256 Kbps
Channel(s) : 2 channels
Channel positions : Front: L R
Sampling rate : 48.0 KHz
Frame rate : 31.250 fps (1536 spf)
Compression mode : Lossy
Stream size : 279 MiB (2%)
Title : AVO "Юрий Сербин"
Language : Russian
Default : No
Forced : No
Audio #14
ID : 15
Format : AC-3
Format/Info : Audio Coding 3
Mode extension : CM (complete main)
Format settings, Endianness : Big
Codec ID : A_AC3
Duration : 2h 32mn
Bit rate mode : Constant
Bit rate : 640 Kbps
Channel(s) : 6 channels
Channel positions : Front: L C R, Side: L R, LFE
Sampling rate : 48.0 KHz
Frame rate : 31.250 fps (1536 spf)
Compression mode : Lossy
Stream size : 697 MiB (6%)
Title : AVO "Сергей Рябов"
Default : No
Forced : No
Audio #15
ID : 16
Format : AC-3
Format/Info : Audio Coding 3
Mode extension : CM (complete main)
Format settings, Endianness : Big
Codec ID : A_AC3
Duration : 2h 32mn
Bit rate mode : Constant
Bit rate : 448 Kbps
Channel(s) : 6 channels
Channel positions : Front: L C R, Side: L R, LFE
Sampling rate : 48.0 KHz
Frame rate : 31.250 fps (1536 spf)
Compression mode : Lossy
Stream size : 488 MiB (4%)
Title : VO "Евгений Солодухин"
Language : Russian
Default : No
Forced : No
Audio #16
ID : 17
Format : AC-3
Format/Info : Audio Coding 3
Mode extension : CM (complete main)
Format settings, Endianness : Big
Codec ID : A_AC3
Duration : 2h 32mn
Bit rate mode : Constant
Bit rate : 448 Kbps
Channel(s) : 6 channels
Channel positions : Front: L C R, Side: L R, LFE
Sampling rate : 48.0 KHz
Frame rate : 31.250 fps (1536 spf)
Compression mode : Lossy
Stream size : 488 MiB (4%)
Title : Оригинал
Language : English
Default : No
Forced : No
Text #1
ID : 18
Format : UTF-8
Codec ID : S_TEXT/UTF8
Codec ID/Info : UTF-8 Plain Text
Title : Russian (for)
Language : Russian
Default : Yes
Forced : No
Text #2
ID : 19
Format : UTF-8
Codec ID : S_TEXT/UTF8
Codec ID/Info : UTF-8 Plain Text
Title : Russian (full)
Language : Russian
Default : No
Forced : No
Text #3
ID : 20
Format : UTF-8
Codec ID : S_TEXT/UTF8
Codec ID/Info : UTF-8 Plain Text
Title : English (full)
Language : English
Default : No
Forced : No
Menu
00:00:00.000 : en:00:00:00.000
00:04:05.245 : en:00:04:05.245
00:08:10.990 : en:00:08:10.990
00:12:17.236 : en:00:12:17.236
00:18:25.104 : en:00:18:25.104
00:21:43.469 : en:00:21:43.469
00:24:41.480 : en:00:24:41.480
00:28:49.394 : en:00:28:49.394
00:31:05.030 : en:00:31:05.030
00:34:05.377 : en:00:34:05.377
00:37:49.434 : en:00:37:49.434
00:41:29.320 : en:00:41:29.320
00:46:13.270 : en:00:46:13.270
00:50:28.859 : en:00:50:28.859
00:55:04.301 : en:00:55:04.301
01:00:55.485 : en:01:00:55.485
01:03:43.653 : en:01:03:43.653
01:07:47.897 : en:01:07:47.897
01:13:49.091 : en:01:13:49.091
01:20:17.813 : en:01:20:17.813
01:23:54.363 : en:01:23:54.363
01:28:32.307 : en:01:28:32.307
01:31:42.330 : en:01:31:42.330
01:36:42.463 : en:01:36:42.463
01:42:34.648 : en:01:42:34.648
01:49:04.705 : en:01:49:04.705
01:53:21.461 : en:01:53:21.461
01:58:09.582 : en:01:58:09.582
02:03:44.584 : en:02:03:44.584
02:06:55.942 : en:02:06:55.942
02:10:55.181 : en:02:10:55.181
02:14:18.550 : en:02:14:18.550
02:17:29.408 : en:02:17:29.408
02:21:44.496 : en:02:21:44.496
02:24:10.642 : en:02:24:10.642
02:32:21.257 : en:02:32:21.257
Скриншоты
Зарегистрирован:
  • 01-Авг-17 16:04
  • Скачан: 3,688 раз

Скачать .torrent

28 KB

Тип: обычная
Статус: * не проверено
Размер: 10.9 GB  ·  magnetBD1CEB2D6D0D36DE002068F6ED93813AB2C327C8
  • Свернуть поддиректории
  • Развернуть
  • Переключить
  • Увел./умен. окно
загружается...

Luxich

Стаж: 9 лет 9 месяцев

Сообщений: 237

flag

Luxich · 07-Авг-17 22:55 (спустя 6 дней)

Все скачивают и СВАЛИВАЮТ! Хоть бы посидировали малеха!

MezaBralis

Стаж: 6 лет 5 месяцев

Сообщений: 4

flag

MezaBralis · 19-Авг-17 23:53 (спустя 12 дней)

Други!
Ну не сваливайте сразу, поддержите раздачу!

Инна198

Стаж: 7 лет

Сообщений: 964

flag

Инна198 · 13-Ноя-18 01:02 (спустя 1 год 2 месяца)

Спасибо и я поддержу раздачу!
 
All rights reserved © 2017-2018
Loading...
Error