Удивительные злоключения Флэпджека / The Marvelous Misadventures of Flapjack / Сезон: 1 / Серии: 1-40 из 40 (Туроп Ван Орман / Thurop Van Orman) [2008, фэнтези, комедия, приключения, WEB-DL 480p] Dub + Original

Статистика раздачи
Размер:  5.69 GB   |   Зарегистрирован:  1 год 1 месяц   |   .torrent скачан:  915 раз
Сиды:  7   Личи:  1
Автор
Сообщение

Tamerlan4ik

RG Мультфильмы

Стаж: 9 лет

Сообщений: 242

Tamerlan4ik · 27-Сен-17 20:25 (1 год 1 месяц назад, ред. 27-Сен-17 22:25)

 

Удивительные Злоключения Флэпджека
The Marvelous Misadventures of Flapjack

Сезон 1Серии: 1-40 из 40
Страна: США
Производство: Cartoon Network
Жанр: Мультфильм, фэнтези, комедия, приключения
Продолжительность: 00:11:00
Года выпуска: 2008
Перевод:
  1. Профессиональный (полное дублирование) | Cartoon Network
  2. Оригинальная звуковая дорожка (English)
Русские субтитры: нет
Английские субтитры: нет
Режиссёр: Туроп Ван Орман / Thurop Van Orman
Этот необычный мультфильм рассказывает о невероятных морских, и не только, приключениях маленького мальчика Флепджека и его друга Капитана Кастета. Вместе они живут и путешествуют на большой китихе Бабби, которая когда-то давно приютила малыша Флепа и теперь ему вместо мамы. Все вместе они отправляются на опасные поиски острова Карамелии, учатся завоевывать побольше врагов, чтобы стать настоящими путешественниками и спасаются от короля острова Кленового Сиропа. В какие только приключения не попадает веселый Флепджек.


Все раздачи мультсериала
Качество: Web-dl 480p iTunes
Формат: MKV
Видео: 640x480 (4:3) at 29.970 fps, Baseline@L3, ~1500 kbps avg, ~0.150bpp (для 1-4 эпизодов)
Видео: 640x480 (4:3) at 24.000 fps, Baseline@L3, ~1500 kbps avg, ~0.150bpp
Аудио:
  1. Russian: 48 kHz, AC3 Dolby Digital, 2 ch, ~192 kbps | Cartoon Network
  2. English: 44.1 kHz, AAC Dolby Digital, 2 ch, ~128 kbps

СМОТРЕТЬ ОНЛАЙН
Подробные технические данные
General
Unique ID : 238278596067187949400573942088943921187 (0xB342C9CFD04BFAA399D799202385E823)
Complete name : \The Marvelous Misadventures of Flapjack - Season 1\The.Marvelous.Misadventures.of.Flapjack.s01e31e32.Plant.Man.-.Fish.Heads.480p.Dub.mkv
Format : Matroska
Format version : Version 4 / Version 2
File size : 279 MiB
Duration : 23 min 4 s
Overall bit rate : 1 692 kb/s
Movie name : Plant Man / Fish Heads
Encoded date : UTC 2017-09-27 16:22:36
Writing application : mkvmerge v15.0.0 ('Duel with the Devil') 64-bit
Writing library : libebml v1.3.5 + libmatroska v1.4.5
Attachments : poster.jpg
Video
ID : 1
Format : AVC
Format/Info : Advanced Video Codec
Format profile : Baseline@L3
Format settings, CABAC : No
Format settings, ReFrames : 1 frame
Format settings, GOP : N=1
Codec ID : V_MPEG4/ISO/AVC
Duration : 23 min 4 s
Bit rate : 1 374 kb/s
Width : 640 pixels
Height : 480 pixels
Display aspect ratio : 4:3
Frame rate mode : Constant
Frame rate : 24.000 FPS
Color space : YUV
Chroma subsampling : 4:2:0
Bit depth : 8 bits
Scan type : Progressive
Bits/(Pixel*Frame) : 0.186
Stream size : 227 MiB (81%)
Title : The Marvelous Misadventures of Flapjack
Language : English
Default : Yes
Forced : No
Color range : Limited
Color primaries : BT.601 NTSC
Transfer characteristics : BT.709
Matrix coefficients : BT.601
Audio #1
ID : 2
Format : AC-3
Format/Info : Audio Coding 3
Mode extension : CM (complete main)
Format settings, Endianness : Big
Codec ID : A_AC3
Duration : 23 min 4 s
Bit rate mode : Constant
Bit rate : 192 kb/s
Channel(s) : 2 channels
Channel positions : Front: L R
Sampling rate : 48.0 kHz
Frame rate : 31.250 FPS (1536 spf)
Bit depth : 16 bits
Compression mode : Lossy
Stream size : 31.7 MiB (11%)
Title : [Dub Cartoon Network]
Language : Russian
Default : Yes
Forced : No
Audio #2
ID : 3
Format : AAC
Format/Info : Advanced Audio Codec
Format profile : LC
Codec ID : A_AAC
Duration : 23 min 4 s
Bit rate : 123 kb/s
Channel(s) : 2 channels
Channel positions : Front: L R
Sampling rate : 44.1 kHz
Frame rate : 43.066 FPS (1024 spf)
Compression mode : Lossy
Stream size : 20.3 MiB (7%)
Title : Original
Language : English
Default : No
Forced : No
Menu
00:00:00.000 : en:Intro
00:00:33.083 : en:Plant Man
00:11:35.458 : en:Fish Heads
Скриншоты
(Полноразмерные скриншоты открываются кликом по миниатюре)


Список серий
  1. 01a. Пару лье под водой / Several Leagues Under the Sea
  2. 01b. Я тебя вижу / Eye See You
  3. 02a. Пятак / Kid Nickels
  4. 02b. Сладкая жизнь / The Sweet Life
  5. 03a. Пару лье над водой! / Several Leagues Above the Sea!
  6. 03b. Вот фантик / That's a Wrap!
  7. 04a. Остров Кемми / Cammie Island
  8. 04b. Постричь и побрить надвоих / Shave and a Haircut... Two Friends!
  9. 05a. Ученье - свет / Skooled
  10. 05b. Нашествие монстра / Snarked
  11. 06a. Ноги жжет / Footburn
  12. 06b. Дай сюда / Hand It Over
  13. 07a. Такой забавный Запад / How the West Was Fun
  14. 07b. Кастет - грязная крыса / K'nuckles is a Filthy Rat
  15. 08a. Сидалище / Sittin' Muscle
  16. 08b. Не смешно / Knot Funny
  17. 09a. Здесь не стоит искать любви / Lookin' for Love in all the Wrong Barrels
  18. 09b. Бородатые парни / Beard Buddies
  19. 10a. Каламбур с остряком МакКейном / Pun Times with Punsie McHale
  20. 10b. Равновесие / Balance
  21. 11a. Остров механического джина / Mechanical Genie Island
  22. 11b. Месть / Revenge
  23. 12a. Ну и ну / Oh Brother
  24. 12b. Джекфлак / Panfake
  25. 13a. Смех и слезы / Lead 'em and Weep
  26. 13b. Морские ежи / Sea Urchins
  27. 14a. Любовная лихорадка / Love Bugs
  28. 14b. История китов / Whale Times
  29. 15a. Морская находка / Sea Legs
  30. 15b. Без сиропа / No Syrup for Old Flapjacks
  31. 16a. Человек-куст / Plant Man
  32. 16b. Рыбьи головы / Fish Heads
  33. 17a. Что-то не так / Something's a Miss
  34. 17b. Ушел в мечты / Gone Wishin
  35. 18a. Улыбнитесь, вас надули / Ben Boozled
  36. 18b. Гнев Посейдона / Candy Cruise Blues
  37. 19a. Мой ангел-хранитель меня убивает / My Guardian Angel Is Killin' Me
  38. 19b. Дорогой дневник / Dear Diary
  39. 20a. Такой брилиант в таком навозе / Diamonds In the Stuff
  40. 20b. Хи-хи-трам-парам / Tee Hee Tummy Tums

Зарегистрирован:
  • 27-Сен-17 20:31
  • Скачан: 915 раз

Скачать .torrent

17 KB

Тип: обычная
Статус: проверено
Размер: 5.69 GB  ·  magnet4BE3B24AD3B342AB6245733DE9C78EA4A4262C6C
  • Свернуть поддиректории
  • Развернуть
  • Переключить
  • Увел./умен. окно
загружается...

weirdmann

Стаж: 8 лет 7 месяцев

Сообщений: 700

flag

weirdmann · 11-Окт-17 15:43 (спустя 13 дней)

Качество видео в раздаче намного выше, чем показано на скриншотах. (Что-то не так с рендером видео у раздающего?)
Well, my telephone rang it would not stop
It's President Kennedy callin' me up
He said, "My friend, Bob, what do we need to make the country grow"?
I said, "My friend, John, "Brigitte Bardot,
Anita Ekberg, Sophia Loren"
Country'll grow. (с) Bob Dylan

maksmyna

Стаж: 1 год 10 месяцев

Сообщений: 27

flag

maksmyna · 25-Ноя-17 18:10 (спустя 1 месяц 14 дней)

Будет в АшДи?
Я люблю собак. Я люблю собак. Я люблю собак. Я люблю собак. Я люблю собак. Я люблю собак. Я люблю собак. Я люблю собак. Я люблю собак. Я люблю собак. Я люблю собак. Я люблю собак. Я люблю собак. Я люблю собак. Я люблю собак. Я люблю собак. Я люблю собак. Я люблю собак. Я люблю собак. Я люблю собак. Я люблю собак. Я люблю собак. Я люблю собак. Я люблю собак.

tеko

Moderator

Стаж: 9 лет 11 месяцев

Сообщений: 16142

flag

tеko · 19-Дек-17 19:54 (спустя 24 дня)

кто скажет, в какой серии все говорят "тяжело растить мальчика дебила"

Sir Fatman

Стаж: 6 лет 4 месяца

Сообщений: 50

flag

Sir Fatman · 09-Июл-18 11:24 (спустя 6 месяцев)

Неужели Флэпджек в хорошем качестве появился на трэкере? Добра тебе, Tamerlan4ik!

F_FDC

Стаж: 9 лет 9 месяцев

Сообщений: 136

flag

F_FDC · 19-Окт-18 00:42 (спустя 3 месяца 9 дней)

наконец-то в оригинале, можно качать
 
All rights reserved © 2017-2018
Loading...
Error