Революция в России / The Russian Revolution (Кэл Савилл / Cal Seville) [2017, Документальный, история, война, HDTVRip 720p]

Статистика раздачи
Размер:  1.22 GB   |   Зарегистрирован:  1 год   |   .torrent скачан:  548 раз
Сиды:  1
Автор
Сообщение

Alf62

Стаж: 10 лет 2 месяца

Сообщений: 2994

flag

Alf62 · 15-Ноя-17 15:34 (1 год назад, ред. 15-Ноя-17 15:44)

 

Революция в России / The Russian Revolution
Год выпуска: 2017
Страна: Великобритания
Жанр: Документальный, история, война
Продолжительность: 00:47:13
Перевод: Профессиональный (дублированный)
Режиссер: Кэл Савилл / Cal Seville
Описание: Со времен революции в России и создания первого коммунистического государства прошло сто лет. Как же это произошло?
Доп. информация: Авторство релиза - alf62

Тип релиза: HDTVRip 720p
Контейнер: MKV
Видео: MPEG-4 AVC, ~3500 Кбит/с, 1280х720, (16:9), 25.000 fps
Аудио: Русский, AC3, 2 ch, 192 Кбит/сРеволюция в России / The Russian Revolution на GOSTRACKER.cr
MediaInfo
Общее
Уникальный идентификатор : 251534058284715099640030782493717454586 (0xBD3BB28E992B9A0D9A0FB30BF0345EFA)
Полное имя : \Революция в России\Революция.в.России.2017.HDTVRip.720p.alf62.mkv
Формат : Matroska
Версия формата : Version 2
Размер файла : 1,22 Гбайт
Продолжительность : 47 м.
Общий поток : 3693 Кбит/сек
Дата кодирования : UTC 2017-11-15 11:42:03
Программа кодирования : mkvmerge v7.8.0 ('River Man') 32bit built on Apr 3 2015 12:11:22
Библиотека кодирования : libebml v1.3.1 + libmatroska v1.4.2
Видео
Идентификатор : 1
Формат : AVC
Формат/Информация : Advanced Video Codec
Профиль формата : High@L4.1
Параметр CABAC формата : Да
Параметр ReFrames формата : 16 кадров
Идентификатор кодека : V_MPEG4/ISO/AVC
Продолжительность : 47 м.
Битрейт : 3500 Кбит/сек
Ширина : 1280 пикселей
Высота : 720 пикселей
Соотношение сторон : 16:9
Режим частоты кадров : Постоянный
Частота кадров : 25,000 кадров/сек
Цветовое пространство : YUV
Субдискретизация насыщенности : 4:2:0
Битовая глубина : 8 бит
Тип развёртки : Прогрессивная
Бит/(Пиксели*Кадры) : 0.152
Размер потока : 1,13 Гбайт (93%)
Библиотека кодирования : x264 core 146 r2538 121396c
Настройки программы : cabac=1 / ref=16 / deblock=1:-1:-1 / analyse=0x3:0x113 / me=umh / subme=10 / psy=1 / psy_rd=1.00:0.00 / mixed_ref=1 / me_range=32 / chroma_me=1 / trellis=2 / 8x8dct=1 / cqm=0 / deadzone=21,11 / fast_pskip=0 / chroma_qp_offset=-2 / threads=6 / lookahead_threads=1 / sliced_threads=0 / nr=0 / decimate=0 / interlaced=0 / bluray_compat=0 / constrained_intra=0 / bframes=8 / b_pyramid=2 / b_adapt=2 / b_bias=0 / direct=3 / weightb=1 / open_gop=0 / weightp=2 / keyint=250 / keyint_min=25 / scenecut=40 / intra_refresh=0 / rc_lookahead=40 / rc=2pass / mbtree=1 / bitrate=3500 / ratetol=1.0 / qcomp=0.60 / qpmin=10 / qpmax=51 / qpstep=4 / cplxblur=20.0 / qblur=0.5 / vbv_maxrate=14000 / vbv_bufsize=14000 / nal_hrd=none / filler=0 / ip_ratio=1.40 / aq=1:0.80
Default : Да
Forced : Нет
Аудио
Идентификатор : 2
Формат : AC-3
Формат/Информация : Audio Coding 3
Расширение режима : CM (complete main)
Параметр Endianness формата : Big
Идентификатор кодека : A_AC3
Продолжительность : 47 м.
Вид битрейта : Постоянный
Битрейт : 192 Кбит/сек
Каналы : 2 канала
Расположение каналов : Front: L R
Частота : 48,0 КГц
Битовая глубина : 16 бит
Метод сжатия : С потерями
Размер потока : 64,8 Мбайт (5%)
Default : Да
Forced : Нет



Сообщения из этой темы [6 шт.] были выделены в отдельную тему Выделено из: Революция в России / The Russian Revolution (Кэл Савилл / Cal Seville) [2017, Документальный, история, война, HDTVRip 720p] [5480657]
anbelk27
Зарегистрирован:
  • 15-Ноя-17 15:34
  • Скачан: 548 раз

Скачать .torrent

12 KB

Тип: обычная
Статус: # сомнительно
Размер: 1.22 GB  ·  magnetC595BCCC6E1F918A20DB5AE7ED59E6B643697F84
  • Свернуть поддиректории
  • Развернуть
  • Переключить
  • Увел./умен. окно
загружается...

FBS2001

Стаж: 10 лет

Сообщений: 1

flag

FBS2001 · 03-Дек-17 19:45 (спустя 18 дней)

Если патриотам припекает, значит надо посмотреть :))

anbelk27

Admin

Стаж: 9 лет 7 месяцев

Сообщений: 6358

flag

anbelk27 · 04-Дек-17 02:52 (спустя 7 часов)

Alf62
Тоже самое, что и тут http://GOSTRACKER.XYZ/viewtopic.php?p=74354751#74354751
# сомнительно
 
All rights reserved © 2017-2018
Loading...
Error