Секретные файлы нацистов (6 серий из 6) / Nazi Secret Files [2015, Документальный, война, история, HDTVRip 720p]

Статистика раздачи
Размер:  8.82 GB   |   Зарегистрирован:  10 месяцев   |   .torrent скачан:  649 раз
Сиды:  4
Автор
Сообщение

Alf62

Стаж: 10 лет 3 месяца

Сообщений: 3003

flag

Alf62 · 26-Дек-17 16:17 (10 месяцев назад, ред. 24-Янв-18 22:19)

 

Секретные файлы нацистов (6 серий из 6) / Nazi Secret Files
Год выпуска: 2015
Страна: Великобритания, BBC
Жанр: Документальный, война, история
Продолжительность: 6 х ~ 00:48:00
Перевод: Профессиональный (двухголосый закадровый)
Описание: Сериал расскажет о некоторых малоизвестных страницах Второй мировой войны. На службе Гитлера и нацистской Германии находились самые передовые на тот момент технологии, позволявшие обладать существенными преимуществами в ведении боевых действий. Какие достижения фармакологии, физики, других наук, а возможно и оккультизма, были использованы фашистами во время Второй мировой войны?
Доп. информация: Авторство релиза - alf62

Тип релиза: HDTVRip 720p
Контейнер: MKV
Видео: MPEG-4 AVC, ~4000 Кбит/с, 1280х720, (16:9), 25.000 fps
Аудио: Русский, AC3, 2 ch, 192 Кбит/с
Аудио 2: Английский, AC3, 2 ch, 192 Кбит/сСекретные файлы нацистов на GOSTRACKER.cr
Список выпусков/серий
1. Нацисты и наркотики / Nazis On Drugs
Когда Гитлер бросил на Европу армию своих непобедимых «суперменов», его военная машина действовала с невиданной до тех пор скоростью и яростью. Но за силой нацистов стоял некий опасный секрет. Новые исследования, позволяют понять, как далеко зашли гитлеровцы в экспериментах с наркотиками. Какова страшная правда об одурманенных нацистских солдатах? Она меняет наши представления об этой войне.
2. Лучевое оружие нацистов / Nazi Death Ray
Огненный смерч несется над миром, от Лондона до Вашингтона. На высоте 8 тысяч километров, витает оружие Адольфа Гитлера, сжигая армии и города за несколько минут. Лидеры союзников не могут ответить отказом на требование Гитлера о безоговорочной капитуляции. Факт или фантазия? Новые исследования открывают а о попытках нацистов создать секретное супероружие. Британцы были уверены, что у немцев есть лучевое оружие, смертоносные лучи, ждущие своего часа. Как близко был Гитлер к использованию космических технологий с целью завоевания мира? Шокирующая правда изменит ваше отношение к этой войне.
3. Нацистские дикари / Nazi Cavemen
Осень 1940 года. Разгромив союзников под Дюнкерком. Гитлер взял курс на захват всей Европы. Нацистов вдохновляют идеи о том, что они потомки древних суперменов. Мифы о превосходстве арийцев - главный элемент нацистской идеологии. Это рассказ о бесчеловечной философии, от ее истоков до псевдонауки оправдывающей ее.
4. Микробы-убийцы / Nazi Killer Bugs
Биологическое оружие использовалось тысячу лет назад, чтобы сеять страх и смерть. Во время Второй мировой войны Гитлер не решился применить его. Но многие из верхушки III Рейха думали иначе. Секретная программа готовила новое болезнетворное оружие для выдыхающейся военной машины нацистов. Недавно открытые секретные файлы доказали наличие своего рода соглашения между ученными гитлеровской Оси. Шокирующая правда о рукотворных эпидемиях.
5. Нацистский джихад / Nazi Jihad
Мюнхен и 11 сентября… Глядя на перечень террористических актов, напрашивается вывод, что их авторы позаимствовали тактику из нацистских инструкций. Шокирующие данные рассказывают о том, как нацисты распространяли эти идеи среди боевиков на Ближнем Востоке, о самовоспроизводящемся вирусе ненависти, который распространяет гитлеровскую эпидемию убийств и разрушений по всему миру.
6. Нацистский Мессия / Nazi Messiah
Адольф Гитлер - диктатор зацикленный на мировом господстве. Что заставило непризнанного художника из Вены, превратиться в одну из самых зловещих фигур в истории? Чистый вымысел и слепая вера, убедили Гитлера в том, что он Бог, современный фараон. История о возвышении и падении нацистского Мессии.
MediaInfo
Общее
Уникальный идентификатор : 207744334259727577938184563412153744323 (0x9C4A1A7942366419985C1BC295FD3BC3)
Полное имя : E:\Торенты\Секретные файлы нацистов\Секретные.файлы.нацистов.2015.HDTVRip.720p.alf62\1.Нацисты.и.наркотики.2015.HDTVRip.720p.alf62.mkv
Формат : Matroska
Версия формата : Version 4 / Version 2
Размер файла : 1,47 Гбайт
Продолжительность : 47 м.
Общий поток : 4386 Кбит/сек
Дата кодирования : UTC 2017-12-24 07:30:26
Программа кодирования : mkvmerge v6.6.0 ('The Edge Of The In Between') built on Dec 1 2013 17:55:00
Библиотека кодирования : libebml v1.3.0 + libmatroska v1.4.1
Видео
Идентификатор : 1
Формат : AVC
Формат/Информация : Advanced Video Codec
Профиль формата : High@L4.1
Параметр CABAC формата : Да
Параметр ReFrames формата : 8 кадров
Идентификатор кодека : V_MPEG4/ISO/AVC
Продолжительность : 47 м.
Битрейт : 4000 Кбит/сек
Ширина : 1280 пикселей
Высота : 720 пикселей
Соотношение сторон : 16:9
Режим частоты кадров : Постоянный
Частота кадров : 25,000 кадров/сек
Цветовое пространство : YUV
Субдискретизация насыщенности : 4:2:0
Битовая глубина : 8 бит
Тип развёртки : Прогрессивная
Бит/(Пиксели*Кадры) : 0.174
Размер потока : 1,31 Гбайт (89%)
Библиотека кодирования : x264 core 146 r2538 121396c
Настройки программы : cabac=1 / ref=8 / deblock=1:-1:-1 / analyse=0x3:0x113 / me=umh / subme=10 / psy=1 / psy_rd=1.00:0.00 / mixed_ref=1 / me_range=32 / chroma_me=1 / trellis=2 / 8x8dct=1 / cqm=0 / deadzone=21,11 / fast_pskip=0 / chroma_qp_offset=-2 / threads=6 / lookahead_threads=1 / sliced_threads=0 / nr=0 / decimate=0 / interlaced=0 / bluray_compat=0 / constrained_intra=0 / bframes=8 / b_pyramid=2 / b_adapt=2 / b_bias=0 / direct=3 / weightb=1 / open_gop=0 / weightp=2 / keyint=250 / keyint_min=25 / scenecut=40 / intra_refresh=0 / rc_lookahead=40 / rc=2pass / mbtree=1 / bitrate=4000 / ratetol=1.0 / qcomp=0.60 / qpmin=10 / qpmax=51 / qpstep=4 / cplxblur=20.0 / qblur=0.5 / vbv_maxrate=14000 / vbv_bufsize=14000 / nal_hrd=none / filler=0 / ip_ratio=1.40 / aq=1:0.80
Default : Да
Forced : Нет
Аудио #1
Идентификатор : 2
Формат : AC-3
Формат/Информация : Audio Coding 3
Расширение режима : CM (complete main)
Параметр Endianness формата : Big
Идентификатор кодека : A_AC3
Продолжительность : 47 м.
Вид битрейта : Постоянный
Битрейт : 192 Кбит/сек
Каналы : 2 канала
Расположение каналов : Front: L R
Частота : 48,0 КГц
Битовая глубина : 16 бит
Метод сжатия : С потерями
Задержка видео : 200 мс.
Размер потока : 65,9 Мбайт (4%)
Default : Нет
Forced : Нет
Аудио #2
Идентификатор : 3
Формат : AC-3
Формат/Информация : Audio Coding 3
Расширение режима : CM (complete main)
Параметр Endianness формата : Big
Идентификатор кодека : A_AC3
Продолжительность : 47 м.
Вид битрейта : Постоянный
Битрейт : 192 Кбит/сек
Каналы : 2 канала
Расположение каналов : Front: L R
Частота : 48,0 КГц
Битовая глубина : 16 бит
Метод сжатия : С потерями
Размер потока : 65,9 Мбайт (4%)
Default : Да
Forced : Нет
Скриншоты
Зарегистрирован:
  • 15-Янв-18 07:46
  • Скачан: 649 раз

Скачать .torrent

23 KB

Тип: обычная
Статус: проверено
Размер: 8.82 GB  ·  magnetE1570EF47D1DCCFAE4320E366998212E3842C004
  • Свернуть поддиректории
  • Развернуть
  • Переключить
  • Увел./умен. окно
загружается...

Alf62

Стаж: 10 лет 3 месяца

Сообщений: 3003

flag

Alf62 · 08-Янв-18 22:59 (спустя 13 дней)

Внимание!
Добавлена новая серия:
4. Микробы-убийцы / Nazi Killer Bugs

Alf62

Стаж: 10 лет 3 месяца

Сообщений: 3003

flag

Alf62 · 15-Янв-18 07:47 (спустя 6 дней, ред. 15-Янв-18 07:47)

Внимание!
Добавлены заключительные серии:
5. Нацистский джихад / Nazi Jihad
6. Нацистский Мессия / Nazi Messiah
 
All rights reserved © 2017-2018
Loading...
Error