Трансформеры 3: Тёмная сторона Луны / Transformers: Dark of the Moon (Майкл Бэй / Michael Bay) [2011, США, фантастика, боевик, приключения, UHD BDRemux 2160p] Dub + DVO + AVO + Original (Eng) + Sub (Rus, Eng)

Статистика раздачи
Размер:  81.97 GB   |   Зарегистрирован:  10 месяцев   |   .torrent скачан:  1,016 раз
Сиды:  5   Личи:  2
Автор
Сообщение

arxivariys

Top Best

Стаж: 9 лет 2 месяца

Сообщений: 1296

flag

arxivariys · 02-Янв-18 20:32 (10 месяцев назад, ред. 03-Янв-18 00:19)

 

Трансформеры 3: Тёмная сторона Луны / Transformers: Dark of the Moon


Страна: США
Студия: Paramount Pictures, Hasbro, Di Bonaventura Pictures
Жанр: фантастика, боевик, приключения
Год выпуска: 2011
Продолжительность: 02:34:23

Перевод 1: Профессиональный (дублированный) Blu-Ray
Перевод 2: Профессиональный (двухголосый закадровый) BBC Saint-Petersburg
Перевод 3: Авторский (одноголосый закадровый) Ю. Сербин
Субтитры: русские (forced, full - 2 вида), английские (full, SDH)
Оригинальная аудиодорожка: английский

Режиссер: Майкл Бэй / Michael Bay
В ролях: Шайа ЛаБаф, Джош Дюамель, Джон Туртурро, Тайриз Гибсон, Роузи Хантингтон-Уайтли, Патрик Демпси, Кевин Данн, Джули Уайт, Хьюго Уивинг, Кен Жонг, Джон Малкович

Описание: Американское правительство долго скрывало тайну первой высадки человека на Луну. Оказывается, 20 июля 1969 года совершив посадку на Луне, американские астронавты обнаружили разбившийся корабль автоботов и останки роботов. Программу засекретили, но спустя сорок лет она вновь всплыла, как камень преткновения в отношениях людей и автоботов. Сем Уитвики и его новая подружка Карли оказываются в самом эпицентре новой глобальной заварушки с участием десептиконов и автоботов, в основу которого положена тайна, которую хранит темная сторона Луны.

imdb | kinopoisk | Сэмпл

Тип релиза: UHD BDRemux 2160p [Transformers: Dark of the Moon 2011 2160p EUR UHD Blu-ray HEVC TrueHD 7.1-NIMA4K]
Контейнер: MKV
Видео: MPEG-H HEVC Video / 60607 kbps / 3840x2160 / 23.976 fps / 16:9 / Main 10 Profile 5.1 High / 4:2:0 / 10 bits / HDR / BT.2020 /
Аудио 1: Russian AC3 / 5.1 / 48 kHz / 640 kbps / 16-bit |Dub, Blu-Ray|
Аудио 2: Russian DTS-HD Master Audio / 7.1 / 48 kHz / 5301 kbps / 24-bit (DTS Core: 5.1 / 48 kHz / 1509 kbps / 24-bit) |DVO, BBC Saint-Petersburg|
Аудио 3: Russian DTS-HD Master Audio / 7.1 / 48 kHz / 5292 kbps / 24-bit (DTS Core: 5.1 / 48 kHz / 1509 kbps / 24-bit) |Ю. Сербин|
Аудио 4: English DTS-HD Master Audio / 7.1 / 48 kHz / 4165 kbps / 24-bit (DTS Core: 5.1 / 48 kHz / 1509 kbps / 24-bit) |original|
Формат субтитров: softsub [SRT]
MediaInfo
Код:
Общее
Уникальный идентификатор                 : 68360890186559643190123521859675964383 (0x336DD41B6DB4A9FAA09DF5A41F1343DF)
Полное имя                               : G:\HD\Трансформеры 3 Тёмная сторона Луны.2011.UHD.Blu-Ray.Remux.2160p.mkv
Формат                                   : Matroska
Версия формата                           : Version 4 / Version 2
Размер файла                             : 82,0 Гбайт
Продолжительность                        : 2 ч. 34 м.
Общий поток                              : 76,0 Мбит/сек
Дата кодирования                         : UTC 2018-01-02 18:01:01
Программа кодирования                    : mkvmerge v19.0.0 ('Brave Captain') 64-bit
Библиотека кодирования                   : libebml v1.3.5 + libmatroska v1.4.8
Attachments                              : poster.jpg
Видео
Идентификатор                            : 1
Формат                                   : HEVC
Формат/Информация                        : High Efficiency Video Coding
Профиль формата                          : Main 10@L5.1@High
Идентификатор кодека                     : V_MPEGH/ISO/HEVC
Продолжительность                        : 2 ч. 34 м.
Битрейт                                  : 60,6 Мбит/сек
Ширина                                   : 3840 пикселей
Высота                                   : 2160 пикселей
Соотношение сторон                       : 16:9
Режим частоты кадров                     : Постоянный
Частота кадров                           : 23,976 (24000/1001) кадра/сек
Цветовое пространство                    : YUV
Субдискретизация насыщенности            : 4:2:0 (Type 2)
Битовая глубина                          : 10 бит
Бит/(Пиксели*Кадры)                      : 0.305
Размер потока                            : 65,4 Гбайт (80%)
Язык                                     : English
Default                                  : Да
Forced                                   : Нет
Цветовой диапазон                        : Limited
Основные цвета                           : BT.2020
Характеристики трансфера                 : PQ
Коэффициенты матрицы                     : BT.2020 non-constant
MasteringDisplay_ColorPrimaries          : Display P3
MasteringDisplay_Luminance               : min: 0.0001 cd/m2, max: 1000 cd/m2
Аудио #1
Идентификатор                            : 2
Формат                                   : AC-3
Формат/Информация                        : Audio Coding 3
Идентификатор кодека                     : A_AC3
Продолжительность                        : 2 ч. 34 м.
Вид битрейта                             : Постоянный
Битрейт                                  : 640 Кбит/сек
Каналы                                   : 6 каналов
Расположение каналов                     : Front: L C R, Side: L R, LFE
Частота                                  : 48,0 КГц
Частота кадров                           : 31,250 кадров/сек (1536 SPF)
Битовая глубина                          : 16 бит
Метод сжатия                             : С потерями
Размер потока                            : 707 Мбайт (1%)
Заголовок                                : Dub, Blu-Ray
Язык                                     : Russian
ServiceKind/String                       : Complete Main
Default                                  : Да
Forced                                   : Нет
Аудио #2
Идентификатор                            : 3
Формат                                   : DTS
Формат/Информация                        : Digital Theater Systems
Профиль формата                          : MA / Core
Идентификатор кодека                     : A_DTS
Продолжительность                        : 2 ч. 34 м.
Вид битрейта                             : Переменный / Постоянный
Битрейт                                  : 5301 Кбит/сек / 1509 Кбит/сек
Каналы                                   : 8 каналов / 6 каналов
Расположение каналов                     : Front: L C R, Side: L R, Back: L R, LFE / Front: L C R, Side: L R, LFE
Частота                                  : 48,0 КГц
Частота кадров                           : 93,750 кадра/сек (512 SPF)
Битовая глубина                          : 24 бит
Метод сжатия                             : Без потерь / Lossy
Размер потока                            : 5,72 Гбайт (7%)
Заголовок                                : DVO, BBC Saint-Petersburg
Язык                                     : Russian
Default                                  : Нет
Forced                                   : Нет
Аудио #3
Идентификатор                            : 4
Формат                                   : DTS
Формат/Информация                        : Digital Theater Systems
Профиль формата                          : MA / Core
Идентификатор кодека                     : A_DTS
Продолжительность                        : 2 ч. 34 м.
Вид битрейта                             : Переменный / Постоянный
Битрейт                                  : 5292 Кбит/сек / 1509 Кбит/сек
Каналы                                   : 8 каналов / 6 каналов
Расположение каналов                     : Front: L C R, Side: L R, Back: L R, LFE / Front: L C R, Side: L R, LFE
Частота                                  : 48,0 КГц
Частота кадров                           : 93,750 кадра/сек (512 SPF)
Битовая глубина                          : 24 бит
Метод сжатия                             : Без потерь / Lossy
Размер потока                            : 5,71 Гбайт (7%)
Заголовок                                : Ю. Сербин
Язык                                     : Russian
Default                                  : Нет
Forced                                   : Нет
Аудио #4
Идентификатор                            : 5
Формат                                   : DTS
Формат/Информация                        : Digital Theater Systems
Профиль формата                          : MA / Core
Идентификатор кодека                     : A_DTS
Продолжительность                        : 2 ч. 34 м.
Вид битрейта                             : Переменный / Постоянный
Битрейт                                  : 4165 Кбит/сек / 1509 Кбит/сек
Каналы                                   : 8 каналов / 6 каналов
Расположение каналов                     : Front: L C R, Side: L R, Back: L R, LFE / Front: L C R, Side: L R, LFE
Частота                                  : 48,0 КГц
Частота кадров                           : 93,750 кадра/сек (512 SPF)
Битовая глубина                          : 24 бит
Метод сжатия                             : Без потерь / Lossy
Размер потока                            : 4,49 Гбайт (5%)
Язык                                     : English
Default                                  : Нет
Forced                                   : Нет
Текст #1
Идентификатор                            : 6
Формат                                   : UTF-8
Идентификатор кодека                     : S_TEXT/UTF8
Идентификатор кодека/Информация          : UTF-8 Plain Text
Продолжительность                        : 1 ч. 29 м.
Битрейт                                  : 0 бит/сек
ElementCount                             : 14
Размер потока                            : 636 байт (0%)
Заголовок                                : forced
Язык                                     : Russian
Default                                  : Да
Forced                                   : Нет
Текст #2
Идентификатор                            : 7
Формат                                   : UTF-8
Идентификатор кодека                     : S_TEXT/UTF8
Идентификатор кодека/Информация          : UTF-8 Plain Text
Продолжительность                        : 2 ч. 33 м.
Битрейт                                  : 78 бит/сек
ElementCount                             : 1850
Размер потока                            : 88,2 Кбайт (0%)
Заголовок                                : full v1
Язык                                     : Russian
Default                                  : Нет
Forced                                   : Нет
Текст #3
Идентификатор                            : 8
Формат                                   : UTF-8
Идентификатор кодека                     : S_TEXT/UTF8
Идентификатор кодека/Информация          : UTF-8 Plain Text
Продолжительность                        : 2 ч. 25 м.
Битрейт                                  : 109 бит/сек
ElementCount                             : 2057
Размер потока                            : 117 Кбайт (0%)
Заголовок                                : full v2
Язык                                     : Russian
Default                                  : Нет
Forced                                   : Нет
Текст #4
Идентификатор                            : 9
Формат                                   : UTF-8
Идентификатор кодека                     : S_TEXT/UTF8
Идентификатор кодека/Информация          : UTF-8 Plain Text
Продолжительность                        : 2 ч. 25 м.
Битрейт                                  : 68 бит/сек
ElementCount                             : 2068
Размер потока                            : 73,2 Кбайт (0%)
Заголовок                                : full
Язык                                     : English
Default                                  : Нет
Forced                                   : Нет
Текст #5
Идентификатор                            : 10
Формат                                   : UTF-8
Идентификатор кодека                     : S_TEXT/UTF8
Идентификатор кодека/Информация          : UTF-8 Plain Text
Продолжительность                        : 2 ч. 29 м.
Битрейт                                  : 71 бит/сек
ElementCount                             : 2329
Размер потока                            : 78,8 Кбайт (0%)
Заголовок                                : SDH
Язык                                     : English
Default                                  : Нет
Forced                                   : Нет
Меню
00:00:00.000                             : en:Battle For Cybertron/Apollo Conspiracy
00:08:52.573                             : en:Meeting Carly
00:14:26.615                             : en:Chernobyl
00:20:20.928                             : en:Interviews
00:28:48.143                             : en:Sentinel Prime
00:36:18.634                             : en:Day At Work
00:45:18.549                             : en:Resurrecting Sentinel
00:51:53.026                             : en:The Expert
00:56:34.224                             : en:Russian Cosmonauts
01:04:13.307                             : en:Soviet Secrets
01:12:56.705                             : en:Megatron Hatches Plan
01:19:09.077                             : en:Revealing Traitors
01:23:41.391                             : en:Autobots Exiled
01:28:44.819                             : en:Moving To The City
01:35:13.082                             : en:Gathering The Troops
01:42:44.158                             : en:Rescue Plan
01:49:12.337                             : en:Flying Squirrels
01:56:42.912                             : en:Shockwave
02:04:59.116                             : en:Battle In The City
02:11:29.590                             : en:"Aim For The Eyes!"
02:19:10.884                             : en:Closing Of Old Accounts
02:25:37.520                             : en:Finale/End Credits
Скриншоты
Дополнительно
Цитата:
За русские дорожки спасибо Daddy_BOSS
Все русские DTS-HD MA получены путем наложения чистого блаблабла на оригинал.
Цитата:
Спонсоры озвучания у BBC Spb: zaxar, SPECIAL, Badboy, Ytol12, misha308, gigant33, gregsam, ГраНат27, persik68, Atreyo, Gabriel_Gray, GENby, slimka, OLIGAFREN, mokis, АДмин.
Спонсоры выкупа перевода Ю.Сербина: alb9925, Alexey79, dizzy, tft, arvideo, DaviD18_85, DiDim, alexdeath.
Зарегистрирован:
  • 03-Янв-18 00:19
  • Скачан: 1,016 раз

Скачать .torrent

205 KB

Тип: обычная
Статус: проверено
Размер: 81.97 GB  ·  magnet0D382D07E388A7E4AF3CD02520CCCA5E8679A02B
  • Свернуть поддиректории
  • Развернуть
  • Переключить
  • Увел./умен. окно
загружается...

bot · 03-Янв-18 00:20 (спустя 3 часа)

Тема была перенесена из форума Оформление раздач (Группа "Top Seed") в форум HD Video
arxivariys
 

Синьор без подписи

Top Bonus 04* 3TB

Стаж: 4 года 8 месяцев

Сообщений: 87

Синьор без подписи · 03-Янв-18 00:49 (спустя 4 часа)

Кто-нибудь знает, что с HDClubом?

Kanopus12

Top Bonus 07* 100TB

Стаж: 9 лет 4 месяца

Сообщений: 157

flag

Kanopus12 · 03-Янв-18 15:06 (спустя 14 часов)

HDClub и ultrahdclub закрыты с отмазкой а по сути без объяснения, и так же как и hdtracker отказалисиль продать исходники сайтов.

boomerblack

Стаж: 6 лет 2 месяца

Сообщений: 68

flag

boomerblack · 03-Фев-18 21:08 (спустя 1 месяц)

Подойдёт ли сюда Трансформеры 3: Тёмная сторона Луны / Transformers: Dark of the Moon (Майкл Бэй / Michael Bay) [2011, США, фантастика, боевик, приключения, DTS-HD MA, DTS, NTSC] Dub Rus?

as1serge

Стаж: 11 лет 9 месяцев

Сообщений: 25

flag

as1serge · 12-Фев-18 10:46 (спустя 8 дней)

Не могли бы уточнить, пожалуйста, содержит ли видео дорожка Dolby Vision?

Inc1tatus

Победитель конкурса *

Стаж: 6 лет 10 месяцев

Сообщений: 4827

flag

Inc1tatus · 13-Фев-18 01:14 (спустя 14 часов)

Цитата:
Описание: Американское правительство долго скрывало тайну первой высадки человека на Луну. Оказывается, 20 июля 1969 года совершив посадку на Луне,
американцы до сих пор скрывают что вообще там не были

125ad

Стаж: 4 года 3 месяца

Сообщений: 12

flag

125ad · 28-Фев-18 04:51 (спустя 15 дней)

У меня станные цвета, как выцвевшее все, почему так? Когда смотрел 1080p такого не было Что не так с этой раздачей?

nkeynkey

Стаж: 10 лет 9 месяцев

Сообщений: 24

flag

nkeynkey · 29-Мар-18 23:52 (спустя 1 месяц 1 день)

125ad писал(а):
74885200У меня станные цвета, как выцвевшее все, почему так? Когда смотрел 1080p такого не было Что не так с этой раздачей?
Смотря на чём смотрите, скорее всего вам нужен MadVR, это же 4к
Люди, поддайте пожалуйста скорости, еле тянет
 
All rights reserved © 2017-2018
Loading...
Error