(Kpop/Jpop) TWICE (트와이스) — Дискография - 2015-2018, FLAC (tracks.tracks+.cue), lossless

Статистика раздачи
Размер:  3.06 GB   |   Зарегистрирован:  28 дней   |   .torrent скачан:  73 раза
Сиды:  8   Личи:  3
Автор
Сообщение

MiKura.Self

Стаж: 7 лет 2 месяца

Сообщений: 429

MiKura.Self · 08-Фев-18 02:51 (10 месяцев назад, ред. 19-Ноя-18 18:25)

 


Жанр: K-pop/J-popСтрана-производитель диска(релиза): South Korea/JapanГод издания: 2015-2018Издатель(лейбл): JYP Entertainment/Warner Music JapanАудиокодек: FLAC (*.flac)Тип рипа: tracks, tracks+.cueБитрейт аудио: losslessИсточники: What.cd, Soulseek
Studio albums
[2017] Twicetagram
Альбом: TwicetagramГод выпуска: 2017Издатель: JYP EntertainmentПродолжительность: 44:12
01. "Likey" [3:28]02. "Turtle" (거북이; Geobugi) [3:18]03. "Missing U" [3:00]04. "Wow" [3:01]05. "FFW" [3:46]06. "Ding Dong" [3:32]07. "24/7" [3:36]08. "Look at Me" (날 바라바라봐; Nal Barabarabwa) [3:13]09. "Rollin" [3:11]10. "Love Line" [3:17]11. "Don't Give Up" (힘내!; Himnae!) [2:58]12. "You in My Heart" (널 내게 담아; Neol Naege Dama) [3:29]13. "Jaljayo Good Night" (잘자요 굿나잇; Jaljayo Gunnait) [4:23]
Отчет EAC
Exact Audio Copy V1.3 from 2. September 2016
EAC extraction logfile from 14. November 2017, 18:18
TWICE / Twicetagram
Used drive : ASUS BW-12B1ST a Adapter: 1 ID: 1
Read mode : Secure
Utilize accurate stream : Yes
Defeat audio cache : Yes
Make use of C2 pointers : No
Read offset correction : 6
Overread into Lead-In and Lead-Out : No
Fill up missing offset samples with silence : Yes
Delete leading and trailing silent blocks : No
Null samples used in CRC calculations : Yes
Used interface : Native Win32 interface for Win NT & 2000
Gap handling : Appended to previous track
Used output format : User Defined Encoder
Selected bitrate : 1024 kBit/s
Quality : High
Add ID3 tag : No
Command line compressor : N:\Program Files\Exact Audio Copy\Flac\flac.exe
Additional command line options : -8 -V -T "ARTIST=%artist%" -T "TITLE=%title%" -T "ALBUM=%albumtitle%" -T "DATE=%year%" -T "TRACKNUMBER=%tracknr%" -T "GENRE=%genre%" -T "PERFORMER=%albuminterpret%" -T "COMPOSER=%composer%" %haslyrics%--tag-from-file=LYRICS="%lyricsfile%"%haslyrics% -T "ALBUMARTIST=%albumartist%" -T "DISCNUMBER=%cdnumber%" -T "TOTALDISCS=%totalcds%" -T "TOTALTRACKS=%numtracks%" -T "COMMENT=%comment%" %source% -o %dest%
TOC of the extracted CD
Track | Start | Length | Start sector | End sector
---------------------------------------------------------
1 | 0:00.00 | 3:29.32 | 0 | 15706
2 | 3:29.32 | 3:19.47 | 15707 | 30678
3 | 6:49.04 | 3:01.23 | 30679 | 44276
4 | 9:50.27 | 3:02.43 | 44277 | 57969
5 | 12:52.70 | 3:47.43 | 57970 | 75037
6 | 16:40.38 | 3:33.54 | 75038 | 91066
7 | 20:14.17 | 3:37.06 | 91067 | 107347
8 | 23:51.23 | 3:14.56 | 107348 | 121953
9 | 27:06.04 | 3:12.38 | 121954 | 136391
10 | 30:18.42 | 3:18.29 | 136392 | 151270
11 | 33:36.71 | 2:59.71 | 151271 | 164766
12 | 36:36.67 | 3:30.35 | 164767 | 180551
13 | 40:07.27 | 4:22.70 | 180552 | 200271
Track 1
Filename B:\EAC Rips\TWICE\TWICE - Twicetagram (2017) [FLAC]\01 - LIKEY.wav
Pre-gap length 0:00:02.00
Peak level 100.0 %
Extraction speed 3.3 X
Track quality 100.0 %
Test CRC 1ED3FB38
Copy CRC 1ED3FB38
Track not present in AccurateRip database
Copy OK
Track 2
Filename B:\EAC Rips\TWICE\TWICE - Twicetagram (2017) [FLAC]\02 - 거북이.wav
Pre-gap length 0:00:01.58
Peak level 100.0 %
Extraction speed 1.2 X
Track quality 100.0 %
Test CRC AEC8C441
Copy CRC AEC8C441
Track not present in AccurateRip database
Copy OK
Track 3
Filename B:\EAC Rips\TWICE\TWICE - Twicetagram (2017) [FLAC]\03 - MISSING U.wav
Pre-gap length 0:00:01.58
Peak level 100.0 %
Extraction speed 1.2 X
Track quality 100.0 %
Test CRC BDC73F6A
Copy CRC BDC73F6A
Track not present in AccurateRip database
Copy OK
Track 4
Filename B:\EAC Rips\TWICE\TWICE - Twicetagram (2017) [FLAC]\04 - WOW.wav
Pre-gap length 0:00:01.58
Peak level 100.0 %
Extraction speed 1.1 X
Track quality 99.9 %
Test CRC 114247B4
Copy CRC 114247B4
Track not present in AccurateRip database
Copy OK
Track 5
Filename B:\EAC Rips\TWICE\TWICE - Twicetagram (2017) [FLAC]\05 - FFW.wav
Pre-gap length 0:00:01.58
Peak level 100.0 %
Extraction speed 1.4 X
Track quality 100.0 %
Test CRC 260E9FF5
Copy CRC 260E9FF5
Track not present in AccurateRip database
Copy OK
Track 6
Filename B:\EAC Rips\TWICE\TWICE - Twicetagram (2017) [FLAC]\06 - DING DONG.wav
Pre-gap length 0:00:01.58
Peak level 100.0 %
Extraction speed 1.5 X
Track quality 100.0 %
Test CRC FC7A85D9
Copy CRC FC7A85D9
Track not present in AccurateRip database
Copy OK
Track 7
Filename B:\EAC Rips\TWICE\TWICE - Twicetagram (2017) [FLAC]\07 - 24-7.wav
Pre-gap length 0:00:01.58
Peak level 100.0 %
Extraction speed 1.6 X
Track quality 100.0 %
Test CRC 34FF01F7
Copy CRC 34FF01F7
Track not present in AccurateRip database
Copy OK
Track 8
Filename B:\EAC Rips\TWICE\TWICE - Twicetagram (2017) [FLAC]\08 - 날 바라바라봐 (LOOK AT ME).wav
Pre-gap length 0:00:01.58
Peak level 100.0 %
Extraction speed 1.6 X
Track quality 100.0 %
Test CRC D5B6AC52
Copy CRC D5B6AC52
Track not present in AccurateRip database
Copy OK
Track 9
Filename B:\EAC Rips\TWICE\TWICE - Twicetagram (2017) [FLAC]\09 - ROLLIN'.wav
Pre-gap length 0:00:01.58
Peak level 100.0 %
Extraction speed 1.7 X
Track quality 100.0 %
Test CRC D09ADFDB
Copy CRC D09ADFDB
Track not present in AccurateRip database
Copy OK
Track 10
Filename B:\EAC Rips\TWICE\TWICE - Twicetagram (2017) [FLAC]\10 - LOVE LINE.wav
Pre-gap length 0:00:01.58
Peak level 100.0 %
Extraction speed 1.8 X
Track quality 100.0 %
Test CRC 644E116A
Copy CRC 644E116A
Track not present in AccurateRip database
Copy OK
Track 11
Filename B:\EAC Rips\TWICE\TWICE - Twicetagram (2017) [FLAC]\11 - 힘내! (DON'T GIVE UP).wav
Pre-gap length 0:00:01.58
Peak level 100.0 %
Extraction speed 1.5 X
Track quality 99.9 %
Test CRC BCC2227E
Copy CRC BCC2227E
Track not present in AccurateRip database
Copy OK
Track 12
Filename B:\EAC Rips\TWICE\TWICE - Twicetagram (2017) [FLAC]\12 - 널 내게 담아 (YOU IN MY HEART).wav
Pre-gap length 0:00:01.58
Peak level 100.0 %
Extraction speed 1.6 X
Track quality 99.9 %
Test CRC DF573CDB
Copy CRC DF573CDB
Track not present in AccurateRip database
Copy OK
Track 13
Filename B:\EAC Rips\TWICE\TWICE - Twicetagram (2017) [FLAC]\13 - 잘자요 굿나잇 (JALJAYO GOOD NIGHT).wav
Pre-gap length 0:00:01.58
Peak level 100.0 %
Extraction speed 1.7 X
Track quality 99.9 %
Test CRC 2D7F4E7E
Copy CRC 2D7F4E7E
Track not present in AccurateRip database
Copy OK
None of the tracks are present in the AccurateRip database
No errors occurred
End of status report
---- CUETools DB Plugin V2.1.6
[CTDB TOCID: QjPLb8d_ainTmsRMl1e0TAYV6iM-] found
Submit result: QjPLb8d_ainTmsRMl1e0TAYV6iM- has been confirmed
Track | CTDB Status
1 | (66/67) Accurately ripped
2 | (66/67) Accurately ripped
3 | (64/67) Accurately ripped
4 | (66/67) Accurately ripped
5 | (65/67) Accurately ripped
6 | (65/67) Accurately ripped
7 | (62/67) Accurately ripped
8 | (65/67) Accurately ripped
9 | (66/67) Accurately ripped
10 | (66/67) Accurately ripped
11 | (66/67) Accurately ripped
12 | (64/67) Accurately ripped
13 | (62/67) Accurately ripped
==== Log checksum 255BB983683D7BB9F2834B39969657A6BC2852CA6BA02F65540FB05EDB38358D ====
.cue
REM GENRE Kpop
REM DATE 2017
REM DISCID 900A6E0D
REM COMMENT "ExactAudioCopy v1.3"
PERFORMER "TWICE"
TITLE "Twicetagram"
REM COMPOSER ""
FILE "01 - LIKEY.wav" WAVE
TRACK 01 AUDIO
TITLE "LIKEY"
PERFORMER "TWICE"
REM COMPOSER ""
INDEX 01 00:00:00
TRACK 02 AUDIO
TITLE "거북이"
PERFORMER "TWICE"
REM COMPOSER ""
INDEX 00 03:27:63
FILE "02 - 거북이.wav" WAVE
INDEX 01 00:00:00
TRACK 03 AUDIO
TITLE "MISSING U"
PERFORMER "TWICE"
REM COMPOSER ""
INDEX 00 03:18:03
FILE "03 - MISSING U.wav" WAVE
INDEX 01 00:00:00
TRACK 04 AUDIO
TITLE "WOW"
PERFORMER "TWICE"
REM COMPOSER ""
INDEX 00 02:59:54
FILE "04 - WOW.wav" WAVE
INDEX 01 00:00:00
TRACK 05 AUDIO
TITLE "FFW"
PERFORMER "TWICE"
REM COMPOSER ""
INDEX 00 03:00:74
FILE "05 - FFW.wav" WAVE
INDEX 01 00:00:00
TRACK 06 AUDIO
TITLE "DING DONG"
PERFORMER "TWICE"
REM COMPOSER ""
INDEX 00 03:45:74
FILE "06 - DING DONG.wav" WAVE
INDEX 01 00:00:00
TRACK 07 AUDIO
TITLE "24/7"
PERFORMER "TWICE"
REM COMPOSER ""
INDEX 00 03:32:10
FILE "07 - 24-7.wav" WAVE
INDEX 01 00:00:00
TRACK 08 AUDIO
TITLE "날 바라바라봐 (LOOK AT ME)"
PERFORMER "TWICE"
REM COMPOSER ""
INDEX 00 03:35:37
FILE "08 - 날 바라바라봐 (LOOK AT ME).wav" WAVE
INDEX 01 00:00:00
TRACK 09 AUDIO
TITLE "ROLLIN'"
PERFORMER "TWICE"
REM COMPOSER ""
INDEX 00 03:13:12
FILE "09 - ROLLIN'.wav" WAVE
INDEX 01 00:00:00
TRACK 10 AUDIO
TITLE "LOVE LINE"
PERFORMER "TWICE"
REM COMPOSER ""
INDEX 00 03:10:69
FILE "10 - LOVE LINE.wav" WAVE
INDEX 01 00:00:00
TRACK 11 AUDIO
TITLE "힘내! (DON'T GIVE UP)"
PERFORMER "TWICE"
REM COMPOSER ""
INDEX 00 03:16:60
FILE "11 - 힘내! (DON'T GIVE UP).wav" WAVE
INDEX 01 00:00:00
TRACK 12 AUDIO
TITLE "널 내게 담아 (YOU IN MY HEART)"
PERFORMER "TWICE"
REM COMPOSER ""
INDEX 00 02:58:27
FILE "12 - 널 내게 담아 (YOU IN MY HEART).wav" WAVE
INDEX 01 00:00:00
TRACK 13 AUDIO
TITLE "잘자요 굿나잇 (JALJAYO GOOD NIGHT)"
PERFORMER "TWICE"
REM COMPOSER ""
INDEX 00 03:28:66
FILE "13 - 잘자요 굿나잇 (JALJAYO GOOD NIGHT).wav" WAVE
INDEX 01 00:00:00
[2018] BDZ
Альбом: BDZГод выпуска: 2018Издатель: Warner Music JapanПродолжительность: 35:24
01. "BDZ" [3:17]02. "One More Time" [3:05]03. "Candy Pop" [3:22]04. "L.O.V.E." [3:23]05. "Wishing" [4:32]06. "Say It Again" [3:23]07. "Wake Me Up" [3:33]08. "Brand New Girl" [3:34]09. "Be as One" [3:51]10. "I Want You Back" [3:24]
Отчет EAC
Exact Audio Copy V1.3 from 2. September 2016
EAC extraction logfile from 15. September 2018, 16:00
TWICE / BDZ
Used drive : TSSTcorpCDDVDW SH-S223Q Adapter: 1 ID: 1
Read mode : Secure
Utilize accurate stream : Yes
Defeat audio cache : Yes
Make use of C2 pointers : No
Read offset correction : 6
Overread into Lead-In and Lead-Out : No
Fill up missing offset samples with silence : Yes
Delete leading and trailing silent blocks : No
Null samples used in CRC calculations : Yes
Used interface : Native Win32 interface for Win NT & 2000
Gap handling : Appended to previous track
Used output format : User Defined Encoder
Selected bitrate : 1024 kBit/s
Quality : High
Add ID3 tag : No
Command line compressor : C:\Program Files (x86)\Exact Audio Copy\Flac\flac.exe
Additional command line options : -8 -V -T "ARTIST=%artist%" -T "TITLE=%title%" -T "ALBUM=%albumtitle%" -T "DATE=%year%" -T "TRACKNUMBER=%tracknr%" -T "GENRE=%genre%" -T "PERFORMER=%albuminterpret%" -T "COMPOSER=%composer%" %haslyrics%--tag-from-file=LYRICS="%lyricsfile%"%haslyrics% -T "ALBUMARTIST=%albumartist%" -T "DISCNUMBER=%cdnumber%" -T "TOTALDISCS=%totalcds%" -T "TOTALTRACKS=%numtracks%" -T "COMMENT=%comment%" %source% -o %dest%
TOC of the extracted CD
Track | Start | Length | Start sector | End sector
---------------------------------------------------------
1 | 0:00.00 | 3:17.60 | 0 | 14834
2 | 3:17.60 | 3:05.29 | 14835 | 28738
3 | 6:23.14 | 3:22.14 | 28739 | 43902
4 | 9:45.28 | 3:23.03 | 43903 | 59130
5 | 13:08.31 | 4:32.37 | 59131 | 79567
6 | 17:40.68 | 3:23.44 | 79568 | 94836
7 | 21:04.37 | 3:33.31 | 94837 | 110842
8 | 24:37.68 | 3:34.32 | 110843 | 126924
9 | 28:12.25 | 3:51.09 | 126925 | 144258
10 | 32:03.34 | 3:24.07 | 144259 | 159565
Track 1
Filename D:\EAC Rips\TWICE - BDZ [FLAC]\01 - BDZ.wav
Pre-gap length 0:00:02.00
Peak level 99.8 %
Extraction speed 1.6 X
Track quality 100.0 %
Test CRC A2C50C4A
Copy CRC A2C50C4A
Track not present in AccurateRip database
Copy OK
Track 2
Filename D:\EAC Rips\TWICE - BDZ [FLAC]\02 - One More Time.wav
Pre-gap length 0:00:02.00
Peak level 99.4 %
Extraction speed 1.8 X
Track quality 100.0 %
Test CRC CB69D327
Copy CRC CB69D327
Track not present in AccurateRip database
Copy OK
Track 3
Filename D:\EAC Rips\TWICE - BDZ [FLAC]\03 - Candy Pop.wav
Pre-gap length 0:00:02.00
Peak level 99.8 %
Extraction speed 1.7 X
Track quality 99.9 %
Test CRC 24AFD6CD
Copy CRC 24AFD6CD
Track not present in AccurateRip database
Copy OK
Track 4
Filename D:\EAC Rips\TWICE - BDZ [FLAC]\04 - L.O.V.E.wav
Pre-gap length 0:00:01.49
Peak level 99.8 %
Extraction speed 2.1 X
Track quality 100.0 %
Test CRC 20C8EAE8
Copy CRC 20C8EAE8
Track not present in AccurateRip database
Copy OK
Track 5
Filename D:\EAC Rips\TWICE - BDZ [FLAC]\05 - Wishing.wav
Pre-gap length 0:00:02.00
Peak level 99.8 %
Extraction speed 2.3 X
Track quality 100.0 %
Test CRC DBC912D2
Copy CRC DBC912D2
Track not present in AccurateRip database
Copy OK
Track 6
Filename D:\EAC Rips\TWICE - BDZ [FLAC]\06 - Say it again.wav
Pre-gap length 0:00:02.00
Peak level 99.8 %
Extraction speed 2.3 X
Track quality 100.0 %
Test CRC 36515ED4
Copy CRC 36515ED4
Track not present in AccurateRip database
Copy OK
Track 7
Filename D:\EAC Rips\TWICE - BDZ [FLAC]\07 - Wake Me Up.wav
Pre-gap length 0:00:02.00
Peak level 99.8 %
Extraction speed 2.5 X
Track quality 100.0 %
Test CRC 5B0418E4
Copy CRC 5B0418E4
Track not present in AccurateRip database
Copy OK
Track 8
Filename D:\EAC Rips\TWICE - BDZ [FLAC]\08 - BRAND NEW GIRL.wav
Pre-gap length 0:00:01.00
Peak level 99.8 %
Extraction speed 2.1 X
Track quality 99.9 %
Test CRC 3B8816BD
Copy CRC 3B8816BD
Track not present in AccurateRip database
Copy OK
Track 9
Filename D:\EAC Rips\TWICE - BDZ [FLAC]\09 - Be as ONE.wav
Pre-gap length 0:00:01.98
Peak level 99.8 %
Extraction speed 2.8 X
Track quality 100.0 %
Test CRC B0D0FCAC
Copy CRC B0D0FCAC
Track not present in AccurateRip database
Copy OK
Track 10
Filename D:\EAC Rips\TWICE - BDZ [FLAC]\10 - I WANT YOU BACK.wav
Pre-gap length 0:00:02.98
Peak level 99.8 %
Extraction speed 2.8 X
Track quality 100.0 %
Test CRC FF1E26B1
Copy CRC FF1E26B1
Track not present in AccurateRip database
Copy OK
None of the tracks are present in the AccurateRip database
No errors occurred
End of status report
---- CUETools DB Plugin V2.1.6
[CTDB TOCID: HIW2AwiHe9YFJ5aO5ivcI7Ko9vk-] found
Submit result: HIW2AwiHe9YFJ5aO5ivcI7Ko9vk- has been confirmed
Track | CTDB Status
1 | (30/30) Accurately ripped
2 | (30/30) Accurately ripped
3 | (30/30) Accurately ripped
4 | (30/30) Accurately ripped
5 | (30/30) Accurately ripped
6 | (30/30) Accurately ripped
7 | (30/30) Accurately ripped
8 | (30/30) Accurately ripped
9 | (30/30) Accurately ripped
10 | (30/30) Accurately ripped
==== Log checksum 0AAB75904194F3C781A06641D8D7721A46BA6223C014CC27953405E15D084E81 ====
.cue
REM DATE 2018
REM DISCID 9B084F0A
REM COMMENT "ExactAudioCopy v1.3"
CATALOG 4943674285013
PERFORMER "TWICE"
TITLE "BDZ"
REM COMPOSER ""
FILE "01 - BDZ.wav" WAVE
TRACK 01 AUDIO
TITLE "BDZ"
PERFORMER "TWICE"
REM COMPOSER ""
ISRC JPWP01870896
INDEX 01 00:00:00
TRACK 02 AUDIO
TITLE "One More Time"
PERFORMER "TWICE"
REM COMPOSER ""
ISRC JPWP01771968
INDEX 00 03:15:60
FILE "02 - One More Time.wav" WAVE
INDEX 01 00:00:00
TRACK 03 AUDIO
TITLE "Candy Pop"
PERFORMER "TWICE"
REM COMPOSER ""
ISRC JPWP01772493
INDEX 00 03:03:29
FILE "03 - Candy Pop.wav" WAVE
INDEX 01 00:00:00
TRACK 04 AUDIO
TITLE "L.O.V.E"
PERFORMER "TWICE"
REM COMPOSER ""
ISRC JPWP01870897
INDEX 00 03:20:52
FILE "04 - L.O.V.E.wav" WAVE
INDEX 01 00:00:00
TRACK 05 AUDIO
TITLE "Wishing"
PERFORMER "TWICE"
REM COMPOSER ""
ISRC JPWP01870898
INDEX 00 03:21:03
FILE "05 - Wishing.wav" WAVE
INDEX 01 00:00:00
TRACK 06 AUDIO
TITLE "Say it again"
PERFORMER "TWICE"
REM COMPOSER ""
ISRC JPWP01870899
INDEX 00 04:30:37
FILE "06 - Say it again.wav" WAVE
INDEX 01 00:00:00
TRACK 07 AUDIO
TITLE "Wake Me Up"
PERFORMER "TWICE"
REM COMPOSER ""
ISRC JPWP01870357
INDEX 00 03:21:44
FILE "07 - Wake Me Up.wav" WAVE
INDEX 01 00:00:00
TRACK 08 AUDIO
TITLE "BRAND NEW GIRL"
PERFORMER "TWICE"
REM COMPOSER ""
ISRC JPWP01772494
INDEX 00 03:32:31
FILE "08 - BRAND NEW GIRL.wav" WAVE
INDEX 01 00:00:00
TRACK 09 AUDIO
TITLE "Be as ONE"
PERFORMER "TWICE"
REM COMPOSER ""
ISRC JPWP01870900
INDEX 00 03:32:33
FILE "09 - Be as ONE.wav" WAVE
INDEX 01 00:00:00
TRACK 10 AUDIO
TITLE "I WANT YOU BACK"
PERFORMER "TWICE"
REM COMPOSER ""
ISRC JPWP01800637
INDEX 00 03:48:10
FILE "10 - I WANT YOU BACK.wav" WAVE
INDEX 01 00:00:00
Compilation albums
[2017] #Twice
Альбом: #TwiceГод выпуска: 2017Издатель: Warner Music JapanПродолжительность: 34:16
01. "Like Ooh-Ahh (Japanese ver.)" [3:35]02. "Cheer Up (Japanese ver.)" [3:28]03. "TT (Japanese ver.)" [3:34]04. "Knock Knock (Japanese ver.)" [3:15]05. "Signal (Japanese ver.)" [3:16]06. "Like Ooh-Ahh" [3:35]07. "Cheer Up" [3:28]08. "TT" [3:34]09. "Knock Knock" [3:15]10. "Signal" [3:16]
Отчет EAC
Exact Audio Copy V1.3 from 2. September 2016
EAC extraction logfile from 7. July 2017, 0:57
TWICE / #TWICE
Used drive : TSSTcorpCDDVDW SH-S223Q Adapter: 1 ID: 1
Read mode : Secure
Utilize accurate stream : Yes
Defeat audio cache : Yes
Make use of C2 pointers : No
Read offset correction : 6
Overread into Lead-In and Lead-Out : No
Fill up missing offset samples with silence : Yes
Delete leading and trailing silent blocks : No
Null samples used in CRC calculations : Yes
Used interface : Native Win32 interface for Win NT & 2000
Gap handling : Appended to previous track
Used output format : User Defined Encoder
Selected bitrate : 1024 kBit/s
Quality : High
Add ID3 tag : No
Command line compressor : C:\Program Files (x86)\Exact Audio Copy\Flac\flac.exe
Additional command line options : -8 -V -T "ARTIST=%artist%" -T "TITLE=%title%" -T "ALBUM=%albumtitle%" -T "DATE=%year%" -T "TRACKNUMBER=%tracknr%" -T "GENRE=%genre%" -T "PERFORMER=%albuminterpret%" -T "COMPOSER=%composer%" %haslyrics%--tag-from-file=LYRICS="%lyricsfile%"%haslyrics% -T "ALBUMARTIST=%albumartist%" -T "DISCNUMBER=%cdnumber%" -T "TOTALDISCS=%totalcds%" -T "TOTALTRACKS=%numtracks%" -T "COMMENT=%comment%" %source% -o %dest%
TOC of the extracted CD
Track | Start | Length | Start sector | End sector
---------------------------------------------------------
1 | 0:00.00 | 3:37.14 | 0 | 16288
2 | 3:37.14 | 3:29.34 | 16289 | 31997
3 | 7:06.48 | 3:34.73 | 31998 | 48120
4 | 10:41.46 | 3:17.55 | 48121 | 62950
5 | 13:59.26 | 3:18.41 | 62951 | 77841
6 | 17:17.67 | 3:37.15 | 77842 | 94131
7 | 20:55.07 | 3:29.34 | 94132 | 109840
8 | 24:24.41 | 3:34.73 | 109841 | 125963
9 | 27:59.39 | 3:17.55 | 125964 | 140793
10 | 31:17.19 | 3:16.41 | 140794 | 155534
Track 1
Filename D:\EAC Rips\TWICE - #TWICE\01 - Like OOH-AHH -Japanese ver.-.wav
Pre-gap length 0:00:02.00
Peak level 100.0 %
Extraction speed 2.1 X
Track quality 100.0 %
Test CRC 0C68C6E0
Copy CRC 0C68C6E0
Track not present in AccurateRip database
Copy OK
Track 2
Filename D:\EAC Rips\TWICE - #TWICE\02 - CHEER UP -Japanese ver.-.wav
Pre-gap length 0:00:01.50
Peak level 100.0 %
Extraction speed 1.8 X
Track quality 99.9 %
Test CRC 322A1E3A
Copy CRC 322A1E3A
Track not present in AccurateRip database
Copy OK
Track 3
Filename D:\EAC Rips\TWICE - #TWICE\03 - TT -Japanese ver.-.wav
Pre-gap length 0:00:01.52
Peak level 100.0 %
Extraction speed 2.1 X
Track quality 100.0 %
Test CRC D268EDB9
Copy CRC D268EDB9
Track not present in AccurateRip database
Copy OK
Track 4
Filename D:\EAC Rips\TWICE - #TWICE\04 - KNOCK KNOCK -Japanese ver.-.wav
Pre-gap length 0:00:01.52
Peak level 100.0 %
Extraction speed 2.0 X
Track quality 100.0 %
Test CRC F3526633
Copy CRC F3526633
Track not present in AccurateRip database
Copy OK
Track 5
Filename D:\EAC Rips\TWICE - #TWICE\05 - SIGNAL -Japanese ver.-.wav
Pre-gap length 0:00:01.52
Peak level 100.0 %
Extraction speed 1.8 X
Track quality 99.9 %
Test CRC 4967FD2C
Copy CRC 4967FD2C
Track not present in AccurateRip database
Copy OK
Track 6
Filename D:\EAC Rips\TWICE - #TWICE\06 - Like OOH-AHH.wav
Pre-gap length 0:00:02.01
Peak level 100.0 %
Extraction speed 2.1 X
Track quality 100.0 %
Test CRC 1F1C3D23
Copy CRC 1F1C3D23
Track not present in AccurateRip database
Copy OK
Track 7
Filename D:\EAC Rips\TWICE - #TWICE\07 - CHEER UP.wav
Pre-gap length 0:00:01.50
Peak level 99.9 %
Extraction speed 1.8 X
Track quality 99.9 %
Test CRC 390EB91C
Copy CRC 390EB91C
Track not present in AccurateRip database
Copy OK
Track 8
Filename D:\EAC Rips\TWICE - #TWICE\08 - TT.wav
Pre-gap length 0:00:01.52
Peak level 100.0 %
Extraction speed 2.1 X
Track quality 100.0 %
Test CRC C1150EEC
Copy CRC C1150EEC
Track not present in AccurateRip database
Copy OK
Track 9
Filename D:\EAC Rips\TWICE - #TWICE\09 - KNOCK KNOCK.wav
Pre-gap length 0:00:01.52
Peak level 100.0 %
Extraction speed 2.0 X
Track quality 100.0 %
Test CRC 4AC45F54
Copy CRC 4AC45F54
Track not present in AccurateRip database
Copy OK
Track 10
Filename D:\EAC Rips\TWICE - #TWICE\10 - SIGNAL.wav
Pre-gap length 0:00:01.52
Peak level 100.0 %
Extraction speed 1.7 X
Track quality 99.9 %
Test CRC 8934C27B
Copy CRC 8934C27B
Track not present in AccurateRip database
Copy OK
None of the tracks are present in the AccurateRip database
No errors occurred
End of status report
---- CUETools DB Plugin V2.1.6
[CTDB TOCID: f5yPPRIDha1mO6H5Q58GCcrVp_0-] found
Submit result: already submitted
Track | CTDB Status
1 | (21/21) Accurately ripped
2 | (21/21) Accurately ripped
3 | (21/21) Accurately ripped
4 | (21/21) Accurately ripped
5 | (21/21) Accurately ripped
6 | (21/21) Accurately ripped
7 | (21/21) Accurately ripped
8 | (21/21) Accurately ripped
9 | (21/21) Accurately ripped
10 | (21/21) Accurately ripped
==== Log checksum 54B85C16FAD754642BC44BF81E8F66ABF2FF92DD691E808841EA0120347CE3A3 ====
.cue
REM GENRE Pop
REM DATE 2017
REM DISCID 8C08190A
REM COMMENT "ExactAudioCopy v1.3"
CATALOG 4943674259519
PERFORMER "TWICE"
TITLE "#TWICE"
REM COMPOSER ""
FILE "01 - Like OOH-AHH -Japanese ver.-.wav" WAVE
TRACK 01 AUDIO
TITLE "Like OOH-AHH -Japanese ver.-"
PERFORMER "TWICE"
REM COMPOSER ""
ISRC JPWP01771193
INDEX 01 00:00:00
TRACK 02 AUDIO
TITLE "CHEER UP -Japanese ver.-"
PERFORMER "TWICE"
REM COMPOSER ""
ISRC JPWP01771194
INDEX 00 03:35:51
FILE "02 - CHEER UP -Japanese ver.-.wav" WAVE
INDEX 01 00:00:00
TRACK 03 AUDIO
TITLE "TT -Japanese ver.-"
PERFORMER "TWICE"
REM COMPOSER ""
ISRC JPWP01771195
INDEX 00 03:27:70
FILE "03 - TT -Japanese ver.-.wav" WAVE
INDEX 01 00:00:00
TRACK 04 AUDIO
TITLE "KNOCK KNOCK -Japanese ver.-"
PERFORMER "TWICE"
REM COMPOSER ""
ISRC JPWP01771196
INDEX 00 03:33:34
FILE "04 - KNOCK KNOCK -Japanese ver.-.wav" WAVE
INDEX 01 00:00:00
TRACK 05 AUDIO
TITLE "SIGNAL -Japanese ver.-"
PERFORMER "TWICE"
REM COMPOSER ""
ISRC JPWP01771197
INDEX 00 03:16:16
FILE "05 - SIGNAL -Japanese ver.-.wav" WAVE
INDEX 01 00:00:00
TRACK 06 AUDIO
TITLE "Like OOH-AHH"
PERFORMER "TWICE"
REM COMPOSER ""
INDEX 00 03:16:40
FILE "06 - Like OOH-AHH.wav" WAVE
INDEX 01 00:00:00
TRACK 07 AUDIO
TITLE "CHEER UP"
PERFORMER "TWICE"
REM COMPOSER ""
INDEX 00 03:35:52
FILE "07 - CHEER UP.wav" WAVE
INDEX 01 00:00:00
TRACK 08 AUDIO
TITLE "TT"
PERFORMER "TWICE"
REM COMPOSER ""
INDEX 00 03:27:70
FILE "08 - TT.wav" WAVE
INDEX 01 00:00:00
TRACK 09 AUDIO
TITLE "KNOCK KNOCK"
PERFORMER "TWICE"
REM COMPOSER ""
INDEX 00 03:33:34
FILE "09 - KNOCK KNOCK.wav" WAVE
INDEX 01 00:00:00
TRACK 10 AUDIO
TITLE "SIGNAL"
PERFORMER "TWICE"
REM COMPOSER ""
INDEX 00 03:16:16
FILE "10 - SIGNAL.wav" WAVE
INDEX 01 00:00:00
Reissues
[2017] Twicecoaster: Lane 2
Альбом: Twicecoaster: Lane 2Год выпуска: 2017Издатель: JYP EntertainmentПродолжительность: 29:55
01. "Knock Knock" [3:15]02. "Ice Cream" (녹아요; Nogayo) [3:52]03. "TT" [3:32]04. "1 to 10" [2:55]05. "Ponytail" [3:26]06. "Jelly Jelly" [3:30]07. "Pit-A-Pat" [3:27]08. "Next Page" [2:55]09. "One in a Million" [2:55]
Отчет EAC
Exact Audio Copy V1.1 from 23. June 2015
EAC extraction logfile from 25. February 2017, 23:42
TWICE / TWICEcoaster : LANE 2
Used drive : TSSTcorpDVD-ROM TS-L332A Adapter: 1 ID: 1
Read mode : Secure
Utilize accurate stream : Yes
Defeat audio cache : Yes
Make use of C2 pointers : No
Read offset correction : 6
Overread into Lead-In and Lead-Out : No
Fill up missing offset samples with silence : Yes
Delete leading and trailing silent blocks : No
Null samples used in CRC calculations : Yes
Used interface : Native Win32 interface for Win NT & 2000
Gap handling : Appended to previous track
Used output format : User Defined Encoder
Selected bitrate : 1024 kBit/s
Quality : High
Add ID3 tag : No
Command line compressor : C:\Program Files (x86)\Exact Audio Copy\Flac\flac.exe
Additional command line options : -8 -e -V -T "ARTIST=%artist%" -T "TITLE=%title%" -T "ALBUM=%albumtitle%" -T "DATE=%year%" -T "TRACKNUMBER=%tracknr%" -T "GENRE=%genre%" -T "PERFORMER=%albuminterpret%" -T "COMPOSER=%composer%" %haslyrics%--tag-from-file=LYRICS="%lyricsfile%"%haslyrics% -T "ALBUMARTIST=%albumartist%" -T "DISCNUMBER=%cdnumber%" -T "TOTALDISCS=%totalcds%" -T "TOTALTRACKS=%numtracks%" -T "COMMENT=%comment%" %source% -o %dest%
TOC of the extracted CD
Track | Start | Length | Start sector | End sector
---------------------------------------------------------
1 | 0:00.00 | 3:16.46 | 0 | 14745
2 | 3:16.46 | 3:52.65 | 14746 | 32210
3 | 7:09.36 | 3:34.06 | 32211 | 48266
4 | 10:43.42 | 2:56.31 | 48267 | 61497
5 | 13:39.73 | 3:27.27 | 61498 | 77049
6 | 17:07.25 | 3:32.00 | 77050 | 92949
7 | 20:39.25 | 3:27.38 | 92950 | 108512
8 | 24:06.63 | 2:57.41 | 108513 | 121828
9 | 27:04.29 | 2:56.72 | 121829 | 135100
10 | 30:01.26 | 4:00.64 | 135101 | 153164
11 | 34:02.15 | 3:37.15 | 153165 | 169454
12 | 37:39.30 | 3:28.50 | 169455 | 185104
13 | 41:08.05 | 3:35.13 | 185105 | 201242
Track 1
Filename C:\EAC\TWICE - TWICEcoaster - LANE 2\01 - KNOCK KNOCK.wav
Pre-gap length 0:00:02.00
Peak level 100.0 %
Extraction speed 2.7 X
Track quality 100.0 %
Test CRC 2B8FF4E9
Copy CRC 2B8FF4E9
Track not present in AccurateRip database
Copy OK
Track 2
Filename C:\EAC\TWICE - TWICEcoaster - LANE 2\02 - 녹아요 (MELTING).wav
Peak level 100.0 %
Extraction speed 3.0 X
Track quality 100.0 %
Test CRC 7C411FC6
Copy CRC 7C411FC6
Track not present in AccurateRip database
Copy OK
Track 3
Filename C:\EAC\TWICE - TWICEcoaster - LANE 2\03 - TT.wav
Peak level 100.0 %
Extraction speed 3.3 X
Track quality 100.0 %
Test CRC FC8E9584
Copy CRC FC8E9584
Track not present in AccurateRip database
Copy OK
Track 4
Filename C:\EAC\TWICE - TWICEcoaster - LANE 2\04 - 1 TO 10.wav
Pre-gap length 0:00:01.09
Peak level 100.0 %
Extraction speed 3.4 X
Track quality 100.0 %
Test CRC D50C782B
Copy CRC D50C782B
Track not present in AccurateRip database
Copy OK
Track 5
Filename C:\EAC\TWICE - TWICEcoaster - LANE 2\05 - PONYTAIL.wav
Pre-gap length 0:00:01.22
Peak level 100.0 %
Extraction speed 3.6 X
Track quality 100.0 %
Test CRC BD8C1F5E
Copy CRC BD8C1F5E
Track not present in AccurateRip database
Copy OK
Track 6
Filename C:\EAC\TWICE - TWICEcoaster - LANE 2\06 - JELLY JELLY.wav
Pre-gap length 0:00:01.16
Peak level 100.0 %
Extraction speed 3.9 X
Track quality 100.0 %
Test CRC 04151D50
Copy CRC 04151D50
Track not present in AccurateRip database
Copy OK
Track 7
Filename C:\EAC\TWICE - TWICEcoaster - LANE 2\07 - PIT-A-PAT.wav
Pre-gap length 0:00:01.36
Peak level 100.0 %
Extraction speed 3.4 X
Track quality 99.9 %
Test CRC 53C6442A
Copy CRC 53C6442A
Track not present in AccurateRip database
Copy OK
Track 8
Filename C:\EAC\TWICE - TWICEcoaster - LANE 2\08 - NEXT PAGE.wav
Peak level 100.0 %
Extraction speed 4.1 X
Track quality 100.0 %
Test CRC AB96041B
Copy CRC AB96041B
Track not present in AccurateRip database
Copy OK
Track 9
Filename C:\EAC\TWICE - TWICEcoaster - LANE 2\09 - ONE IN A MILLION.wav
Pre-gap length 0:00:01.60
Peak level 100.0 %
Extraction speed 3.4 X
Track quality 99.9 %
Test CRC 8EEE45B6
Copy CRC 8EEE45B6
Track not present in AccurateRip database
Copy OK
Track 10
Filename C:\EAC\TWICE - TWICEcoaster - LANE 2\10 - TT (TAK Remix).wav
Pre-gap length 0:00:01.81
Peak level 100.0 %
Extraction speed 4.6 X
Track quality 100.0 %
Test CRC 91822318
Copy CRC 91822318
Track not present in AccurateRip database
Copy OK
Track 11
Filename C:\EAC\TWICE - TWICEcoaster - LANE 2\11 - OOH-AHH하게 (Inst.).wav
Pre-gap length 0:00:01.41
Peak level 100.0 %
Extraction speed 4.7 X
Track quality 100.0 %
Test CRC D468F856
Copy CRC D468F856
Track not present in AccurateRip database
Copy OK
Track 12
Filename C:\EAC\TWICE - TWICEcoaster - LANE 2\12 - CHEER UP (Inst.).wav
Pre-gap length 0:00:01.84
Peak level 100.0 %
Extraction speed 4.8 X
Track quality 100.0 %
Test CRC E10A57A8
Copy CRC E10A57A8
Track not present in AccurateRip database
Copy OK
Track 13
Filename C:\EAC\TWICE - TWICEcoaster - LANE 2\13 - TT (Inst.).wav
Pre-gap length 0:00:01.98
Peak level 100.0 %
Extraction speed 4.9 X
Track quality 100.0 %
Test CRC 2657146F
Copy CRC 2657146F
Track not present in AccurateRip database
Copy OK
None of the tracks are present in the AccurateRip database
No errors occurred
End of status report
---- CUETools DB Plugin V2.1.6
[CTDB TOCID: CaYieIgPiBUE8xo2k6PWaVLln9s-] database access error: The operation has timed out
==== Log checksum A9EC25A02E4925C5CE64F30F33607C6ACB44C610ABAF579E2AB7C503EA43D4F0 ====
.cue
REM GENRE Pop
REM DATE 2017
REM DISCID 980A7B0D
REM COMMENT "ExactAudioCopy v1.1"
PERFORMER "TWICE"
TITLE "TWICEcoaster : LANE 2"
FILE "01 - KNOCK KNOCK.wav" WAVE
TRACK 01 AUDIO
TITLE "KNOCK KNOCK"
PERFORMER "TWICE"
INDEX 01 00:00:00
FILE "02 - ... (MELTING).wav" WAVE
TRACK 02 AUDIO
TITLE "... (MELTING)"
PERFORMER "TWICE"
INDEX 01 00:00:00
FILE "03 - TT.wav" WAVE
TRACK 03 AUDIO
TITLE "TT"
PERFORMER "TWICE"
INDEX 01 00:00:00
TRACK 04 AUDIO
TITLE "1 TO 10"
PERFORMER "TWICE"
INDEX 00 03:32:74
FILE "04 - 1 TO 10.wav" WAVE
INDEX 01 00:00:00
TRACK 05 AUDIO
TITLE "PONYTAIL"
PERFORMER "TWICE"
INDEX 00 02:55:14
FILE "05 - PONYTAIL.wav" WAVE
INDEX 01 00:00:00
TRACK 06 AUDIO
TITLE "JELLY JELLY"
PERFORMER "TWICE"
INDEX 00 03:26:15
FILE "06 - JELLY JELLY.wav" WAVE
INDEX 01 00:00:00
TRACK 07 AUDIO
TITLE "PIT-A-PAT"
PERFORMER "TWICE"
INDEX 00 03:30:48
FILE "07 - PIT-A-PAT.wav" WAVE
INDEX 01 00:00:00
FILE "08 - NEXT PAGE.wav" WAVE
TRACK 08 AUDIO
TITLE "NEXT PAGE"
PERFORMER "TWICE"
INDEX 01 00:00:00
TRACK 09 AUDIO
TITLE "ONE IN A MILLION"
PERFORMER "TWICE"
INDEX 00 02:55:71
FILE "09 - ONE IN A MILLION.wav" WAVE
INDEX 01 00:00:00
TRACK 10 AUDIO
TITLE "TT (TAK Remix)"
PERFORMER "TWICE"
INDEX 00 02:55:11
FILE "10 - TT (TAK Remix).wav" WAVE
INDEX 01 00:00:00
TRACK 11 AUDIO
TITLE "OOH-AHH.. (Inst.)"
PERFORMER "TWICE"
INDEX 00 03:59:33
FILE "11 - OOH-AHH.. (Inst.).wav" WAVE
INDEX 01 00:00:00
TRACK 12 AUDIO
TITLE "CHEER UP (Inst.)"
PERFORMER "TWICE"
INDEX 00 03:35:27
FILE "12 - CHEER UP (Inst.).wav" WAVE
INDEX 01 00:00:00
TRACK 13 AUDIO
TITLE "TT (Inst.)"
PERFORMER "TWICE"
INDEX 00 03:26:51
FILE "13 - TT (Inst.).wav" WAVE
INDEX 01 00:00:00
[2017] Merry & Happy
Альбом: Merry & HappyГод выпуска: 2017Издатель: JYP EntertainmentПродолжительность: 50:38
01. "Heart Shaker" [3:08]02. "Merry & Happy" [3:16]03. "Likey" [3:28]04. "Turtle" (거북이; Geobugi) [3:18]05. "Missing U" [3:00]06. "Wow" [3:01]07. "FFW" [3:46]08. "Ding Dong" [3:32]09. "24/7" [3:36]10. "Look at Me" (날 바라바라봐; Nal Barabarabwa) [3:13]11. "Rollin" [3:11]12. "Love Line" [3:17]13. "Don't Give Up" (힘내!; Himnae!) [2:58]14. "You in My Heart" (널 내게 담아; Neol Naege Dama) [3:29]15. "Jaljayo Good Night" (잘자요 굿나잇; Jaljayo Gunnait) [4:23]
Отчет EAC
X Lossless Decoder version 20170729 (150.3)
XLD extraction logfile from 2017-12-28 11:49:41 -0800
TWICE (트와이스) / Merry & Happy
Used drive : Slimtype eBAU108 6 L (revision PL03)
Media type : Pressed CD
Ripper mode : XLD Secure Ripper
Disable audio cache : OK for the drive with a cache less than 1375KiB
Make use of C2 pointers : NO
Read offset correction : 6
Max retry count : 20
Gap status : Analyzed, Appended (except HTOA)
TOC of the extracted CD
Track | Start | Length | Start sector | End sector
---------------------------------------------------------
1 | 00:00:00 | 03:07:43 | 0 | 14067
2 | 03:07:43 | 03:13:43 | 14068 | 28585
3 | 06:21:11 | 03:27:63 | 28586 | 44173
4 | 09:48:74 | 03:18:49 | 44174 | 59072
5 | 13:07:48 | 03:00:15 | 59073 | 72587
6 | 16:07:63 | 03:01:67 | 72588 | 86229
7 | 19:09:55 | 03:47:16 | 86230 | 103270
8 | 22:56:71 | 03:33:16 | 103271 | 119261
9 | 26:30:12 | 03:35:13 | 119262 | 135399
10 | 30:05:25 | 03:13:53 | 135400 | 149927
11 | 33:19:03 | 03:11:42 | 149928 | 164294
12 | 36:30:45 | 03:16:42 | 164295 | 179036
13 | 39:47:12 | 02:59:31 | 179037 | 192492
14 | 42:46:43 | 03:29:70 | 192493 | 208237
15 | 46:16:38 | 04:21:56 | 208238 | 227868
AccurateRip Summary
Disc not found in AccurateRip DB.
All Tracks
Album gain : -10.82 dB
Peak : 1.000000
Statistics
Read error : 0
Jitter error (maybe fixed) : 0
Retry sector count : 0
Damaged sector count : 0
Track 01
Filename : /Users/red/TWICE (트와이스) - Merry & Happy (2017) [FLAC]/01 Heart Shaker.flac
Pre-gap length : 00:02:00
Track gain : -12.72 dB
Peak : 1.000000
CRC32 hash (test run) : 45A3AFFC
CRC32 hash : 45A3AFFC
CRC32 hash (skip zero) : C9A07DA8
AccurateRip v1 signature : FECCB1B2
AccurateRip v2 signature : 4C615295
->Track not present in AccurateRip database.
Statistics
Read error : 0
Jitter error (maybe fixed) : 0
Retry sector count : 0
Damaged sector count : 0
Track 02
Filename : /Users/red/TWICE (트와이스) - Merry & Happy (2017) [FLAC]/02 Merry & Happy.flac
Track gain : -10.17 dB
Peak : 1.000000
CRC32 hash (test run) : 26896785
CRC32 hash : 26896785
CRC32 hash (skip zero) : 1BF0113E
AccurateRip v1 signature : 2B719A4F
AccurateRip v2 signature : AF72E3A3
->Track not present in AccurateRip database.
Statistics
Read error : 0
Jitter error (maybe fixed) : 0
Retry sector count : 0
Damaged sector count : 0
Track 03
Filename : /Users/red/TWICE (트와이스) - Merry & Happy (2017) [FLAC]/03 LIKEY.flac
Track gain : -11.79 dB
Peak : 1.000000
CRC32 hash (test run) : 0A6BCB45
CRC32 hash : 0A6BCB45
CRC32 hash (skip zero) : B8A517F6
AccurateRip v1 signature : 34C92604
AccurateRip v2 signature : BAEABD06
->Track not present in AccurateRip database.
Statistics
Read error : 0
Jitter error (maybe fixed) : 0
Retry sector count : 0
Damaged sector count : 0
Track 04
Filename : /Users/red/TWICE (트와이스) - Merry & Happy (2017) [FLAC]/04 거북이.flac
Track gain : -10.05 dB
Peak : 1.000000
CRC32 hash (test run) : 2686010F
CRC32 hash : 2686010F
CRC32 hash (skip zero) : 0BB05211
AccurateRip v1 signature : 11BB7067
AccurateRip v2 signature : 8A277350
->Track not present in AccurateRip database.
Statistics
Read error : 0
Jitter error (maybe fixed) : 0
Retry sector count : 0
Damaged sector count : 0
Track 05
Filename : /Users/red/TWICE (트와이스) - Merry & Happy (2017) [FLAC]/05 MISSING U.flac
Track gain : -10.22 dB
Peak : 1.000000
CRC32 hash (test run) : 28636CD9
CRC32 hash : 28636CD9
CRC32 hash (skip zero) : D3C38D3B
AccurateRip v1 signature : 33AFD4C8
AccurateRip v2 signature : C7F808E6
->Track not present in AccurateRip database.
Statistics
Read error : 0
Jitter error (maybe fixed) : 0
Retry sector count : 0
Damaged sector count : 0
Track 06
Filename : /Users/red/TWICE (트와이스) - Merry & Happy (2017) [FLAC]/06 WOW.flac
Track gain : -10.46 dB
Peak : 0.999969
CRC32 hash (test run) : 4395B702
CRC32 hash : 4395B702
CRC32 hash (skip zero) : 9C90132D
AccurateRip v1 signature : F8002C78
AccurateRip v2 signature : 5DE49D69
->Track not present in AccurateRip database.
Statistics
Read error : 0
Jitter error (maybe fixed) : 0
Retry sector count : 0
Damaged sector count : 0
Track 07
Filename : /Users/red/TWICE (트와이스) - Merry & Happy (2017) [FLAC]/07 FFW.flac
Track gain : -10.81 dB
Peak : 1.000000
CRC32 hash (test run) : A72C84F3
CRC32 hash : A72C84F3
CRC32 hash (skip zero) : 3CFB6A4A
AccurateRip v1 signature : CF0B2692
AccurateRip v2 signature : CD388C2C
->Track not present in AccurateRip database.
Statistics
Read error : 0
Jitter error (maybe fixed) : 0
Retry sector count : 0
Damaged sector count : 0
Track 08
Filename : /Users/red/TWICE (트와이스) - Merry & Happy (2017) [FLAC]/08 DING DONG.flac
Track gain : -10.52 dB
Peak : 1.000000
CRC32 hash (test run) : 8F84B6AA
CRC32 hash : 8F84B6AA
CRC32 hash (skip zero) : FE036230
AccurateRip v1 signature : BF30D687
AccurateRip v2 signature : 74C4E4B1
->Track not present in AccurateRip database.
Statistics
Read error : 0
Jitter error (maybe fixed) : 0
Retry sector count : 0
Damaged sector count : 0
Track 09
Filename : /Users/red/TWICE (트와이스) - Merry & Happy (2017) [FLAC]/09 24-7.flac
Track gain : -9.65 dB
Peak : 1.000000
CRC32 hash (test run) : 87722838
CRC32 hash : 87722838
CRC32 hash (skip zero) : 2F152130
AccurateRip v1 signature : 0D0B591A
AccurateRip v2 signature : C806E8F1
->Track not present in AccurateRip database.
Statistics
Read error : 0
Jitter error (maybe fixed) : 0
Retry sector count : 0
Damaged sector count : 0
Track 10
Filename : /Users/red/TWICE (트와이스) - Merry & Happy (2017) [FLAC]/10 날 바라바라봐.flac
Track gain : -10.58 dB
Peak : 0.992676
CRC32 hash (test run) : A817FA39
CRC32 hash : A817FA39
CRC32 hash (skip zero) : 108081C8
AccurateRip v1 signature : F827716E
AccurateRip v2 signature : E5BA0DD2
->Track not present in AccurateRip database.
Statistics
Read error : 0
Jitter error (maybe fixed) : 0
Retry sector count : 0
Damaged sector count : 0
Track 11
Filename : /Users/red/TWICE (트와이스) - Merry & Happy (2017) [FLAC]/11 ROLLIN'.flac
Track gain : -9.96 dB
Peak : 1.000000
CRC32 hash (test run) : 43BA6729
CRC32 hash : 43BA6729
CRC32 hash (skip zero) : 7C981423
AccurateRip v1 signature : A017E3DD
AccurateRip v2 signature : 6EAEC552
->Track not present in AccurateRip database.
Statistics
Read error : 0
Jitter error (maybe fixed) : 0
Retry sector count : 0
Damaged sector count : 0
Track 12
Filename : /Users/red/TWICE (트와이스) - Merry & Happy (2017) [FLAC]/12 LOVE LINE.flac
Track gain : -9.78 dB
Peak : 1.000000
CRC32 hash (test run) : 1C95339F
CRC32 hash : 1C95339F
CRC32 hash (skip zero) : 9CA5102F
AccurateRip v1 signature : B6D8EC53
AccurateRip v2 signature : E7964BCC
->Track not present in AccurateRip database.
Statistics
Read error : 0
Jitter error (maybe fixed) : 0
Retry sector count : 0
Damaged sector count : 0
Track 13
Filename : /Users/red/TWICE (트와이스) - Merry & Happy (2017) [FLAC]/13 힘내 (DON'T GIVE UP).flac
Track gain : -8.48 dB
Peak : 1.000000
CRC32 hash (test run) : 0BC93643
CRC32 hash : 0BC93643
CRC32 hash (skip zero) : 966BA431
AccurateRip v1 signature : E2255161
AccurateRip v2 signature : B90A45C8
->Track not present in AccurateRip database.
Statistics
Read error : 0
Jitter error (maybe fixed) : 0
Retry sector count : 0
Damaged sector count : 0
Track 14
Filename : /Users/red/TWICE (트와이스) - Merry & Happy (2017) [FLAC]/14 널 내게 담아.flac
Track gain : -9.92 dB
Peak : 1.000000
CRC32 hash (test run) : 87030696
CRC32 hash : 87030696
CRC32 hash (skip zero) : 922D7F87
AccurateRip v1 signature : A51E1789
AccurateRip v2 signature : 7C831D08
->Track not present in AccurateRip database.
Statistics
Read error : 0
Jitter error (maybe fixed) : 0
Retry sector count : 0
Damaged sector count : 0
Track 15
Filename : /Users/red/TWICE (트와이스) - Merry & Happy (2017) [FLAC]/15 잘자요 굿나잇.flac
Track gain : -8.53 dB
Peak : 0.971466
CRC32 hash (test run) : 22601327
CRC32 hash : 22601327
CRC32 hash (skip zero) : 4ADAAC6B
AccurateRip v1 signature : FB03A4DF
AccurateRip v2 signature : 3C14BBAD
->Track not present in AccurateRip database.
Statistics
Read error : 0
Jitter error (maybe fixed) : 0
Retry sector count : 0
Damaged sector count : 0
No errors occurred
End of status report
-----BEGIN XLD SIGNATURE-----
J0Dh6AdxRa_72aUbLg1GUpLXWg2BaFR5sRcrDKHfCVmC_6QouYG.KHQNeSs2hDavEACP92.6y8ngfzM.GmKhC6f.r7su8lfaZTsQL3S
-----END XLD SIGNATURE-----
.cue
TITLE "Merry & Happy"
PERFORMER "TWICE (트와이스) "
REM GENRE "Pop"
REM DATE "2017"
REM DISCNUMBER 1
REM TOTALDISCS 1
REM DISCID F00BDE0F
REM REPLAYGAIN_ALBUM_GAIN -10.82 dB
REM REPLAYGAIN_ALBUM_PEAK 1.000000
FILE "01 Heart Shaker.flac" WAVE
TRACK 01 AUDIO
TITLE "Heart Shaker"
REM REPLAYGAIN_TRACK_GAIN -12.72 dB
REM REPLAYGAIN_TRACK_PEAK 1.000000
INDEX 01 00:00:00
FILE "02 Merry & Happy.flac" WAVE
TRACK 02 AUDIO
TITLE "Merry & Happy"
REM REPLAYGAIN_TRACK_GAIN -10.17 dB
REM REPLAYGAIN_TRACK_PEAK 1.000000
INDEX 01 00:00:00
FILE "03 LIKEY.flac" WAVE
TRACK 03 AUDIO
TITLE "LIKEY"
REM REPLAYGAIN_TRACK_GAIN -11.79 dB
REM REPLAYGAIN_TRACK_PEAK 1.000000
INDEX 01 00:00:00
FILE "04 거북이.flac" WAVE
TRACK 04 AUDIO
TITLE "거북이"
REM REPLAYGAIN_TRACK_GAIN -10.05 dB
REM REPLAYGAIN_TRACK_PEAK 1.000000
INDEX 01 00:00:00
FILE "05 MISSING U.flac" WAVE
TRACK 05 AUDIO
TITLE "MISSING U"
REM REPLAYGAIN_TRACK_GAIN -10.22 dB
REM REPLAYGAIN_TRACK_PEAK 1.000000
INDEX 01 00:00:00
FILE "06 WOW.flac" WAVE
TRACK 06 AUDIO
TITLE "WOW"
REM REPLAYGAIN_TRACK_GAIN -10.46 dB
REM REPLAYGAIN_TRACK_PEAK 0.999969
INDEX 01 00:00:00
FILE "07 FFW.flac" WAVE
TRACK 07 AUDIO
TITLE "FFW"
REM REPLAYGAIN_TRACK_GAIN -10.81 dB
REM REPLAYGAIN_TRACK_PEAK 1.000000
INDEX 01 00:00:00
FILE "08 DING DONG.flac" WAVE
TRACK 08 AUDIO
TITLE "DING DONG"
REM REPLAYGAIN_TRACK_GAIN -10.52 dB
REM REPLAYGAIN_TRACK_PEAK 1.000000
INDEX 01 00:00:00
FILE "09 24-7.flac" WAVE
TRACK 09 AUDIO
TITLE "24/7"
REM REPLAYGAIN_TRACK_GAIN -9.65 dB
REM REPLAYGAIN_TRACK_PEAK 1.000000
INDEX 01 00:00:00
FILE "10 날 바라바라봐.flac" WAVE
TRACK 10 AUDIO
TITLE "날 바라바라봐"
REM REPLAYGAIN_TRACK_GAIN -10.58 dB
REM REPLAYGAIN_TRACK_PEAK 0.992676
INDEX 01 00:00:00
FILE "11 ROLLIN'.flac" WAVE
TRACK 11 AUDIO
TITLE "ROLLIN'"
REM REPLAYGAIN_TRACK_GAIN -9.96 dB
REM REPLAYGAIN_TRACK_PEAK 1.000000
INDEX 01 00:00:00
FILE "12 LOVE LINE.flac" WAVE
TRACK 12 AUDIO
TITLE "LOVE LINE"
REM REPLAYGAIN_TRACK_GAIN -9.78 dB
REM REPLAYGAIN_TRACK_PEAK 1.000000
INDEX 01 00:00:00
FILE "13 힘내 (DON'T GIVE UP).flac" WAVE
TRACK 13 AUDIO
TITLE "힘내! (DON'T GIVE UP)"
REM REPLAYGAIN_TRACK_GAIN -8.48 dB
REM REPLAYGAIN_TRACK_PEAK 1.000000
INDEX 01 00:00:00
FILE "14 널 내게 담아.flac" WAVE
TRACK 14 AUDIO
TITLE "널 내게 담아"
REM REPLAYGAIN_TRACK_GAIN -9.92 dB
REM REPLAYGAIN_TRACK_PEAK 1.000000
INDEX 01 00:00:00
FILE "15 잘자요 굿나잇.flac" WAVE
TRACK 15 AUDIO
TITLE "잘자요 굿나잇"
REM REPLAYGAIN_TRACK_GAIN -8.53 dB
REM REPLAYGAIN_TRACK_PEAK 0.971466
INDEX 01 00:00:00
[2018] Summer Nights
Альбом: Summer NightsГод выпуска: 2018Издатель: JYP EntertainmentПродолжительность: 29:44
01. "Dance the Night Away" [3:02]02. "Chillax" [3:07]03. "Shot Thru the Heart" [3:26]04. "What Is Love?" [3:29]05. "Sweet Talker" [3:29]06. "Ho!" [3:10]07. "Dejavu" [3:17]08. "Say Yes" [3:04]09. "Stuck" [3:35]
Отчет EAC
Exact Audio Copy V1.3 from 2. September 2016
EAC extraction logfile from 21. October 2018, 21:29
TWICE / Summer Nights
Used drive : HL-DT-STDVDRAM GH24NS95 Adapter: 1 ID: 2
Read mode : Secure
Utilize accurate stream : Yes
Defeat audio cache : Yes
Make use of C2 pointers : No
Read offset correction : 6
Overread into Lead-In and Lead-Out : No
Fill up missing offset samples with silence : Yes
Delete leading and trailing silent blocks : No
Null samples used in CRC calculations : Yes
Used interface : Native Win32 interface for Win NT & 2000
Gap handling : Appended to previous track
Used output format : User Defined Encoder
Selected bitrate : 1024 kBit/s
Quality : High
Add ID3 tag : No
Command line compressor : A:\Program Files\flac-1.3.0\flac.exe
Additional command line options : -8 -e -p -V -T "ARTIST=%artist%" -T "TITLE=%title%" -T "ALBUM=%albumtitle%" -T "DATE=%year%" -T "TRACKNUMBER=%tracknr%" -T "GENRE=%genre%" -T "PERFORMER=%albuminterpret%" -T "COMPOSER=%composer%" %haslyrics%--tag-from-file=LYRICS="%lyricsfile%"%haslyrics% -T "ALBUMARTIST=%albumartist%" -T "DISCNUMBER=%cdnumber%" -T "TOTALDISCS=%totalcds%" -T "TOTALTRACKS=%numtracks%" -T "COMMENT=%comment%" %source% -o %dest%
TOC of the extracted CD
Track | Start | Length | Start sector | End sector
---------------------------------------------------------
1 | 0:00.00 | 3:02.24 | 0 | 13673
2 | 3:02.24 | 3:07.59 | 13674 | 27757
3 | 6:10.08 | 3:26.42 | 27758 | 43249
4 | 9:36.50 | 3:29.55 | 43250 | 58979
5 | 13:06.30 | 3:29.19 | 58980 | 74673
6 | 16:35.49 | 3:10.43 | 74674 | 88966
7 | 19:46.17 | 3:17.69 | 88967 | 103810
8 | 23:04.11 | 3:04.33 | 103811 | 117643
9 | 26:08.44 | 3:35.27 | 117644 | 133795
Track 1
Filename B:\EAC Rips\TWICE\TWICE - Summer Nights [FLAC] {JYPK1011}\01 - Dance the Night Away.wav
Pre-gap length 0:00:02.00
Peak level 100.0 %
Extraction speed 1.0 X
Track quality 100.0 %
Test CRC 38055CF3
Copy CRC 38055CF3
Accurately ripped (confidence 6) [64C6C181] (AR v2)
Copy OK
Track 2
Filename B:\EAC Rips\TWICE\TWICE - Summer Nights [FLAC] {JYPK1011}\02 - CHILLAX.wav
Pre-gap length 0:00:01.49
Peak level 100.0 %
Extraction speed 1.1 X
Track quality 100.0 %
Test CRC 656559C3
Copy CRC 656559C3
Accurately ripped (confidence 6) [993505D9] (AR v2)
Copy OK
Track 3
Filename B:\EAC Rips\TWICE\TWICE - Summer Nights [FLAC] {JYPK1011}\03 - Shot thru the heart.wav
Pre-gap length 0:00:01.49
Peak level 100.0 %
Extraction speed 1.2 X
Track quality 100.0 %
Test CRC D48E6457
Copy CRC D48E6457
Accurately ripped (confidence 6) [0F652FDF] (AR v2)
Copy OK
Track 4
Filename B:\EAC Rips\TWICE\TWICE - Summer Nights [FLAC] {JYPK1011}\04 - What is Love.wav
Pre-gap length 0:00:01.49
Peak level 100.0 %
Extraction speed 1.3 X
Track quality 100.0 %
Test CRC E07212C9
Copy CRC E07212C9
Accurately ripped (confidence 5) [BFBC9081] (AR v2)
Copy OK
Track 5
Filename B:\EAC Rips\TWICE\TWICE - Summer Nights [FLAC] {JYPK1011}\05 - SWEET TALKER.wav
Pre-gap length 0:00:01.48
Peak level 100.0 %
Extraction speed 1.4 X
Track quality 100.0 %
Test CRC CE7C48DF
Copy CRC CE7C48DF
Accurately ripped (confidence 5) [95E35D3D] (AR v2)
Copy OK
Track 6
Filename B:\EAC Rips\TWICE\TWICE - Summer Nights [FLAC] {JYPK1011}\06 - HO!.wav
Pre-gap length 0:00:01.49
Peak level 100.0 %
Extraction speed 1.2 X
Track quality 99.9 %
Test CRC 71AA273D
Copy CRC 71AA273D
Accurately ripped (confidence 5) [DFDC2100] (AR v2)
Copy OK
Track 7
Filename B:\EAC Rips\TWICE\TWICE - Summer Nights [FLAC] {JYPK1011}\07 - DEJAVU.wav
Pre-gap length 0:00:01.49
Peak level 100.0 %
Extraction speed 1.5 X
Track quality 100.0 %
Test CRC B52EF2FD
Copy CRC B52EF2FD
Accurately ripped (confidence 5) [9FA03E1A] (AR v2)
Copy OK
Track 8
Filename B:\EAC Rips\TWICE\TWICE - Summer Nights [FLAC] {JYPK1011}\08 - SAY YES.wav
Pre-gap length 0:00:01.49
Peak level 100.0 %
Extraction speed 1.6 X
Track quality 100.0 %
Test CRC 7BC9DDD8
Copy CRC 7BC9DDD8
Accurately ripped (confidence 5) [B02BB53E] (AR v2)
Copy OK
Track 9
Filename B:\EAC Rips\TWICE\TWICE - Summer Nights [FLAC] {JYPK1011}\09 - STUCK.wav
Pre-gap length 0:00:01.48
Peak level 100.0 %
Extraction speed 1.7 X
Track quality 100.0 %
Test CRC 8A7D7EC9
Copy CRC 8A7D7EC9
Accurately ripped (confidence 5) [BD0E7AC4] (AR v2)
Copy OK
All tracks accurately ripped
No errors occurred
End of status report
---- CUETools DB Plugin V2.1.6
[CTDB TOCID: cihNi4RO9ZFaiQ.gtQTO5ULFD0U-] found
Submit result: cihNi4RO9ZFaiQ.gtQTO5ULFD0U- has been confirmed
Track | CTDB Status
1 | (84/86) Accurately ripped
2 | (84/86) Accurately ripped
3 | (82/86) Accurately ripped
4 | (79/86) Accurately ripped
5 | (81/86) Accurately ripped
6 | (82/86) Accurately ripped
7 | (82/86) Accurately ripped
8 | (83/86) Accurately ripped
9 | (80/86) Accurately ripped
==== Log checksum 324B68765DBD381FA03B43E10321A15F6B41C52EA571426D23C2D13E8D68D25C ====
.cue
REM GENRE Kpop
REM DATE 2018
REM DISCID 9006F709
REM COMMENT "ExactAudioCopy v1.3"
PERFORMER "TWICE"
TITLE "Summer Nights"
REM COMPOSER ""
FILE "01 - Dance the Night Away.wav" WAVE
TRACK 01 AUDIO
TITLE "Dance the Night Away"
PERFORMER "TWICE"
REM COMPOSER ""
INDEX 01 00:00:00
TRACK 02 AUDIO
TITLE "CHILLAX"
PERFORMER "TWICE"
REM COMPOSER ""
INDEX 00 03:00:62
FILE "02 - CHILLAX.wav" WAVE
INDEX 01 00:00:00
TRACK 03 AUDIO
TITLE "Shot thru the heart"
PERFORMER "TWICE"
REM COMPOSER ""
INDEX 00 03:06:22
FILE "03 - Shot thru the heart.wav" WAVE
INDEX 01 00:00:00
TRACK 04 AUDIO
TITLE "What is Love?"
PERFORMER "TWICE"
REM COMPOSER ""
INDEX 00 03:25:05
FILE "04 - What is Love.wav" WAVE
INDEX 01 00:00:00
TRACK 05 AUDIO
TITLE "SWEET TALKER"
PERFORMER "TWICE"
REM COMPOSER ""
INDEX 00 03:28:19
FILE "05 - SWEET TALKER.wav" WAVE
INDEX 01 00:00:00
TRACK 06 AUDIO
TITLE "HO!"
PERFORMER "TWICE"
REM COMPOSER ""
INDEX 00 03:27:57
FILE "06 - HO!.wav" WAVE
INDEX 01 00:00:00
TRACK 07 AUDIO
TITLE "DEJAVU"
PERFORMER "TWICE"
REM COMPOSER ""
INDEX 00 03:09:06
FILE "07 - DEJAVU.wav" WAVE
INDEX 01 00:00:00
TRACK 08 AUDIO
TITLE "SAY YES"
PERFORMER "TWICE"
REM COMPOSER ""
INDEX 00 03:16:32
FILE "08 - SAY YES.wav" WAVE
INDEX 01 00:00:00
TRACK 09 AUDIO
TITLE "STUCK"
PERFORMER "TWICE"
REM COMPOSER ""
INDEX 00 03:02:72
FILE "09 - STUCK.wav" WAVE
INDEX 01 00:00:00
Extended plays
[2015] The Story Begins
Альбом: The Story BeginsГод выпуска: 2015Издатель: JYP EntertainmentПродолжительность: 20:02
01. "Like Ooh-Ahh" (OOH-AHH하게; Ooh-Ahh Hage) [3:35]02. "Do It Again" (다시 해줘; Dasi Haejwo) [3:26]03. "Going Crazy" (미쳤나봐; Michyeonnabwa) [3:01]04. "Truth" [3:33]05. "Candy Boy" [2:46]06. "Like a Fool" [3:34]
Отчет EAC
Exact Audio Copy V1.0 beta 3 from 29. August 2011
EAC extraction logfile from 30. October 2015, 0:48
TWICE / THE STORY BEGINS
Used drive : TSSTcorpDVD+-RW TS-L633C Adapter: 0 ID: 1
Read mode : Secure
Utilize accurate stream : Yes
Defeat audio cache : Yes
Make use of C2 pointers : No
Read offset correction : 6
Overread into Lead-In and Lead-Out : No
Fill up missing offset samples with silence : Yes
Delete leading and trailing silent blocks : No
Null samples used in CRC calculations : Yes
Used interface : Native Win32 interface for Win NT & 2000
Gap handling : Appended to previous track
Used output format : User Defined Encoder
Selected bitrate : 128 kBit/s
Quality : High
Add ID3 tag : No
Command line compressor : C:\Program Files (x86)\FLAC\flac.exe
Additional command line options : -8 -V -T "ARTIST=%artist%" -T "TITLE=%title%" -T "ALBUM=%albumtitle%" -T "DATE=%year%" -T "TRACKNUMBER=%tracknr%" -T "GENRE=%genre%" -T "PERFORMER=%albuminterpret%" -T "COMPOSER=%composer%" %haslyrics%--tag-from-file=LYRICS="%lyricsfile%"%haslyrics% -T "ALBUMARTIST=%albumartist%" -T "DISCNUMBER=%cdnumber%" -T "TOTALDISCS=%totalcds%" -T "TOTALTRACKS=%numtracks%" -T "COMMENT=%comment%" %source% -o %dest%
TOC of the extracted CD
Track | Start | Length | Start sector | End sector
---------------------------------------------------------
1 | 0:00.00 | 3:36.41 | 0 | 16240
2 | 3:36.41 | 3:27.61 | 16241 | 31826
3 | 7:04.27 | 3:02.56 | 31827 | 45532
4 | 10:07.08 | 3:35.13 | 45533 | 61670
5 | 13:42.21 | 2:47.24 | 61671 | 74219
6 | 16:29.45 | 3:34.31 | 74220 | 90300
Track 1
Filename G:\TWICE - THE STORY BEGINS (FLAC)\01 - OOH-AAH하게.wav
Pre-gap length 0:00:02.00
Peak level 100.0 %
Extraction speed 2.7 X
Track quality 100.0 %
Test CRC 7812DA75
Copy CRC 7812DA75
Track not present in AccurateRip database
Copy OK
Track 2
Filename G:\TWICE - THE STORY BEGINS (FLAC)\02 - 다시 해줘.wav
Pre-gap length 0:00:01.19
Peak level 100.0 %
Extraction speed 2.3 X
Track quality 99.9 %
Test CRC 3085A34C
Copy CRC 3085A34C
Track not present in AccurateRip database
Copy OK
Track 3
Filename G:\TWICE - THE STORY BEGINS (FLAC)\03 - 미쳤나봐.wav
Pre-gap length 0:00:01.19
Peak level 100.0 %
Extraction speed 3.0 X
Track quality 100.0 %
Test CRC 9206DA0E
Copy CRC 9206DA0E
Track not present in AccurateRip database
Copy OK
Track 4
Filename G:\TWICE - THE STORY BEGINS (FLAC)\04 - Truth.wav
Pre-gap length 0:00:01.19
Peak level 100.0 %
Extraction speed 3.3 X
Track quality 100.0 %
Test CRC 986CA165
Copy CRC 986CA165
Track not present in AccurateRip database
Copy OK
Track 5
Filename G:\TWICE - THE STORY BEGINS (FLAC)\05 - Candy Boy.wav
Pre-gap length 0:00:01.19
Peak level 100.0 %
Extraction speed 2.6 X
Track quality 99.9 %
Test CRC CB61D543
Copy CRC CB61D543
Track not present in AccurateRip database
Copy OK
Track 6
Filename G:\TWICE - THE STORY BEGINS (FLAC)\06 - Like a Fool.wav
Pre-gap length 0:00:01.19
Peak level 100.0 %
Extraction speed 3.6 X
Track quality 100.0 %
Test CRC 1880FC1C
Copy CRC 1880FC1C
Track not present in AccurateRip database
Copy OK
None of the tracks are present in the AccurateRip database
No errors occurred
End of status report
==== Log checksum 0CA174DCEAC44FE485D928072A20D60B00583EDEB89D3927802296B75E95760F ====
.cue
REM GENRE K-Pop
REM DATE 2015
REM DISCID 4904B406
REM COMMENT "ExactAudioCopy v1.0b3"
PERFORMER "TWICE"
TITLE "THE STORY BEGINS"
FILE "01 - OOH-AAH...wav" WAVE
TRACK 01 AUDIO
TITLE "OOH-AAH.."
PERFORMER "TWICE"
INDEX 01 00:00:00
TRACK 02 AUDIO
TITLE ".. .."
PERFORMER "TWICE"
INDEX 00 03:35:22
FILE "02 - .. ...wav" WAVE
INDEX 01 00:00:00
TRACK 03 AUDIO
TITLE "...."
PERFORMER "TWICE"
INDEX 00 03:26:42
FILE "03 - .....wav" WAVE
INDEX 01 00:00:00
TRACK 04 AUDIO
TITLE "Truth"
PERFORMER "TWICE"
INDEX 00 03:01:37
FILE "04 - Truth.wav" WAVE
INDEX 01 00:00:00
TRACK 05 AUDIO
TITLE "Candy Boy"
PERFORMER "TWICE"
INDEX 00 03:33:69
FILE "05 - Candy Boy.wav" WAVE
INDEX 01 00:00:00
TRACK 06 AUDIO
TITLE "Like a Fool"
PERFORMER "TWICE"
INDEX 00 02:46:05
FILE "06 - Like a Fool.wav" WAVE
INDEX 01 00:00:00
[2016] Page Two
Альбом: Page TwoГод выпуска: 2016Издатель: JYP EntertainmentПродолжительность: 23:55
01. "Cheer Up" [3:28]02. "Precious Love" (소중한 사랑; Sojunghan Sarang) [3:51]03. "Touchdown" [3:23]04. "Tuk Tok" (툭하면 톡; Tukhamyeon Tok) [3:17]05. "Woohoo" [3:22]06. "My Headphones On" (Headphone 써; Headphone Sseo) [3:17]07. "I'm Gonna Be a Star" [3:18]
Отчет EAC
Exact Audio Copy V1.3 from 2. September 2016
EAC extraction logfile from 10. February 2017, 1:41
TWICE / PAGE TWO
Used drive : PIONEER BD-RW BDR-209D Adapter: 1 ID: 0
Read mode : Secure
Utilize accurate stream : Yes
Defeat audio cache : Yes
Make use of C2 pointers : No
Read offset correction : 667
Overread into Lead-In and Lead-Out : No
Fill up missing offset samples with silence : Yes
Delete leading and trailing silent blocks : No
Null samples used in CRC calculations : Yes
Used interface : Native Win32 interface for Win NT & 2000
Gap handling : Appended to previous track
Used output format : User Defined Encoder
Selected bitrate : 1024 kBit/s
Quality : High
Add ID3 tag : No
Command line compressor : N:\Program Files\Exact Audio Copy\Flac\flac.exe
Additional command line options : -8 -V -T "ARTIST=%artist%" -T "TITLE=%title%" -T "ALBUM=%albumtitle%" -T "DATE=%year%" -T "TRACKNUMBER=%tracknr%" -T "GENRE=%genre%" -T "PERFORMER=%albuminterpret%" -T "COMPOSER=%composer%" %haslyrics%--tag-from-file=LYRICS="%lyricsfile%"%haslyrics% -T "ALBUMARTIST=%albumartist%" -T "DISCNUMBER=%cdnumber%" -T "TOTALDISCS=%totalcds%" -T "TOTALTRACKS=%numtracks%" -T "COMMENT=%comment%" %source% -o %dest%
TOC of the extracted CD
Track | Start | Length | Start sector | End sector
---------------------------------------------------------
1 | 0:00.00 | 3:28.43 | 0 | 15642
2 | 3:28.43 | 3:51.16 | 15643 | 32983
3 | 7:19.59 | 3:23.67 | 32984 | 48275
4 | 10:43.51 | 3:17.55 | 48276 | 63105
5 | 14:01.31 | 3:22.05 | 63106 | 78260
6 | 17:23.36 | 3:17.38 | 78261 | 93073
7 | 20:40.74 | 3:21.22 | 93074 | 108170
Track 1
Filename B:\EAC Rips\TWICE\TWICE - PAGE TWO (2016) [FLAC]\01 - CHEER UP.wav
Pre-gap length 0:00:02.00
Peak level 99.9 %
Extraction speed 1.3 X
Track quality 99.8 %
Test CRC 3FE0EF15
Copy CRC 3FE0EF15
Accurately ripped (confidence 4) [AA502531] (AR v2)
Copy OK
Track 2
Filename B:\EAC Rips\TWICE\TWICE - PAGE TWO (2016) [FLAC]\02 - 소중한 사랑.wav
Pre-gap length 0:00:01.25
Peak level 99.9 %
Extraction speed 1.9 X
Track quality 100.0 %
Test CRC 8F2C1BCD
Copy CRC 8F2C1BCD
Accurately ripped (confidence 4) [53A80A7F] (AR v2)
Copy OK
Track 3
Filename B:\EAC Rips\TWICE\TWICE - PAGE TWO (2016) [FLAC]\03 - Touchdown.wav
Pre-gap length 0:00:01.25
Peak level 100.0 %
Extraction speed 2.0 X
Track quality 100.0 %
Test CRC 6172AB16
Copy CRC 6172AB16
Accurately ripped (confidence 4) [222E4508] (AR v2)
Copy OK
Track 4
Filename B:\EAC Rips\TWICE\TWICE - PAGE TWO (2016) [FLAC]\04 - 툭하면 톡.wav
Pre-gap length 0:00:01.25
Peak level 100.0 %
Extraction speed 2.1 X
Track quality 100.0 %
Test CRC 4831644F
Copy CRC 4831644F
Accurately ripped (confidence 3) [1E2CAAAE] (AR v2)
Copy OK
Track 5
Filename B:\EAC Rips\TWICE\TWICE - PAGE TWO (2016) [FLAC]\05 - Woohoo.wav
Pre-gap length 0:00:01.25
Peak level 100.0 %
Extraction speed 2.2 X
Track quality 100.0 %
Test CRC 23645234
Copy CRC 23645234
Accurately ripped (confidence 4) [D794A839] (AR v2)
Copy OK
Track 6
Filename B:\EAC Rips\TWICE\TWICE - PAGE TWO (2016) [FLAC]\06 - Headphone 써.wav
Pre-gap length 0:00:01.25
Peak level 100.0 %
Extraction speed 2.0 X
Track quality 99.9 %
Test CRC 7E34BD2F
Copy CRC 7E34BD2F
Accurately ripped (confidence 4) [69A9B3B6] (AR v2)
Copy OK
Track 7
Filename B:\EAC Rips\TWICE\TWICE - PAGE TWO (2016) [FLAC]\07 - I'm Gonna Be a Star.wav
Pre-gap length 0:00:01.26
Peak level 100.0 %
Extraction speed 2.4 X
Track quality 100.0 %
Test CRC E4CC8EEC
Copy CRC E4CC8EEC
Accurately ripped (confidence 3) [465783BA] (AR v2)
Copy OK
All tracks accurately ripped
No errors occurred
End of status report
---- CUETools DB Plugin V2.1.6
[CTDB TOCID: ZrnTL1tMHMvlmQjjIsNReasYshk-] found
Submit result: ZrnTL1tMHMvlmQjjIsNReasYshk- has been confirmed
Track | CTDB Status
1 | (112/116) Accurately ripped
2 | (112/116) Accurately ripped
3 | (114/116) Accurately ripped
4 | (113/116) Accurately ripped
5 | (113/116) Accurately ripped
6 | (113/116) Accurately ripped
7 | (110/116) Accurately ripped
==== Log checksum B635BA0F81CE15D20402F1006EF93491B90328A41D6F7FB2A395FD1F4611761D ====
.cue
REM GENRE Kpop
REM DATE 2016
REM DISCID 3F05A207
REM COMMENT "ExactAudioCopy v1.3"
PERFORMER "TWICE"
TITLE "PAGE TWO"
REM COMPOSER ""
FILE "01 - CHEER UP.wav" WAVE
TRACK 01 AUDIO
TITLE "CHEER UP"
PERFORMER "TWICE"
REM COMPOSER ""
INDEX 01 00:00:00
TRACK 02 AUDIO
TITLE "... .."
PERFORMER "TWICE"
REM COMPOSER ""
INDEX 00 03:27:24
FILE "02 - ... ...wav" WAVE
INDEX 01 00:00:00
TRACK 03 AUDIO
TITLE "Touchdown"
PERFORMER "TWICE"
REM COMPOSER ""
INDEX 00 03:49:72
FILE "03 - Touchdown.wav" WAVE
INDEX 01 00:00:00
TRACK 04 AUDIO
TITLE "... ."
PERFORMER "TWICE"
REM COMPOSER ""
INDEX 00 03:22:48
FILE "04 - ... ..wav" WAVE
INDEX 01 00:00:00
TRACK 05 AUDIO
TITLE "Woohoo"
PERFORMER "TWICE"
REM COMPOSER ""
INDEX 00 03:16:36
FILE "05 - Woohoo.wav" WAVE
INDEX 01 00:00:00
TRACK 06 AUDIO
TITLE "Headphone ."
PERFORMER "TWICE"
REM COMPOSER ""
INDEX 00 03:20:61
FILE "06 - Headphone ..wav" WAVE
INDEX 01 00:00:00
TRACK 07 AUDIO
TITLE "I'm Gonna Be a Star"
PERFORMER "TWICE"
REM COMPOSER ""
INDEX 00 03:16:18
FILE "07 - I'm Gonna Be a Star.wav" WAVE
INDEX 01 00:00:00
[2016] Twicecoaster: Lane 1
Альбом: Twicecoaster: Lane 1Год выпуска: 2016Издатель: JYP EntertainmentПродолжительность: 22:48
01. "TT" [3:34]02. "1 to 10" [2:56]03. "Ponytail" [3:27]04. "Jelly Jelly" [3:32]05. "Pit-A-Pat" [3:27]06. "Next Page" [2:57]07. "One in a Million"[2:55]
Отчет EAC
Exact Audio Copy V1.1 from 23. June 2015
EAC extraction logfile from 25. October 2016, 21:34
TWICE (트와이스) / TWICEcoaster : LANE 1
Used drive : HL-DT-STDVDRAM GP50NB40 Adapter: 1 ID: 0
Read mode : Secure
Utilize accurate stream : Yes
Defeat audio cache : Yes
Make use of C2 pointers : No
Read offset correction : 6
Overread into Lead-In and Lead-Out : No
Fill up missing offset samples with silence : Yes
Delete leading and trailing silent blocks : No
Null samples used in CRC calculations : Yes
Used interface : Native Win32 interface for Win NT & 2000
Gap handling : Appended to previous track
Used output format : User Defined Encoder
Selected bitrate : 1024 kBit/s
Quality : High
Add ID3 tag : No
Command line compressor : C:\Program Files (x86)\Exact Audio Copy\Flac\flac.exe
Additional command line options : -8 -V -T "ARTIST=%artist%" -T "TITLE=%title%" -T "ALBUM=%albumtitle%" -T "DATE=%year%" -T "TRACKNUMBER=%tracknr%" -T "GENRE=%genre%" -T "PERFORMER=%albuminterpret%" -T "COMPOSER=%composer%" %haslyrics%--tag-from-file=LYRICS="%lyricsfile%"%haslyrics% -T "ALBUMARTIST=%albumartist%" -T "DISCNUMBER=%cdnumber%" -T "TOTALDISCS=%totalcds%" -T "TOTALTRACKS=%numtracks%" -T "COMMENT=%comment%" %source% -o %dest%
TOC of the extracted CD
Track | Start | Length | Start sector | End sector
---------------------------------------------------------
1 | 0:00.00 | 3:34.05 | 0 | 16054
2 | 3:34.05 | 2:56.32 | 16055 | 29286
3 | 6:30.37 | 3:27.27 | 29287 | 44838
4 | 9:57.64 | 3:32.00 | 44839 | 60738
5 | 13:29.64 | 3:27.38 | 60739 | 76301
6 | 16:57.27 | 2:57.41 | 76302 | 89617
7 | 19:54.68 | 2:55.11 | 89618 | 102753
Track 1
Filename Z:\TWICE - TWICEcoaster LANE 1 [EP] (flac)\01 TT.wav
Pre-gap length 0:00:02.00
Peak level 100.0 %
Extraction speed 1.1 X
Track quality 100.0 %
Test CRC 54E5D16F
Copy CRC 54E5D16F
Track not present in AccurateRip database
Copy OK
Track 2
Filename Z:\TWICE - TWICEcoaster LANE 1 [EP] (flac)\02 1 TO 10.wav
Pre-gap length 0:00:01.08
Peak level 100.0 %
Extraction speed 1.2 X
Track quality 100.0 %
Test CRC 2DE0A639
Copy CRC 2DE0A639
Track not present in AccurateRip database
Copy OK
Track 3
Filename Z:\TWICE - TWICEcoaster LANE 1 [EP] (flac)\03 PONYTAIL.wav
Pre-gap length 0:00:01.22
Peak level 100.0 %
Extraction speed 1.3 X
Track quality 100.0 %
Test CRC D0054742
Copy CRC D0054742
Track not present in AccurateRip database
Copy OK
Track 4
Filename Z:\TWICE - TWICEcoaster LANE 1 [EP] (flac)\04 JELLY JELLY.wav
Pre-gap length 0:00:01.17
Peak level 100.0 %
Extraction speed 1.5 X
Track quality 100.0 %
Test CRC 48BAE5B3
Copy CRC 48BAE5B3
Track not present in AccurateRip database
Copy OK
Track 5
Filename Z:\TWICE - TWICEcoaster LANE 1 [EP] (flac)\05 PIT-A-PAT.wav
Pre-gap length 0:00:01.37
Peak level 100.0 %
Extraction speed 1.3 X
Track quality 99.9 %
Test CRC F2C3E6B1
Copy CRC F2C3E6B1
Track not present in AccurateRip database
Copy OK
Track 6
Filename Z:\TWICE - TWICEcoaster LANE 1 [EP] (flac)\06 NEXT PAGE.wav
Peak level 100.0 %
Extraction speed 1.6 X
Track quality 100.0 %
Test CRC 49292A8A
Copy CRC 49292A8A
Track not present in AccurateRip database
Copy OK
Track 7
Filename Z:\TWICE - TWICEcoaster LANE 1 [EP] (flac)\07 ONE IN A MILLION.wav
Pre-gap length 0:00:01.60
Peak level 100.0 %
Extraction speed 1.6 X
Track quality 100.0 %
Test CRC DE234929
Copy CRC DE234929
Track not present in AccurateRip database
Copy OK
None of the tracks are present in the AccurateRip database
No errors occurred
End of status report
---- CUETools DB Plugin V2.1.6
[CTDB TOCID: 9njs04DcnNNbSUe.RiaAgEjnzxk-] found
Submit result: already submitted
Track | CTDB Status
1 | (7/7) Accurately ripped
2 | (7/7) Accurately ripped
3 | (7/7) Accurately ripped
4 | (7/7) Accurately ripped
5 | (7/7) Accurately ripped
6 | (6/7) Accurately ripped
7 | (6/7) Accurately ripped
==== Log checksum 7B9E4BBA128F8530A9DBEDB4B6ED8D9180768B605AE6266626D466C2F63F0A82 ====
.cue
REM DATE 2016
REM DISCID 56055A07
REM COMMENT "ExactAudioCopy v1.1"
PERFORMER "TWICE (Ж®їНАМЅє)"
TITLE "TWICEcoaster : LANE 1 "
FILE "01 TT.wav" WAVE
TRACK 01 AUDIO
TITLE "TT"
PERFORMER "TWICE (Ж®їНАМЅє)"
INDEX 01 00:00:00
TRACK 02 AUDIO
TITLE "1 TO 10"
PERFORMER "TWICE (Ж®їНАМЅє)"
INDEX 00 03:32:74
FILE "02 1 TO 10.wav" WAVE
INDEX 01 00:00:00
TRACK 03 AUDIO
TITLE "PONYTAIL"
PERFORMER "TWICE (Ж®їНАМЅє)"
INDEX 00 02:55:15
FILE "03 PONYTAIL.wav" WAVE
INDEX 01 00:00:00
TRACK 04 AUDIO
TITLE "JELLY JELLY"
PERFORMER "TWICE (Ж®їНАМЅє)"
INDEX 00 03:26:14
FILE "04 JELLY JELLY.wav" WAVE
INDEX 01 00:00:00
TRACK 05 AUDIO
TITLE "PIT-A-PAT"
PERFORMER "TWICE (Ж®їНАМЅє)"
INDEX 00 03:30:47
FILE "05 PIT-A-PAT.wav" WAVE
INDEX 01 00:00:00
FILE "06 NEXT PAGE.wav" WAVE
TRACK 06 AUDIO
TITLE "NEXT PAGE"
PERFORMER "TWICE (Ж®їНАМЅє)"
INDEX 01 00:00:00
TRACK 07 AUDIO
TITLE " ONE IN A MILLION"
PERFORMER "TWICE (Ж®їНАМЅє)"
INDEX 00 02:55:71
FILE "07 ONE IN A MILLION.wav" WAVE
INDEX 01 00:00:00
[2017] Signal
Альбом: SignalГод выпуска: 2017Издатель: JYP EntertainmentПродолжительность: 19:54
01. "Signal" [3:17]02. "Three Times a Day" (하루에 세번; Harue Sebeon) [3:11]03. "Only You" (Only 너; Only Neo) [3:38]04. "Hold Me Tight" [3:19]05. "Eye Eye Eyes" [2:55]06. "Someone Like Me" [3:25]
Отчет EAC
Exact Audio Copy V1.1 from 23. June 2015
EAC extraction logfile from 27. May 2017, 19:22
TWICE / SIGNAL
Used drive : TSSTcorpCDDVDW SH-S223Q Adapter: 1 ID: 1
Read mode : Secure
Utilize accurate stream : Yes
Defeat audio cache : Yes
Make use of C2 pointers : No
Read offset correction : 6
Overread into Lead-In and Lead-Out : No
Fill up missing offset samples with silence : Yes
Delete leading and trailing silent blocks : No
Null samples used in CRC calculations : Yes
Used interface : Native Win32 interface for Win NT & 2000
Gap handling : Appended to previous track
Used output format : User Defined Encoder
Selected bitrate : 1024 kBit/s
Quality : High
Add ID3 tag : No
Command line compressor : C:\Program Files (x86)\Exact Audio Copy\Flac\flac.exe
Additional command line options : -8 -V -T "ARTIST=%artist%" -T "TITLE=%title%" -T "ALBUM=%albumtitle%" -T "DATE=%year%" -T "TRACKNUMBER=%tracknr%" -T "GENRE=%genre%" -T "PERFORMER=%albuminterpret%" -T "COMPOSER=%composer%" %haslyrics%--tag-from-file=LYRICS="%lyricsfile%"%haslyrics% -T "ALBUMARTIST=%albumartist%" -T "DISCNUMBER=%cdnumber%" -T "TOTALDISCS=%totalcds%" -T "TOTALTRACKS=%numtracks%" -T "COMMENT=%comment%" %source% -o %dest%
TOC of the extracted CD
Track | Start | Length | Start sector | End sector
---------------------------------------------------------
1 | 0:00.00 | 3:16.51 | 0 | 14750
2 | 3:16.51 | 3:11.32 | 14751 | 29107
3 | 6:28.08 | 3:38.52 | 29108 | 45509
4 | 10:06.60 | 3:19.31 | 45510 | 60465
5 | 13:26.16 | 2:55.57 | 60466 | 73647
6 | 16:21.73 | 3:25.34 | 73648 | 89056
Track 1
Filename D:\EAC Rips\01 - SIGNAL.wav
Pre-gap length 0:00:02.00
Peak level 100.0 %
Extraction speed 1.6 X
Track quality 100.0 %
Test CRC C3DF27F5
Copy CRC C3DF27F5
Track not present in AccurateRip database
Copy OK
Track 2
Filename D:\EAC Rips\02 - 하루에 세번.wav
Peak level 99.6 %
Extraction speed 1.8 X
Track quality 100.0 %
Test CRC 744D2286
Copy CRC 744D2286
Track not present in AccurateRip database
Copy OK
Track 3
Filename D:\EAC Rips\03 - ONLY 너.wav
Peak level 100.0 %
Extraction speed 1.9 X
Track quality 100.0 %
Test CRC 04854EA7
Copy CRC 04854EA7
Track not present in AccurateRip database
Copy OK
Track 4
Filename D:\EAC Rips\04 - HOLD ME TIGHT.wav
Peak level 100.0 %
Extraction speed 2.1 X
Track quality 100.0 %
Test CRC 30F5AA05
Copy CRC 30F5AA05
Track not present in AccurateRip database
Copy OK
Track 5
Filename D:\EAC Rips\05 - EYE EYE EYES.wav
Peak level 100.0 %
Extraction speed 2.1 X
Track quality 100.0 %
Test CRC 55F3E6BC
Copy CRC 55F3E6BC
Track not present in AccurateRip database
Copy OK
Track 6
Filename D:\EAC Rips\06 - SOMEONE LIKE ME.wav
Peak level 100.0 %
Extraction speed 2.3 X
Track quality 100.0 %
Test CRC 677F4770
Copy CRC 677F4770
Track not present in AccurateRip database
Copy OK
None of the tracks are present in the AccurateRip database
No errors occurred
End of status report
---- CUETools DB Plugin V2.1.6
[CTDB TOCID: CkRHeIZblm2TvB1aUyM70Ov1x3I-] found
Submit result: CkRHeIZblm2TvB1aUyM70Ov1x3I- has been confirmed
Track | CTDB Status
1 | (40/40) Accurately ripped
2 | (40/40) Accurately ripped
3 | (40/40) Accurately ripped
4 | (40/40) Accurately ripped
5 | (40/40) Accurately ripped
6 | (40/40) Accurately ripped
==== Log checksum E60700170949E8CDCA51853F22582E752B53160B365C33D1EF105E24F31A64CE ====
.cue
REM DATE 2017
REM DISCID 5204A306
REM COMMENT "ExactAudioCopy v1.1"
PERFORMER "TWICE"
TITLE "SIGNAL"
FILE "01 - SIGNAL.wav" WAVE
TRACK 01 AUDIO
TITLE "SIGNAL"
PERFORMER "TWICE"
FLAGS DCP
INDEX 01 00:00:00
FILE "02 - ... ...wav" WAVE
TRACK 02 AUDIO
TITLE "... .."
PERFORMER "TWICE"
FLAGS DCP
INDEX 01 00:00:00
FILE "03 - ONLY ..wav" WAVE
TRACK 03 AUDIO
TITLE "ONLY ."
PERFORMER "TWICE"
FLAGS DCP
INDEX 01 00:00:00
FILE "04 - HOLD ME TIGHT.wav" WAVE
TRACK 04 AUDIO
TITLE "HOLD ME TIGHT"
PERFORMER "TWICE"
FLAGS DCP
INDEX 01 00:00:00
FILE "05 - EYE EYE EYES.wav" WAVE
TRACK 05 AUDIO
TITLE "EYE EYE EYES"
PERFORMER "TWICE"
FLAGS DCP
INDEX 01 00:00:00
FILE "06 - SOMEONE LIKE ME.wav" WAVE
TRACK 06 AUDIO
TITLE "SOMEONE LIKE ME"
PERFORMER "TWICE"
FLAGS DCP
INDEX 01 00:00:00
[2018] What Is Love?
Альбом: What Is Love?Год выпуска: 2018Издатель: JYP EntertainmentПродолжительность: 20:06
01. "What Is Love" [3:28]02. "Sweet Talker" [3:27]03. "Ho!" [3:09]04. "Dejavu" [3:16]05. "Say Yes" [3:02]06. "Stuck" [3:28]
Отчет ЕАС
Exact Audio Copy V1.3 from 2. September 2016
EAC extraction logfile from 26. April 2018, 15:29
TWICE / What is Love?
Used drive : HL-DT-STDVDRAM GH24NS95 Adapter: 1 ID: 2
Read mode : Secure
Utilize accurate stream : Yes
Defeat audio cache : Yes
Make use of C2 pointers : No
Read offset correction : 6
Overread into Lead-In and Lead-Out : No
Fill up missing offset samples with silence : Yes
Delete leading and trailing silent blocks : No
Null samples used in CRC calculations : Yes
Used interface : Native Win32 interface for Win NT & 2000
Gap handling : Appended to previous track
Used output format : User Defined Encoder
Selected bitrate : 1024 kBit/s
Quality : High
Add ID3 tag : No
Command line compressor : A:\Program Files\flac-1.3.0\flac.exe
Additional command line options : -8 -e -p -V -T "ARTIST=%artist%" -T "TITLE=%title%" -T "ALBUM=%albumtitle%" -T "DATE=%year%" -T "TRACKNUMBER=%tracknr%" -T "GENRE=%genre%" -T "PERFORMER=%albuminterpret%" -T "COMPOSER=%composer%" %haslyrics%--tag-from-file=LYRICS="%lyricsfile%"%haslyrics% -T "ALBUMARTIST=%albumartist%" -T "DISCNUMBER=%cdnumber%" -T "TOTALDISCS=%totalcds%" -T "TOTALTRACKS=%numtracks%" -T "COMMENT=%comment%" %source% -o %dest%
TOC of the extracted CD
Track | Start | Length | Start sector | End sector
---------------------------------------------------------
1 | 0:00.00 | 3:29.55 | 0 | 15729
2 | 3:29.55 | 3:29.18 | 15730 | 31422
3 | 6:58.73 | 3:10.43 | 31423 | 45715
4 | 10:09.41 | 3:17.70 | 45716 | 60560
5 | 13:27.36 | 3:04.33 | 60561 | 74393
6 | 16:31.69 | 3:35.26 | 74394 | 90544
Track 1
Filename B:\EAC Rips\TWICE\TWICE - What is Love (2018) [FLAC]\01 - What is Love.wav
Pre-gap length 0:00:02.00
Peak level 100.0 %
Extraction speed 1.0 X
Track quality 100.0 %
Test CRC 729F8D88
Copy CRC 729F8D88
Track not present in AccurateRip database
Copy OK
Track 2
Filename B:\EAC Rips\TWICE\TWICE - What is Love (2018) [FLAC]\02 - SWEET TALKER.wav
Pre-gap length 0:00:01.48
Peak level 100.0 %
Extraction speed 1.2 X
Track quality 100.0 %
Test CRC 18ABC3FC
Copy CRC 18ABC3FC
Track not present in AccurateRip database
Copy OK
Track 3
Filename B:\EAC Rips\TWICE\TWICE - What is Love (2018) [FLAC]\03 - HO!.wav
Pre-gap length 0:00:01.48
Peak level 100.0 %
Extraction speed 1.0 X
Track quality 99.9 %
Test CRC 959DF00B
Copy CRC 959DF00B
Track not present in AccurateRip database
Copy OK
Track 4
Filename B:\EAC Rips\TWICE\TWICE - What is Love (2018) [FLAC]\04 - DEJAVU.wav
Pre-gap length 0:00:01.48
Peak level 100.0 %
Extraction speed 1.3 X
Track quality 100.0 %
Test CRC 8D906981
Copy CRC 8D906981
Track not present in AccurateRip database
Copy OK
Track 5
Filename B:\EAC Rips\TWICE\TWICE - What is Love (2018) [FLAC]\05 - SAY YES.wav
Pre-gap length 0:00:01.49
Peak level 100.0 %
Extraction speed 1.4 X
Track quality 100.0 %
Test CRC A9C3AB87
Copy CRC A9C3AB87
Track not present in AccurateRip database
Copy OK
Track 6
Filename B:\EAC Rips\TWICE\TWICE - What is Love (2018) [FLAC]\06 - STUCK.wav
Pre-gap length 0:00:01.48
Peak level 100.0 %
Extraction speed 1.5 X
Track quality 100.0 %
Test CRC 6ED1D8E8
Copy CRC 6ED1D8E8
Track not present in AccurateRip database
Copy OK
None of the tracks are present in the AccurateRip database
No errors occurred
End of status report
---- CUETools DB Plugin V2.1.6
[CTDB TOCID: Rglqbgw7rbYdS4n0BRM0AD7E8DA-] found
Submit result: Rglqbgw7rbYdS4n0BRM0AD7E8DA- has been confirmed
Track | CTDB Status
1 | (62/64) Accurately ripped
2 | (62/64) Accurately ripped
3 | (60/64) Accurately ripped
4 | (62/64) Accurately ripped
5 | (63/64) Accurately ripped
6 | (60/64) Accurately ripped
==== Log checksum AA4EC93AD721473508985F392AF5ADD7C1122C4AA5F7EAA677DDAE056D19E382 ====
.cue
REM GENRE Kpop
REM DATE 2018
REM DISCID 3A04B706
REM COMMENT "ExactAudioCopy v1.3"
PERFORMER "TWICE"
TITLE "What is Love?"
REM COMPOSER ""
FILE "01 - What is Love.wav" WAVE
TRACK 01 AUDIO
TITLE "What is Love?"
PERFORMER "TWICE"
REM COMPOSER ""
INDEX 01 00:00:00
TRACK 02 AUDIO
TITLE "SWEET TALKER"
PERFORMER "TWICE"
REM COMPOSER ""
INDEX 00 03:28:19
FILE "02 - SWEET TALKER.wav" WAVE
INDEX 01 00:00:00
TRACK 03 AUDIO
TITLE "HO!"
PERFORMER "TWICE"
REM COMPOSER ""
INDEX 00 03:27:57
FILE "03 - HO!.wav" WAVE
INDEX 01 00:00:00
TRACK 04 AUDIO
TITLE "DEJAVU"
PERFORMER "TWICE"
REM COMPOSER ""
INDEX 00 03:09:07
FILE "04 - DEJAVU.wav" WAVE
INDEX 01 00:00:00
TRACK 05 AUDIO
TITLE "SAY YES"
PERFORMER "TWICE"
REM COMPOSER ""
INDEX 00 03:16:33
FILE "05 - SAY YES.wav" WAVE
INDEX 01 00:00:00
TRACK 06 AUDIO
TITLE "STUCK"
PERFORMER "TWICE"
REM COMPOSER ""
INDEX 00 03:02:72
FILE "06 - STUCK.wav" WAVE
INDEX 01 00:00:00
[2018] YES or YES
Альбом: YES or YESГод выпуска: 2018Издатель: JYP EntertainmentПродолжительность: 24:02
01. "Yes or Yes" [3:58]02. "Say You Love Me" [3:33]03. "LaLaLa" [3:06]04. "Young & Wild" [3:01]05. "Sunset" [3:43]06. "After Moon" [3:24]07. "BDZ" (Korean ver.) [3:16]
Singles
[2017] One More Time
Альбом: One More TimeГод выпуска: 2017Издатель: Warner Music JapanПродолжительность: 13:04
01. "One More Time" [3:03]02. "Luv Me" [3:29]03. "One More Time" (Instrumental) [3:03]04. "Luv Me" (Instrumental) [3:29]
Отчет EAC
Exact Audio Copy V1.3 from 2. September 2016
EAC extraction logfile from 22. February 2018, 16:05
TWICE (트와이스) / One More Time
Used drive : PLDS DVD-RW DU8A6SH Adapter: 1 ID: 0
Read mode : Secure
Utilize accurate stream : Yes
Defeat audio cache : Yes
Make use of C2 pointers : No
Read offset correction : 6
Overread into Lead-In and Lead-Out : No
Fill up missing offset samples with silence : Yes
Delete leading and trailing silent blocks : No
Null samples used in CRC calculations : Yes
Used interface : Native Win32 interface for Win NT & 2000
Gap handling : Appended to previous track
Used output format : User Defined Encoder
Selected bitrate : 896 kBit/s
Quality : High
Add ID3 tag : No
Command line compressor : C:\Program Files (x86)\Exact Audio Copy\Flac\flac.exe
Additional command line options : -8 -e -p -V -T "ARTIST=%artist%" -T "TITLE=%title%" -T "ALBUM=%albumtitle%" -T "DATE=%year%" -T "TRACKNUMBER=%tracknr%" -T "GENRE=%genre%" -T "PERFORMER=%albuminterpret%" -T "COMPOSER=%composer%" %haslyrics%--tag-from-file=LYRICS="%lyricsfile%"%haslyrics% -T "ALBUMARTIST=%albumartist%" -T "DISCNUMBER=%cdnumber%" -T "TOTALDISCS=%totalcds%" -T "TOTALTRACKS=%numtracks%" -T "COMMENT=%comment%" %source% -o %dest%
TOC of the extracted CD
Track | Start | Length | Start sector | End sector
---------------------------------------------------------
1 | 0:00.00 | 3:04.62 | 0 | 13861
2 | 3:04.62 | 3:32.07 | 13862 | 29768
3 | 6:36.69 | 3:04.62 | 29769 | 43630
4 | 9:41.56 | 3:30.08 | 43631 | 59388
Track 1
Filename C:\Redacted\TWICE (트와이스) - One More Time(2017) [FLAC]\01 - One More Time.wav
Pre-gap length 0:00:02.00
Peak level 99.3 %
Extraction speed 2.0 X
Track quality 100.0 %
Test CRC 3CF90EDC
Copy CRC 3CF90EDC
Accurately ripped (confidence 6) [FAB463A0] (AR v2)
Copy OK
Track 2
Filename C:\Redacted\TWICE (트와이스) - One More Time(2017) [FLAC]\02 - LUV ME.wav
Pre-gap length 0:00:01.00
Peak level 99.8 %
Extraction speed 2.2 X
Track quality 100.0 %
Test CRC A34BB392
Copy CRC A34BB392
Accurately ripped (confidence 5) [59D143AD] (AR v2)
Copy OK
Track 3
Filename C:\Redacted\TWICE (트와이스) - One More Time(2017) [FLAC]\03 - One More Time (Instrumental).wav
Pre-gap length 0:00:02.00
Peak level 99.1 %
Extraction speed 2.4 X
Track quality 100.0 %
Test CRC 7F2F57A4
Copy CRC 7F2F57A4
Accurately ripped (confidence 2) [16501DD4] (AR v2)
Copy OK
Track 4
Filename C:\Redacted\TWICE (트와이스) - One More Time(2017) [FLAC]\04 - LUV ME (Instrumental).wav
Pre-gap length 0:00:00.98
Peak level 99.8 %
Extraction speed 2.6 X
Track quality 100.0 %
Test CRC BC83FE49
Copy CRC BC83FE49
Accurately ripped (confidence 2) [FF6B5D18] (AR v2)
Copy OK
All tracks accurately ripped
No errors occurred
End of status report
---- CUETools DB Plugin V2.1.6
[CTDB TOCID: kbHZwmLiFEGLkpzqy0aHlJ1_8ps-] found
Submit result: kbHZwmLiFEGLkpzqy0aHlJ1_8ps- has been confirmed
Track | CTDB Status
1 | (113/113) Accurately ripped
2 | (113/113) Accurately ripped
3 | (113/113) Accurately ripped
4 | (112/113) Accurately ripped
==== Log checksum EC258BD3AAE7A12DEC5F9B01A2CBFBF88C58C1EBFBE73A990ED33A780E7B05B4 ====
.cue
REM GENRE Kpop
REM DATE 2017
REM DISCID 35031704
REM COMMENT "ExactAudioCopy v1.3"
CATALOG 4943674270781
PERFORMER "TWICE (....)"
TITLE "One More Time"
REM COMPOSER ""
FILE "01 - One More Time.wav" WAVE
TRACK 01 AUDIO
TITLE "One More Time"
PERFORMER "TWICE (....)"
REM COMPOSER ""
ISRC JPWP01771968
INDEX 01 00:00:00
TRACK 02 AUDIO
TITLE "LUV ME"
PERFORMER "TWICE (....)"
REM COMPOSER ""
ISRC JPWP01771969
INDEX 00 03:03:62
FILE "02 - LUV ME.wav" WAVE
INDEX 01 00:00:00
TRACK 03 AUDIO
TITLE "One More Time (Instrumental)"
PERFORMER "TWICE (....)"
REM COMPOSER ""
ISRC JPWP01771970
INDEX 00 03:30:07
FILE "03 - One More Time (Instrumental).wav" WAVE
INDEX 01 00:00:00
TRACK 04 AUDIO
TITLE "LUV ME (Instrumental)"
PERFORMER "TWICE (....)"
REM COMPOSER ""
ISRC JPWP01771971
INDEX 00 03:03:63
FILE "04 - LUV ME (Instrumental).wav" WAVE
INDEX 01 00:00:00
[2018] Candy Pop
Альбом: Candy PopГод выпуска: 2018Издатель: Warner Music JapanПродолжительность: 13:50
01. "Candy Pop" [3:22]02. "Brand New Girl" [3:33]03. "Candy Pop" (Instrumental) [3:22]04. "Brand New Girl" (Instrumental) [3:33]
Отчет EAC
Exact Audio Copy V1.3 from 2. September 2016
EAC extraction logfile from 22. May 2018, 13:03
TWICE / Candy Pop
Used drive : HL-DT-STDVDRAM GT70N Adapter: 1 ID: 0
Read mode : Secure
Utilize accurate stream : Yes
Defeat audio cache : Yes
Make use of C2 pointers : No
Read offset correction : 103
Overread into Lead-In and Lead-Out : No
Fill up missing offset samples with silence : Yes
Delete leading and trailing silent blocks : No
Null samples used in CRC calculations : Yes
Used interface : Native Win32 interface for Win NT & 2000
Gap handling : Appended to previous track
Used output format : User Defined Encoder
Selected bitrate : 1024 kBit/s
Quality : High
Add ID3 tag : No
Command line compressor : C:\Program Files (x86)\Exact Audio Copy\FLAC\FLAC.EXE
Additional command line options : -8 -V -T "ARTIST=%artist%" -T "TITLE=%title%" -T "ALBUM=%albumtitle%" -T "DATE=%year%" -T "TRACKNUMBER=%tracknr%" -T "GENRE=%genre%" -T "COMMENT=%comment%" -T "BAND=%albuminterpret%" -T "ALBUMARTIST=%albuminterpret%" -T "COMPOSER=%composer%" %haslyrics%--tag-from-file=LYRICS="%lyricsfile%"%haslyrics% -T "DISCNUMBER=%cdnumber%" -T "TOTALDISCS=%totalcds%" -T "TOTALTRACKS=%numtracks%" %hascover%--picture="%coverfile%"%hascover% %source% -o %dest%
TOC of the extracted CD
Track | Start | Length | Start sector | End sector
---------------------------------------------------------
1 | 0:00.00 | 3:22.45 | 0 | 15194
2 | 3:22.45 | 3:35.04 | 15195 | 31323
3 | 6:57.49 | 3:22.52 | 31324 | 46525
4 | 10:20.26 | 3:32.42 | 46526 | 62467
Track 1
Filename C:\음악\TWICE - Candy Pop (2018)\01. Candy Pop.wav
Pre-gap length 0:00:02.00
Peak level 100.0 %
Extraction speed 2.8 X
Track quality 100.0 %
Test CRC D21C4174
Copy CRC D21C4174
Accurately ripped (confidence 4) [E0CE6396] (AR v2)
Copy OK
Track 2
Filename C:\음악\TWICE - Candy Pop (2018)\02. BRAND NEW GIRL.wav
Pre-gap length 0:00:01.45
Peak level 100.0 %
Extraction speed 3.0 X
Track quality 100.0 %
Test CRC CC294DC6
Copy CRC CC294DC6
Accurately ripped (confidence 4) [5B901249] (AR v2)
Copy OK
Track 3
Filename C:\음악\TWICE - Candy Pop (2018)\03. Candy Pop (instrumental).wav
Pre-gap length 0:00:02.37
Peak level 100.0 %
Extraction speed 3.2 X
Track quality 100.0 %
Test CRC 832DD83C
Copy CRC 832DD83C
Accurately ripped (confidence 3) [A95100C9] (AR v2)
Copy OK
Track 4
Filename C:\음악\TWICE - Candy Pop (2018)\04. BRAND NEW GIRL (instrumental).wav
Pre-gap length 0:00:01.52
Peak level 100.0 %
Extraction speed 0.9 X
Track quality 100.0 %
Test CRC C010B141
Copy CRC C010B141
Accurately ripped (confidence 3) [C1843F28] (AR v2)
Copy OK
All tracks accurately ripped
No errors occurred
End of status report
---- CUETools DB Plugin V2.1.6
[CTDB TOCID: aso.ZigINDpQLMNa.Jgw.Zc7FdM-] found
Submit result: aso.ZigINDpQLMNa.Jgw.Zc7FdM- has been confirmed
Track | CTDB Status
1 | (88/88) Accurately ripped
2 | (88/88) Accurately ripped
3 | (88/88) Accurately ripped
4 | (83/88) Accurately ripped, or (3/88) differs in 4 samples @03:32:23
==== Log checksum 396577E595E00A431BBC5A24ED36987C01FC03C74421D9A6FE0D1ED753125AB6 ====
.cue
REM DATE 2018
REM DISCID 20034004
REM COMMENT "ExactAudioCopy v1.3"
PERFORMER "TWICE"
TITLE "Candy Pop"
REM COMPOSER ""
FILE "01. Candy Pop.wav" WAVE
TRACK 01 AUDIO
TITLE "Candy Pop"
PERFORMER "TWICE"
REM COMPOSER ""
INDEX 01 00:00:00
TRACK 02 AUDIO
TITLE "BRAND NEW GIRL"
PERFORMER "TWICE"
REM COMPOSER ""
INDEX 00 03:21:00
FILE "02. BRAND NEW GIRL.wav" WAVE
INDEX 01 00:00:00
TRACK 03 AUDIO
TITLE "Candy Pop (instrumental)"
PERFORMER "TWICE"
REM COMPOSER ""
INDEX 00 03:32:42
FILE "03. Candy Pop (instrumental).wav" WAVE
INDEX 01 00:00:00
TRACK 04 AUDIO
TITLE "BRAND NEW GIRL (instrumental)"
PERFORMER "TWICE"
REM COMPOSER ""
INDEX 00 03:21:00
FILE "04. BRAND NEW GIRL (instrumental).wav" WAVE
INDEX 01 00:00:00
[2018] Wake Me Up
Альбом: Wake Me UpГод выпуска: 2018Издатель: Warner Music JapanПродолжительность: 14:22
01. "Wake Me Up" [3:31]02. "Pink Lemonade" [3:40]03. "Wake Me Up" (Instrumental) [3:31]04. "Pink Lemonade" (Instrumental) [3:40]
Отчет ЕАС
Exact Audio Copy V1.3 from 2. September 2016
EAC extraction logfile from 30. May 2018, 20:22
트와이스 (TWICE) / Wake Me Up
Used drive : HL-DT-STBDDVDRW CH12LS28 Adapter: 1 ID: 0
Read mode : Secure
Utilize accurate stream : Yes
Defeat audio cache : Yes
Make use of C2 pointers : No
Read offset correction : 667
Overread into Lead-In and Lead-Out : No
Fill up missing offset samples with silence : Yes
Delete leading and trailing silent blocks : No
Null samples used in CRC calculations : Yes
Used interface : Native Win32 interface for Win NT & 2000
Gap handling : Appended to previous track
Used output format : User Defined Encoder
Selected bitrate : 1024 kBit/s
Quality : High
Add ID3 tag : No
Command line compressor : C:\Program Files (x86)\Exact Audio Copy\Flac\flac.exe
Additional command line options : -8 -e -p -V -T "ARTIST=%artist%" -T "TITLE=%title%" -T "ALBUM=%albumtitle%" -T "DATE=%year%" -T "TRACKNUMBER=%tracknr%" -T "GENRE=%genre%" -T "PERFORMER=%albuminterpret%" -T "COMPOSER=%composer%" %haslyrics%--tag-from-file=LYRICS="%lyricsfile%"%haslyrics% -T "ALBUMARTIST=%albumartist%" -T "DISCNUMBER=%cdnumber%" -T "TOTALDISCS=%totalcds%" -T "TOTALTRACKS=%numtracks%" -T "COMMENT=%comment%" %source% -o %dest%
TOC of the extracted CD
Track | Start | Length | Start sector | End sector
---------------------------------------------------------
1 | 0:00.00 | 3:33.74 | 0 | 16048
2 | 3:33.74 | 3:42.28 | 16049 | 32726
3 | 7:16.27 | 3:33.74 | 32727 | 48775
4 | 10:50.26 | 3:40.16 | 48776 | 65291
Track 1
Filename D:\Music Loseless\TWICE (트와이스) - Wake Me Up (2018) [FLAC]\01 - Wake Me Up.wav
Pre-gap length 0:00:02.00
Peak level 99.8 %
Extraction speed 1.2 X
Track quality 100.0 %
Test CRC 4ECD298D
Copy CRC 4ECD298D
Track not present in AccurateRip database
Copy OK
Track 2
Filename D:\Music Loseless\TWICE (트와이스) - Wake Me Up (2018) [FLAC]\02 - Pink Lemonade.wav
Pre-gap length 0:00:01.68
Peak level 99.8 %
Extraction speed 1.3 X
Track quality 100.0 %
Test CRC CB9350FE
Copy CRC CB9350FE
Track not present in AccurateRip database
Copy OK
Track 3
Filename D:\Music Loseless\TWICE (트와이스) - Wake Me Up (2018) [FLAC]\03 - Wake Me Up (instrumental).wav
Pre-gap length 0:00:02.17
Peak level 99.8 %
Extraction speed 1.4 X
Track quality 100.0 %
Test CRC 1128C9A1
Copy CRC 1128C9A1
Track not present in AccurateRip database
Copy OK
Track 4
Filename D:\Music Loseless\TWICE (트와이스) - Wake Me Up (2018) [FLAC]\04 - Pink Lemonade (instrumental).wav
Pre-gap length 0:00:01.68
Peak level 99.8 %
Extraction speed 1.6 X
Track quality 100.0 %
Test CRC 6D04DC81
Copy CRC 6D04DC81
Track not present in AccurateRip database
Copy OK
None of the tracks are present in the AccurateRip database
No errors occurred
End of status report
---- CUETools DB Plugin V2.1.6
[CTDB TOCID: lQWxXz8KaaSNI249E2FHI32C4cI-] found
Submit result: lQWxXz8KaaSNI249E2FHI32C4cI- has been confirmed
Track | CTDB Status
1 | (40/40) Accurately ripped
2 | (40/40) Accurately ripped
3 | (40/40) Accurately ripped
4 | (40/40) Accurately ripped
==== Log checksum 4D79FD9C104997879478206B5A489895852E32CB04300E519366E8BE888BE90A ====
.cue
REM GENRE Pop
REM DATE 2018
REM DISCID 26036604
REM COMMENT "ExactAudioCopy v1.3"
CATALOG 4943674279968
PERFORMER ".... (TWICE)"
TITLE "Wake Me Up"
REM COMPOSER ""
FILE "01 - Wake Me Up.wav" WAVE
TRACK 01 AUDIO
TITLE "Wake Me Up"
PERFORMER ".... (TWICE)"
REM COMPOSER ""
ISRC JPWP01870357
INDEX 01 00:00:00
TRACK 02 AUDIO
TITLE "Pink Lemonade"
PERFORMER ".... (TWICE)"
REM COMPOSER ""
ISRC JPWP01870358
INDEX 00 03:32:23
FILE "02 - Pink Lemonade.wav" WAVE
INDEX 01 00:00:00
TRACK 03 AUDIO
TITLE "Wake Me Up (instrumental)"
PERFORMER ".... (TWICE)"
REM COMPOSER ""
ISRC JPWP01870359
INDEX 00 03:40:15
FILE "03 - Wake Me Up (instrumental).wav" WAVE
INDEX 01 00:00:00
TRACK 04 AUDIO
TITLE "Pink Lemonade (instrumental)"
PERFORMER ".... (TWICE)"
REM COMPOSER ""
ISRC JPWP01870360
INDEX 00 03:32:23
FILE "04 - Pink Lemonade (instrumental).wav" WAVE
INDEX 01 00:00:00
Зарегистрирован:
  • 19-Ноя-18 18:25
  • Скачан: 73 раза

Скачать .torrent

30 KB

Тип: обычная
Статус: проверено
Размер: 3.06 GB  ·  magnetC4646B446E51B4BA399CE5E926F11A6F0BC811E7
  • Свернуть поддиректории
  • Развернуть
  • Переключить
  • Увел./умен. окно
загружается...

MiKura.Self

Стаж: 7 лет 2 месяца

Сообщений: 429

MiKura.Self · 08-Фев-18 02:57 (спустя 6 мин., ред. 19-Ноя-18 19:32)

Огромное спасибо пользователю Senor Peligro за предоставленные релизы.
Логи YES or YES
Отчет EAC
Exact Audio Copy V1.3 from 2. September 2016
EAC extraction logfile from 14. November 2018, 21:23
TWICE / YES or YES
Used drive : HL-DT-STDVDRAM GH24NS95 Adapter: 1 ID: 2
Read mode : Secure
Utilize accurate stream : Yes
Defeat audio cache : Yes
Make use of C2 pointers : No
Read offset correction : 6
Overread into Lead-In and Lead-Out : No
Fill up missing offset samples with silence : Yes
Delete leading and trailing silent blocks : No
Null samples used in CRC calculations : Yes
Used interface : Native Win32 interface for Win NT & 2000
Gap handling : Appended to previous track
Used output format : User Defined Encoder
Selected bitrate : 1024 kBit/s
Quality : High
Add ID3 tag : No
Command line compressor : A:\Program Files\flac-1.3.0\flac.exe
Additional command line options : -8 -e -p -V -T "ARTIST=%artist%" -T "TITLE=%title%" -T "ALBUM=%albumtitle%" -T "DATE=%year%" -T "TRACKNUMBER=%tracknr%" -T "GENRE=%genre%" -T "PERFORMER=%albuminterpret%" -T "COMPOSER=%composer%" %haslyrics%--tag-from-file=LYRICS="%lyricsfile%"%haslyrics% -T "ALBUMARTIST=%albumartist%" -T "DISCNUMBER=%cdnumber%" -T "TOTALDISCS=%totalcds%" -T "TOTALTRACKS=%numtracks%" -T "COMMENT=%comment%" %source% -o %dest%
TOC of the extracted CD
Track | Start | Length | Start sector | End sector
---------------------------------------------------------
1 | 0:00.00 | 3:58.55 | 0 | 17904
2 | 3:58.55 | 3:33.68 | 17905 | 33947
3 | 7:32.48 | 3:07.25 | 33948 | 47997
4 | 10:39.73 | 3:02.18 | 47998 | 61665
5 | 13:42.16 | 3:43.44 | 61666 | 78434
6 | 17:25.60 | 3:24.68 | 78435 | 93802
7 | 20:50.53 | 3:16.25 | 93803 | 108527
Track 1
Filename B:\EAC Rips\TWICE\TWICE - YES or YES (2018) {JYPK1039}\01 - YES or YES.wav
Pre-gap length 0:00:02.00
Peak level 100.0 %
Extraction speed 0.9 X
Track quality 99.9 %
Test CRC 6C3CBAF8
Copy CRC 6C3CBAF8
Accurately ripped (confidence 1) [26AF3199] (AR v2)
Copy OK
Track 2
Filename B:\EAC Rips\TWICE\TWICE - YES or YES (2018) {JYPK1039}\02 - SAY YOU LOVE ME.wav
Pre-gap length 0:00:01.02
Peak level 100.0 %
Extraction speed 1.1 X
Track quality 100.0 %
Test CRC 7C9224B4
Copy CRC 7C9224B4
Accurately ripped (confidence 1) [19D9C85F] (AR v2)
Copy OK
Track 3
Filename B:\EAC Rips\TWICE\TWICE - YES or YES (2018) {JYPK1039}\03 - LALALA.wav
Pre-gap length 0:00:01.02
Peak level 100.0 %
Extraction speed 1.2 X
Track quality 100.0 %
Test CRC 8C71825C
Copy CRC 8C71825C
Accurately ripped (confidence 2) [A8EC1354] (AR v2)
Copy OK
Track 4
Filename B:\EAC Rips\TWICE\TWICE - YES or YES (2018) {JYPK1039}\04 - YOUNG & WILD.wav
Pre-gap length 0:00:01.02
Peak level 100.0 %
Extraction speed 1.1 X
Track quality 99.9 %
Test CRC B92F96C3
Copy CRC B92F96C3
Accurately ripped (confidence 2) [D56AEA73] (AR v2)
Copy OK
Track 5
Filename B:\EAC Rips\TWICE\TWICE - YES or YES (2018) {JYPK1039}\05 - SUNSET.wav
Pre-gap length 0:00:01.02
Peak level 100.0 %
Extraction speed 1.4 X
Track quality 100.0 %
Test CRC C0AC96A3
Copy CRC C0AC96A3
Accurately ripped (confidence 2) [4E77FB95] (AR v2)
Copy OK
Track 6
Filename B:\EAC Rips\TWICE\TWICE - YES or YES (2018) {JYPK1039}\06 - AFTER MOON.wav
Pre-gap length 0:00:01.02
Peak level 100.0 %
Extraction speed 1.5 X
Track quality 100.0 %
Test CRC EF9083C3
Copy CRC EF9083C3
Accurately ripped (confidence 1) [61C93A9E] (AR v2)
Copy OK
Track 7
Filename B:\EAC Rips\TWICE\TWICE - YES or YES (2018) {JYPK1039}\07 - BDZ (Korean ver.).wav
Pre-gap length 0:00:01.02
Peak level 100.0 %
Extraction speed 1.5 X
Track quality 100.0 %
Test CRC A48F2C3F
Copy CRC A48F2C3F
Accurately ripped (confidence 2) [7E7BECD8] (AR v2)
Copy OK
All tracks accurately ripped
No errors occurred
End of status report
---- CUETools DB Plugin V2.1.6
[CTDB TOCID: q5PATY3dDEZE9G6fGwnSv45ME4c-] found
Submit result: q5PATY3dDEZE9G6fGwnSv45ME4c- has been confirmed
Track | CTDB Status
1 | (28/28) Accurately ripped
2 | (28/28) Accurately ripped
3 | (27/28) Accurately ripped
4 | (28/28) Accurately ripped
5 | (28/28) Accurately ripped
6 | (28/28) Accurately ripped
7 | (28/28) Accurately ripped
==== Log checksum FA1CD111577D7E3D1F1DD4700BEE054EC42F798F40C64950A9A137211A83DDB8 ====
.cue
REM GENRE Kpop
REM DATE 2018
REM DISCID 4405A707
REM COMMENT "ExactAudioCopy v1.3"
PERFORMER "TWICE"
TITLE "YES or YES"
REM COMPOSER ""
FILE "01 - YES or YES.wav" WAVE
TRACK 01 AUDIO
TITLE "YES or YES"
PERFORMER "TWICE"
REM COMPOSER ""
INDEX 01 00:00:00
TRACK 02 AUDIO
TITLE "SAY YOU LOVE ME"
PERFORMER "TWICE"
REM COMPOSER ""
INDEX 00 03:57:53
FILE "02 - SAY YOU LOVE ME.wav" WAVE
INDEX 01 00:00:00
TRACK 03 AUDIO
TITLE "LALALA"
PERFORMER "TWICE"
REM COMPOSER ""
INDEX 00 03:32:66
FILE "03 - LALALA.wav" WAVE
INDEX 01 00:00:00
TRACK 04 AUDIO
TITLE "YOUNG & WILD"
PERFORMER "TWICE"
REM COMPOSER ""
INDEX 00 03:06:23
FILE "04 - YOUNG & WILD.wav" WAVE
INDEX 01 00:00:00
TRACK 05 AUDIO
TITLE "SUNSET"
PERFORMER "TWICE"
REM COMPOSER ""
INDEX 00 03:01:16
FILE "05 - SUNSET.wav" WAVE
INDEX 01 00:00:00
TRACK 06 AUDIO
TITLE "AFTER MOON"
PERFORMER "TWICE"
REM COMPOSER ""
INDEX 00 03:42:42
FILE "06 - AFTER MOON.wav" WAVE
INDEX 01 00:00:00
TRACK 07 AUDIO
TITLE "BDZ (Korean ver.)"
PERFORMER "TWICE"
REM COMPOSER ""
INDEX 00 03:23:66
FILE "07 - BDZ (Korean ver.).wav" WAVE
INDEX 01 00:00:00

YurikRecords

Стаж: 10 лет 1 месяц

Сообщений: 32

flag

YurikRecords · 10-Фев-18 02:07 (спустя 1 день 23 часа)

Вот это JYP даёт. За 2 года существования у Twice дискография почти как за 5 лет SNSD.

Luaine

Moderator

Стаж: 10 лет 9 месяцев

Сообщений: 5276

Luaine · 10-Фев-18 14:34 (спустя 12 часов)

Требования к оформлению раздачи писал(а):
4.9 Разрешение обложки диска в описании раздачи должно находиться в пределах от 500x500 до 200x200 пикселей (допускается превышение размера по одной из сторон, при условии сохранения общей площади изображения не более 250000). Размер файла обложки при этом не должен превышать 500 Kb.
Уменьшите, пожалуйста, фото в оформлении до размера, не превышающего 500 х 500 px.

Luaine

Moderator

Стаж: 10 лет 9 месяцев

Сообщений: 5276

Luaine · 10-Фев-18 19:47 (спустя 5 часов)

Частично отсутствуют логи извлечения.
# Сомнительно

Критерии присвоения статуса "сомнительно" раздачам в музыкальных разделах

MiKura.Self

Стаж: 7 лет 2 месяца

Сообщений: 429

MiKura.Self · 02-Мар-18 02:28 (спустя 19 дней, ред. 02-Мар-18 02:28)

Заменены релизы:
Merry & Happy
Signal
Сandy Pop
Логи присутствуют.
One More Time заменен лучшим рипом.

Luaine

Moderator

Стаж: 10 лет 9 месяцев

Сообщений: 5276

Luaine · 04-Мар-18 15:24 (спустя 2 дня 12 часов)

Candy Pop:
Цитата:
Read offset correction : 0

# Сомнительно

Критерии присвоения статуса "сомнительно" раздачам в музыкальных разделах

XXKPLXX

Стаж: 1 год 8 месяцев

Сообщений: 225

XXKPLXX · 28-Апр-18 19:06 (спустя 1 месяц 24 дня)

нужно больше сидов
TWICE MV
https://www.youtube.com/playlist?list=PL_RLD6En_fuMn0aYPwTztTZLk1dvbSFtp

hgffgh

Стаж: 8 лет 6 месяцев

Сообщений: 4

hgffgh · 29-Май-18 22:10 (спустя 1 месяц 1 день, ред. 30-Май-18 14:52)

найс скорость хост
ясно...

MiKura.Self

Стаж: 7 лет 2 месяца

Сообщений: 429

MiKura.Self · 30-Май-18 00:17 (спустя 2 часа 7 мин.)

Заменены релизы:
Candy Pop [2018]
Добавлены релизы:
What Is Love [2018]
Wake Me Up [2018] (пока без логов)

MiKura.Self

Стаж: 7 лет 2 месяца

Сообщений: 429

MiKura.Self · 07-Июн-18 03:50 (спустя 8 дней, ред. 07-Июн-18 03:50)

Добавлен Wake Me Up [2018] с логами.

yottapc

Стаж: 5 месяцев 26 дней

Сообщений: 133

flag

yottapc · 09-Сен-18 18:08 (спустя 3 месяца 2 дня)

ONCE+ONCE заспойлили новый альбом https://www.youtube.com/watch?v=v6TfySmEI4I
как на трекере запрещены сторонние ссылки,
так в России запрещены сторонние трекеры.

MiKura.Self

Стаж: 7 лет 2 месяца

Сообщений: 429

MiKura.Self · 17-Сен-18 08:11 (спустя 7 дней, ред. 19-Сен-18 00:16)

Для тех кто ждет:
Новый альбом в сети есть уже, но только WEB.
Обновлю когда появится CD релизы BDZ и Summer Nights.

yottapc

Стаж: 5 месяцев 26 дней

Сообщений: 133

flag

yottapc · 18-Сен-18 01:59 (спустя 17 часов, ред. 18-Сен-18 01:59)

MiKura.Self если это WEB то можно выложить с логом aucdtect указав что это WEB.
WEB обычно лучше качеством чем CD т.к. не записывались и не рипались с CD.
Может быть EAC и умеет читать lossless, но кто его знает как они там записывают/штампуют.
как на трекере запрещены сторонние ссылки,
так в России запрещены сторонние трекеры.

MiKura.Self

Стаж: 7 лет 2 месяца

Сообщений: 429

MiKura.Self · 29-Окт-18 00:35 (спустя 1 месяц 10 дней, ред. 29-Окт-18 00:35)

Обновлено:
Summer Nights
BDZ

KASIM123

Стаж: 8 лет 2 месяца

Сообщений: 3


KASIM123 · 31-Окт-18 18:12 (спустя 2 дня 17 часов)

Встаньте на раздачу, пожалуйста

yottapc

Стаж: 5 месяцев 26 дней

Сообщений: 133

flag

yottapc · 01-Ноя-18 17:21 (спустя 23 часа)

KASIM123
кто успел тот и съел. никто не хочет брать грех на душу занимаясь пиратством.
как на трекере запрещены сторонние ссылки,
так в России запрещены сторонние трекеры.

MiKura.Self

Стаж: 7 лет 2 месяца

Сообщений: 429

MiKura.Self · 01-Ноя-18 19:38 (спустя 2 часа 16 мин.)

Извиняюсь, сейчас только заметил, что ушло 520 мб и раздача встала.
Никто не может приконектится ко мне что-то.
Починим, потерпите.

Poppy619

Стаж: 28 дней

Сообщений: 2

flag

Poppy619 · 19-Ноя-18 08:51 (спустя 17 дней, ред. 19-Ноя-18 08:51)

MiKura.Self писал(а):
76239873Извиняюсь, сейчас только заметил, что ушло 520 мб и раздача встала.
Никто не может приконектится ко мне что-то.
Починим, потерпите.
Загрузите yes or yes CD-альбом
Загрузите yes or yes twice album

MiKura.Self

Стаж: 7 лет 2 месяца

Сообщений: 429

MiKura.Self · 19-Ноя-18 19:33 (спустя 10 часов, ред. 19-Ноя-18 19:33)

Обновлено:
YES or YES
Логи тут

Poppy619

Стаж: 28 дней

Сообщений: 2

flag

Poppy619 · 20-Ноя-18 15:29 (спустя 19 часов)

Большое спасибо
 
All rights reserved © 2017-2018
Loading...
Error