Ты назови... / Adını Sen Koy / Сезон 2 / Серии: 91-120 (271-300) (??) (Гюль Гюзелькая, Гулизар Ватанлар / Gül Güzelkaya, Gülizar Vatanlar) [2018, Турция, Мелодрама, WEBRip (720p)] Rus Sub

Статистика раздачи
Размер:  7.98 GB   |   Зарегистрирован:  8 месяцев   |   .torrent скачан:  338 раз
Сиды:  1   Личи:  1
Автор
Сообщение

oasisoasis10

Стаж: 7 лет 2 месяца

Сообщений: 2826

flag

oasisoasis10 · 08-Фев-18 23:42 (9 месяцев назад, ред. 11-Мар-18 08:38)

 

Ты назови... / Adını Sen Koy
Год выпуска: 2018
Страна: Турция
Производство: Karamel Yapim
Жанр: Мелодрама
Серии (количество): 91-120 (271-300) (??)
Продолжительность: ~ 01:00:00 / каждая серия
Субтитры: Русские ★ TURK STAR
Режиссёр: Гюль Гюзелькая, Гулизар Ватанлар / Gül Güzelkaya, Gülizar Vatanlar
В ролях: Эркан Мерич / Erkan Meriç – Омер Керванджиоглу
Хазал Субаши / Hazal Subaşı – Зехра Кайя
Эзги Баран / Ezgi Baran – Алев
Япрак Дурмаз / Yaprak Durmaz – Айше
Айкут Ийдели / Aykut İğdeli – Нихат
Нур Сачбукер / Nur Saçbüker – Севим
Мусаб Экиджи / Musab Ekici – Йенер
Али Чобан / Ali Çoban – Селим
Умут Аксой / Umut Aksoy – Демир
Фатма Каранфил / Fatma Karanfil – Мюзеййен
Элиф Таш / Elif Taş – Ясемин
Описание: "Ты назови" - турецкий сериал, актеры которого воплотили в жизнь очередную историю Золушки. Главная героиня - Зехра. Девушка из бедной семьи ежедневно сталкивается с сотней проблем. Одна из таких неприятностей послужила причиной ее знакомства с богатым бизнесменом Омером. Встреча оказалась не из приятных и не сулила никакого продолжения. К тому же что может быть общего у персонажей из таких разных миров.
Неожиданно Омер узнает, что у его любимой сестренки Айше случился рецидив рака мозга. По прогнозам врача, девушке осталось жить не более полугода. Единственное, что может продлить ее дни и улучшить самочувствие, - положительные эмоции и счастливые события. Неудивительно, что Омер готов на все, чтобы обрадовать сестру.
Судьба снова сведет Омера и Зехру в офисе бизнесмена, когда та придет устраиваться на работу. Заметив брата вместе с девушкой, Айше решит, что это его возлюбленная, и будет настаивать на том, что брату необходимо жениться. Будучи неспособным расстроить сестру, Омер решается на авантюру. Он решает заключить с Зехрой фиктивный брак. Девушка получает деньги, которые так нужны на лечение ее больного отца, а Омер становится женатым и счастливым мужчиной в глазах сестры. Что же будет дальше?
Качество: WEBRip (720р)
Формат: MP4
Видео кодек: H.264
Аудио кодек: AAC
Видео: MPEG4 Video (H264) 1278x720 25fps 946kbps
Аудио: 44100Hz stereo 125kbps
Реклама:
Отсутствует
MI
General
Complete name : K:\Ty.nazovi.s02.e271-300.rus.sub.2017-2018.WEBRip720p\Ty.nazovi.s02.e271.2018.rus.sub.WEBRip720p.MP4
Format : MPEG-4
Format profile : Base Media / Version 2
Codec ID : mp42 (isom/mp42)
File size : 283 MiB
Duration : 58 min 36 s
Overall bit rate mode : Variable
Overall bit rate : 675 kb/s
Encoded date : UTC 2018-01-30 04:46:37
Tagged date : UTC 2018-01-30 04:46:37
gsst : 0
gstd : 3516615
Video
ID : 1
Format : AVC
Format/Info : Advanced Video Codec
Format profile : Main@L3.1
Format settings, CABAC : Yes
Format settings, ReFrames : 3 frames
Codec ID : avc1
Codec ID/Info : Advanced Video Coding
Duration : 58 min 36 s
Bit rate : 546 kb/s
Width : 1 278 pixels
Height : 720 pixels
Display aspect ratio : 16:9
Frame rate mode : Constant
Frame rate : 25.000 FPS
Color space : YUV
Chroma subsampling : 4:2:0
Bit depth : 8 bits
Scan type : Progressive
Bits/(Pixel*Frame) : 0.024
Stream size : 229 MiB (81%)
Title : ISO Media file produced by Google Inc. Created on: 01/29/2018.
Encoded date : UTC 2018-01-30 04:46:37
Tagged date : UTC 2018-01-30 04:46:37
Audio
ID : 2
Format : AAC
Format/Info : Advanced Audio Codec
Format profile : LC
Codec ID : 40
Duration : 58 min 36 s
Bit rate mode : Variable
Bit rate : 126 kb/s
Channel(s) : 2 channels
Channel positions : Front: L R
Sampling rate : 44.1 kHz
Frame rate : 43.066 FPS (1024 spf)
Compression mode : Lossy
Stream size : 52.6 MiB (19%)
Title : ISO Media file produced by Google Inc. Created on: 01/29/2018.
Encoded date : UTC 2018-01-30 04:46:37
Tagged date : UTC 2018-01-30 04:46:37
Скриншоты
Предыдущие и альтернативные раздачи
Зарегистрирован:
  • 11-Мар-18 08:38
  • Скачан: 338 раз

Скачать .torrent

22 KB

Тип: обычная
Статус: проверено
Размер: 7.98 GB  ·  magnet2E12CE69283CD6EA4B1CF1B7EAFA1774CE8642DA
  • Свернуть поддиректории
  • Развернуть
  • Переключить
  • Увел./умен. окно
загружается...

oasisoasis10

Стаж: 7 лет 2 месяца

Сообщений: 2826

flag

oasisoasis10 · 10-Фев-18 09:46 (спустя 1 день 10 часов, ред. 10-Фев-18 09:46)

Я его не брошу, потому что он хороший!!!
279-280 серии)

sha277

Стаж: 3 года 7 месяцев

Сообщений: 301

flag

sha277 · 14-Фев-18 23:04 (спустя 4 дня)

С уважением и благодарностью за новые серии любимого сериала и за Ваш большущий труд!!!

1Vitalik1

Стаж: 10 лет 3 месяца

Сообщений: 3

flag

1Vitalik1 · 17-Фев-18 23:20 (спустя 3 дня)

Сколько всего серий в этом сериале?

Strоng-willed

Стаж: 3 года 11 месяцев

Сообщений: 881

flag

Strоng-willed · 18-Фев-18 16:58 (спустя 17 часов)

oasisoasis10 писал(а):
74799724281-282 серии
СПАСИБИЩЕ!!! КЛАССНЫЙ СЕРИАЛ ОКАЗАЛСЯ!!!

Strоng-willed

Стаж: 3 года 11 месяцев

Сообщений: 881

flag

Strоng-willed · 24-Фев-18 21:34 (спустя 6 дней)

oasisoasis10 писал(а):
74838834Добавил 4 серии!
oasisoasis10 писал(а):
74865575287-290 серии

Strоng-willed

Стаж: 3 года 11 месяцев

Сообщений: 881

flag

Strоng-willed · 03-Мар-18 21:01 (спустя 6 дней)

oasisoasis10 писал(а):
749063785 новых серий)
Ну ты - молодец!!! Отличный сериал!

sha277

Стаж: 3 года 7 месяцев

Сообщений: 301

flag

sha277 · 03-Мар-18 22:51 (спустя 1 час 50 мин.)

Низкий поклон за труд, за новые серии замечательного сериала! С благодарностью!

Marinakene1974

Стаж: 8 лет 5 месяцев

Сообщений: 200

flag

Marinakene1974 · 04-Мар-18 20:44 (спустя 21 час)

Как хорошо начинался сериал, а сейчас смотрю по инерции. Но раздающему СПАСИБО)))

Strоng-willed

Стаж: 3 года 11 месяцев

Сообщений: 881

flag

Strоng-willed · 11-Мар-18 12:33 (спустя 6 дней)

oasisoasis10 писал(а):
74959829296-300
Спасибо!
Marinakene1974 писал(а):
74916606Как хорошо начинался сериал, а сейчас смотрю по инерции.
А я уж и не помню с чего он вообще начался!)))

Marinakene1974

Стаж: 8 лет 5 месяцев

Сообщений: 200

flag

Marinakene1974 · 11-Мар-18 21:21 (спустя 8 часов)

Самый длинный и платонический сериал)))

oasisoasis10

Стаж: 7 лет 2 месяца

Сообщений: 2826

flag

oasisoasis10 · 17-Мар-18 12:34 (спустя 5 дней)

Смотрим продолжение здесь: http://GOSTRACKER.XYZ/viewtopic.php?t=5535415
 
All rights reserved © 2017-2018
Loading...
Error