(Hard Rock) [CD] Ammunition - Ammunition - 2018, FLAC (tracks+.cue), lossless

Статистика раздачи
Размер:  288.3 MB   |   Зарегистрирован:  9 месяцев   |   .torrent скачан:  564 раза
Сиды:  2   Личи:  1
Автор
Сообщение

AlexSF59

Стаж: 7 лет 9 месяцев

Сообщений: 384

flag

AlexSF59 · 11-Фев-18 14:15 (9 месяцев назад, ред. 12-Фев-18 17:27)

 

Ammunition / Ammunition
Жанр: Hard Rock
Носитель: CD
Страна-производитель диска (релиза): Пиратка
Год издания: 2018
Издатель (лейбл): Frontiers
Номер по каталогу: FR CD 841
Страна исполнителя (группы): Norway
Аудиокодек: FLAC (*.flac)
Тип рипа: tracks+.cue
Битрейт аудио: lossless
Продолжительность: 37:22
Источник (релизер): Свой рип
Наличие сканов в содержимом раздачи: да
Треклист:
01. Time 3:09
02. Freedom Finder 3:10
03. Virtual Reality Boy 3:36
04. Gung Ho (I Told You So) 2:58
05. Eye For An Eye 3:47
06. Tear Your City Down 4:03
07. Caveman 3:09
08. Wrecking Crew 3:03
09. Miss Summertime 3:43
10. Bad Bones 3:16
11. Klondike 3:37
Лог создания рипа
Exact Audio Copy V1.0 beta 3 from 29. August 2011
EAC extraction logfile from 10. February 2018, 21:04
Ammunition / Ammunition
Used drive : HL-DT-STDVDRAM GH24NSB0 Adapter: 0 ID: 0
Read mode : Secure
Utilize accurate stream : Yes
Defeat audio cache : Yes
Make use of C2 pointers : No
Read offset correction : 6
Overread into Lead-In and Lead-Out : No
Fill up missing offset samples with silence : Yes
Delete leading and trailing silent blocks : No
Null samples used in CRC calculations : Yes
Used interface : Native Win32 interface for Win NT & 2000
Gap handling : Appended to previous track
Used output format : User Defined Encoder
Selected bitrate : 128 kBit/s
Quality : High
Add ID3 tag : No
Command line compressor : C:\Users\Alex\Desktop\EAC_1.0_beta_3_Portable_Multilingual\App\EAC\FLAC\flac.exe
Additional command line options : -V -8 -T "Genre=%genre%" -T "Artist=%artist%" -T "Title=%title%" -T "Album=%albumtitle%" -T "Date=%year%" -T "Tracknumber=%tracknr%" -T "Comment=%comment%" %source%
TOC of the extracted CD
Track | Start | Length | Start sector | End sector
---------------------------------------------------------
1 | 0:00.00 | 3:08.73 | 0 | 14172
2 | 3:08.73 | 3:10.37 | 14173 | 28459
3 | 6:19.35 | 3:36.25 | 28460 | 44684
4 | 9:55.60 | 2:57.41 | 44685 | 58000
5 | 12:53.26 | 3:46.58 | 58001 | 75008
6 | 16:40.09 | 4:03.26 | 75009 | 93259
7 | 20:43.35 | 3:08.50 | 93260 | 107409
8 | 23:52.10 | 3:02.71 | 107410 | 121130
9 | 26:55.06 | 3:33.45 | 121131 | 137150
10 | 30:28.51 | 3:15.62 | 137151 | 151837
11 | 33:44.38 | 3:37.04 | 151838 | 168116
Track 1
Filename C:\Users\Alex\Desktop\Рипы\Ammunition - 2018 - Ammunition\01. Time.wav
Pre-gap length 0:00:02.00
Peak level 96.6 %
Extraction speed 1.1 X
Track quality 100.0 %
Test CRC 19256E00
Copy CRC 19256E00
Copy OK
Track 2
Filename C:\Users\Alex\Desktop\Рипы\Ammunition - 2018 - Ammunition\02. Freedom Finder.wav
Peak level 96.6 %
Extraction speed 1.2 X
Track quality 100.0 %
Test CRC CE3F58E8
Copy CRC CE3F58E8
Copy OK
Track 3
Filename C:\Users\Alex\Desktop\Рипы\Ammunition - 2018 - Ammunition\03. Virtual Reality Boy.wav
Peak level 96.6 %
Extraction speed 1.3 X
Track quality 100.0 %
Test CRC CFB56831
Copy CRC CFB56831
Copy OK
Track 4
Filename C:\Users\Alex\Desktop\Рипы\Ammunition - 2018 - Ammunition\04. Gung Ho (I Told You So).wav
Peak level 96.6 %
Extraction speed 1.3 X
Track quality 100.0 %
Test CRC 9C69A21A
Copy CRC 9C69A21A
Copy OK
Track 5
Filename C:\Users\Alex\Desktop\Рипы\Ammunition - 2018 - Ammunition\05. Eye For An Eye.wav
Peak level 96.6 %
Extraction speed 1.5 X
Track quality 100.0 %
Test CRC C2FEC883
Copy CRC C2FEC883
Copy OK
Track 6
Filename C:\Users\Alex\Desktop\Рипы\Ammunition - 2018 - Ammunition\06. Tear Your City Down.wav
Peak level 96.6 %
Extraction speed 1.4 X
Track quality 99.9 %
Test CRC 4D32B57C
Copy CRC 4D32B57C
Copy OK
Track 7
Filename C:\Users\Alex\Desktop\Рипы\Ammunition - 2018 - Ammunition\07. Caveman.wav
Peak level 96.6 %
Extraction speed 1.6 X
Track quality 100.0 %
Test CRC 98343FC7
Copy CRC 98343FC7
Copy OK
Track 8
Filename C:\Users\Alex\Desktop\Рипы\Ammunition - 2018 - Ammunition\08. Wrecking Crew.wav
Peak level 96.6 %
Extraction speed 1.4 X
Track quality 99.9 %
Test CRC 0F912FD9
Copy CRC 0F912FD9
Copy OK
Track 9
Filename C:\Users\Alex\Desktop\Рипы\Ammunition - 2018 - Ammunition\09. Miss Summertime.wav
Peak level 96.6 %
Extraction speed 1.7 X
Track quality 100.0 %
Test CRC E03F0BBE
Copy CRC E03F0BBE
Copy OK
Track 10
Filename C:\Users\Alex\Desktop\Рипы\Ammunition - 2018 - Ammunition\10. Bad Bones.wav
Peak level 96.6 %
Extraction speed 1.8 X
Track quality 100.0 %
Test CRC 3EB17C06
Copy CRC 3EB17C06
Copy OK
Track 11
Filename C:\Users\Alex\Desktop\Рипы\Ammunition - 2018 - Ammunition\11. Klondike.wav
Peak level 96.6 %
Extraction speed 1.9 X
Track quality 100.0 %
Test CRC 2ABA9BD2
Copy CRC 2ABA9BD2
Copy OK
No errors occurred
End of status report
==== Log checksum 8965E7B07DBED2B568B2D85CECB6B93D2F3486891CEFC4D36CF111E920CB3EE3 ====
------------------------------------------------------------
Exact Audio Copy V1.0 beta 3 from 29. August 2011
EAC extraction logfile from 10. February 2018, 21:05
Ammunition / Ammunition
Used drive : HL-DT-STDVDRAM GH24NSB0 Adapter: 0 ID: 0
Read mode : Secure
Utilize accurate stream : Yes
Defeat audio cache : Yes
Make use of C2 pointers : No
Read offset correction : 6
Overread into Lead-In and Lead-Out : No
Fill up missing offset samples with silence : Yes
Delete leading and trailing silent blocks : No
Null samples used in CRC calculations : Yes
Used interface : Native Win32 interface for Win NT & 2000
Gap handling : Appended to previous track
Used output format : User Defined Encoder
Selected bitrate : 128 kBit/s
Quality : High
Add ID3 tag : No
Command line compressor : C:\Users\Alex\Desktop\EAC_1.0_beta_3_Portable_Multilingual\App\EAC\FLAC\flac.exe
Additional command line options : -V -8 -T "Genre=%genre%" -T "Artist=%artist%" -T "Title=%title%" -T "Album=%albumtitle%" -T "Date=%year%" -T "Tracknumber=%tracknr%" -T "Comment=%comment%" %source%
TOC of the extracted CD
Track | Start | Length | Start sector | End sector
---------------------------------------------------------
1 | 0:00.00 | 3:08.73 | 0 | 14172
2 | 3:08.73 | 3:10.37 | 14173 | 28459
3 | 6:19.35 | 3:36.25 | 28460 | 44684
4 | 9:55.60 | 2:57.41 | 44685 | 58000
5 | 12:53.26 | 3:46.58 | 58001 | 75008
6 | 16:40.09 | 4:03.26 | 75009 | 93259
7 | 20:43.35 | 3:08.50 | 93260 | 107409
8 | 23:52.10 | 3:02.71 | 107410 | 121130
9 | 26:55.06 | 3:33.45 | 121131 | 137150
10 | 30:28.51 | 3:15.62 | 137151 | 151837
11 | 33:44.38 | 3:37.04 | 151838 | 168116
Track 1
Filename C:\Users\Alex\Desktop\Рипы\Ammunition - 2018 - Ammunition\01. Time.wav
Pre-gap length 0:00:02.00
Peak level 96.6 %
Extraction speed 1.1 X
Track quality 100.0 %
Test CRC 19256E00
Copy CRC 19256E00
Copy OK
Track 2
Filename C:\Users\Alex\Desktop\Рипы\Ammunition - 2018 - Ammunition\02. Freedom Finder.wav
Peak level 96.6 %
Extraction speed 1.2 X
Track quality 100.0 %
Test CRC CE3F58E8
Copy CRC CE3F58E8
Copy OK
Track 3
Filename C:\Users\Alex\Desktop\Рипы\Ammunition - 2018 - Ammunition\03. Virtual Reality Boy.wav
Peak level 96.6 %
Extraction speed 1.3 X
Track quality 100.0 %
Test CRC CFB56831
Copy CRC CFB56831
Copy OK
Track 4
Filename C:\Users\Alex\Desktop\Рипы\Ammunition - 2018 - Ammunition\04. Gung Ho (I Told You So).wav
Peak level 96.6 %
Extraction speed 1.3 X
Track quality 100.0 %
Test CRC 9C69A21A
Copy CRC 9C69A21A
Copy OK
Track 5
Filename C:\Users\Alex\Desktop\Рипы\Ammunition - 2018 - Ammunition\05. Eye For An Eye.wav
Peak level 96.6 %
Extraction speed 1.5 X
Track quality 100.0 %
Test CRC C2FEC883
Copy CRC C2FEC883
Copy OK
Track 6
Filename C:\Users\Alex\Desktop\Рипы\Ammunition - 2018 - Ammunition\06. Tear Your City Down.wav
Peak level 96.6 %
Extraction speed 1.4 X
Track quality 99.9 %
Test CRC 4D32B57C
Copy CRC 4D32B57C
Copy OK
Track 7
Filename C:\Users\Alex\Desktop\Рипы\Ammunition - 2018 - Ammunition\07. Caveman.wav
Peak level 96.6 %
Extraction speed 1.6 X
Track quality 100.0 %
Test CRC 98343FC7
Copy CRC 98343FC7
Copy OK
Track 8
Filename C:\Users\Alex\Desktop\Рипы\Ammunition - 2018 - Ammunition\08. Wrecking Crew.wav
Peak level 96.6 %
Extraction speed 1.4 X
Track quality 99.9 %
Test CRC 0F912FD9
Copy CRC 0F912FD9
Copy OK
Track 9
Filename C:\Users\Alex\Desktop\Рипы\Ammunition - 2018 - Ammunition\09. Miss Summertime.wav
Peak level 96.6 %
Extraction speed 1.7 X
Track quality 100.0 %
Test CRC E03F0BBE
Copy CRC E03F0BBE
Copy OK
Track 10
Filename C:\Users\Alex\Desktop\Рипы\Ammunition - 2018 - Ammunition\10. Bad Bones.wav
Peak level 96.6 %
Extraction speed 1.8 X
Track quality 100.0 %
Test CRC 3EB17C06
Copy CRC 3EB17C06
Copy OK
Track 11
Filename C:\Users\Alex\Desktop\Рипы\Ammunition - 2018 - Ammunition\11. Klondike.wav
Peak level 96.6 %
Extraction speed 1.9 X
Track quality 100.0 %
Test CRC 2ABA9BD2
Copy CRC 2ABA9BD2
Copy OK
No errors occurred
End of status report
==== Log checksum 71B48C99EFC292D9CE35B2E51F4ADA449DF86F40D55CEC270A70D7F67ED9B414 ====
------------------------------------------------------------
Exact Audio Copy V1.0 beta 3 from 29. August 2011
EAC extraction logfile from 10. February 2018, 21:05
Ammunition / Ammunition
Used drive : HL-DT-STDVDRAM GH24NSB0 Adapter: 0 ID: 0
Read mode : Secure
Utilize accurate stream : Yes
Defeat audio cache : Yes
Make use of C2 pointers : No
Read offset correction : 6
Overread into Lead-In and Lead-Out : No
Fill up missing offset samples with silence : Yes
Delete leading and trailing silent blocks : No
Null samples used in CRC calculations : Yes
Used interface : Native Win32 interface for Win NT & 2000
Gap handling : Appended to previous track
Used output format : User Defined Encoder
Selected bitrate : 128 kBit/s
Quality : High
Add ID3 tag : No
Command line compressor : C:\Users\Alex\Desktop\EAC_1.0_beta_3_Portable_Multilingual\App\EAC\FLAC\flac.exe
Additional command line options : -V -8 -T "Genre=%genre%" -T "Artist=%artist%" -T "Title=%title%" -T "Album=%albumtitle%" -T "Date=%year%" -T "Tracknumber=%tracknr%" -T "Comment=%comment%" %source%
TOC of the extracted CD
Track | Start | Length | Start sector | End sector
---------------------------------------------------------
1 | 0:00.00 | 3:08.73 | 0 | 14172
2 | 3:08.73 | 3:10.37 | 14173 | 28459
3 | 6:19.35 | 3:36.25 | 28460 | 44684
4 | 9:55.60 | 2:57.41 | 44685 | 58000
5 | 12:53.26 | 3:46.58 | 58001 | 75008
6 | 16:40.09 | 4:03.26 | 75009 | 93259
7 | 20:43.35 | 3:08.50 | 93260 | 107409
8 | 23:52.10 | 3:02.71 | 107410 | 121130
9 | 26:55.06 | 3:33.45 | 121131 | 137150
10 | 30:28.51 | 3:15.62 | 137151 | 151837
11 | 33:44.38 | 3:37.04 | 151838 | 168116
Track 1
Filename C:\Users\Alex\Desktop\Рипы\Ammunition - 2018 - Ammunition\01. Time.wav
Pre-gap length 0:00:02.00
Peak level 96.6 %
Extraction speed 1.1 X
Track quality 100.0 %
Test CRC 19256E00
Copy CRC 19256E00
Copy OK
Track 2
Filename C:\Users\Alex\Desktop\Рипы\Ammunition - 2018 - Ammunition\02. Freedom Finder.wav
Peak level 96.6 %
Extraction speed 1.2 X
Track quality 100.0 %
Test CRC CE3F58E8
Copy CRC CE3F58E8
Copy OK
Track 3
Filename C:\Users\Alex\Desktop\Рипы\Ammunition - 2018 - Ammunition\03. Virtual Reality Boy.wav
Peak level 96.6 %
Extraction speed 1.3 X
Track quality 100.0 %
Test CRC CFB56831
Copy CRC CFB56831
Copy OK
Track 4
Filename C:\Users\Alex\Desktop\Рипы\Ammunition - 2018 - Ammunition\04. Gung Ho (I Told You So).wav
Peak level 96.6 %
Extraction speed 1.3 X
Track quality 100.0 %
Test CRC 9C69A21A
Copy CRC 9C69A21A
Copy OK
Track 5
Filename C:\Users\Alex\Desktop\Рипы\Ammunition - 2018 - Ammunition\05. Eye For An Eye.wav
Peak level 96.6 %
Extraction speed 1.5 X
Track quality 100.0 %
Test CRC C2FEC883
Copy CRC C2FEC883
Copy OK
Track 6
Filename C:\Users\Alex\Desktop\Рипы\Ammunition - 2018 - Ammunition\06. Tear Your City Down.wav
Peak level 96.6 %
Extraction speed 1.4 X
Track quality 99.9 %
Test CRC 4D32B57C
Copy CRC 4D32B57C
Copy OK
Track 7
Filename C:\Users\Alex\Desktop\Рипы\Ammunition - 2018 - Ammunition\07. Caveman.wav
Peak level 96.6 %
Extraction speed 1.6 X
Track quality 100.0 %
Test CRC 98343FC7
Copy CRC 98343FC7
Copy OK
Track 8
Filename C:\Users\Alex\Desktop\Рипы\Ammunition - 2018 - Ammunition\08. Wrecking Crew.wav
Peak level 96.6 %
Extraction speed 1.4 X
Track quality 99.9 %
Test CRC 0F912FD9
Copy CRC 0F912FD9
Copy OK
Track 9
Filename C:\Users\Alex\Desktop\Рипы\Ammunition - 2018 - Ammunition\09. Miss Summertime.wav
Peak level 96.6 %
Extraction speed 1.7 X
Track quality 100.0 %
Test CRC E03F0BBE
Copy CRC E03F0BBE
Copy OK
Track 10
Filename C:\Users\Alex\Desktop\Рипы\Ammunition - 2018 - Ammunition\10. Bad Bones.wav
Peak level 96.6 %
Extraction speed 1.8 X
Track quality 100.0 %
Test CRC 3EB17C06
Copy CRC 3EB17C06
Copy OK
Track 11
Filename C:\Users\Alex\Desktop\Рипы\Ammunition - 2018 - Ammunition\11. Klondike.wav
Peak level 96.6 %
Extraction speed 1.9 X
Track quality 100.0 %
Test CRC 2ABA9BD2
Copy CRC 2ABA9BD2
Copy OK
No errors occurred
End of status report
==== Log checksum 71B48C99EFC292D9CE35B2E51F4ADA449DF86F40D55CEC270A70D7F67ED9B414 ====
Содержание индексной карты (.CUE)
REM GENRE "Hard Rock"
REM DATE 2018
REM DISCID 8008C10B
REM COMMENT "ExactAudioCopy v1.0b3"
PERFORMER "Ammunition"
TITLE "Ammunition"
FILE "01. Time.wav" WAVE
TRACK 01 AUDIO
TITLE "Time"
PERFORMER "Ammunition"
INDEX 01 00:00:00
FILE "02. Freedom Finder.wav" WAVE
TRACK 02 AUDIO
TITLE "Freedom Finder"
PERFORMER "Ammunition"
INDEX 01 00:00:00
FILE "03. Virtual Reality Boy.wav" WAVE
TRACK 03 AUDIO
TITLE "Virtual Reality Boy"
PERFORMER "Ammunition"
INDEX 01 00:00:00
FILE "04. Gung Ho (I Told You So).wav" WAVE
TRACK 04 AUDIO
TITLE "Gung Ho (I Told You So)"
PERFORMER "Ammunition"
INDEX 01 00:00:00
FILE "05. Eye For An Eye.wav" WAVE
TRACK 05 AUDIO
TITLE "Eye For An Eye"
PERFORMER "Ammunition"
INDEX 01 00:00:00
FILE "06. Tear Your City Down.wav" WAVE
TRACK 06 AUDIO
TITLE "Tear Your City Down"
PERFORMER "Ammunition"
INDEX 01 00:00:00
FILE "07. Caveman.wav" WAVE
TRACK 07 AUDIO
TITLE "Caveman"
PERFORMER "Ammunition"
INDEX 01 00:00:00
FILE "08. Wrecking Crew.wav" WAVE
TRACK 08 AUDIO
TITLE "Wrecking Crew"
PERFORMER "Ammunition"
INDEX 01 00:00:00
FILE "09. Miss Summertime.wav" WAVE
TRACK 09 AUDIO
TITLE "Miss Summertime"
PERFORMER "Ammunition"
INDEX 01 00:00:00
FILE "10. Bad Bones.wav" WAVE
TRACK 10 AUDIO
TITLE "Bad Bones"
PERFORMER "Ammunition"
INDEX 01 00:00:00
FILE "11. Klondike.wav" WAVE
TRACK 11 AUDIO
TITLE "Klondike"
PERFORMER "Ammunition"
INDEX 01 00:00:00
Состав
Erik Martensson (Eclipse, W.E.T., Nordic Union) - guitars, bass, programming, keys, backing vocals
Victor Cito Borge (TNT, Jack In The Box) - bass
Jon Pettersen - guitars
Lasse Finbrathen (Circus Maximus, ex-Wig Wam) - keyboards
Age Sten Nilsen (Wig Wam) - lead and backing vocals
Magnus Ulfstedt (Eclipse) - drums
Зарегистрирован:
  • 12-Фев-18 17:27
  • Скачан: 564 раза

Скачать .torrent

13 KB

Тип: обычная
Статус: проверено
Размер: 288.3 MB  ·  magnetB840E0B8ED21A6549A82E8CA84721FB1A6278357
  • Свернуть поддиректории
  • Развернуть
  • Переключить
  • Увел./умен. окно
загружается...

likewendy

Стаж: 6 лет 1 месяц

Сообщений: 179

likewendy · 12-Фев-18 01:32 (спустя 11 часов)

Он пропустил сканирование спины (с названиями) ... Пожалуйста, вы можете добавить его ?

anshluz

Стаж: 9 лет 4 месяца

Сообщений: 225

flag

anshluz · 12-Фев-18 14:49 (спустя 13 часов)

Да чё там, - клёвый AOR, такой классический мелодик. Мне по-кайфу не только эти, а ваще все норги в роке. А лучше сказать - все скандинавы сильны в рок-музыке, как никто на душу населения.
прошлое - это бдущее настоящее.

AlexSF59

Стаж: 7 лет 9 месяцев

Сообщений: 384

flag

AlexSF59 · 12-Фев-18 17:29 (спустя 2 часа 40 мин.)

Добавил скан задника, просьба перекачать, извините за невнимательность.

likewendy

Стаж: 6 лет 1 месяц

Сообщений: 179

likewendy · 12-Фев-18 18:51 (спустя 1 час 22 мин.)

Идеально подходит для задней обложки! Спасибо !
 
All rights reserved © 2017-2018
Loading...
Error