(Kpop) [CD] Red Velvet (레드벨벳) - The Perfect Red Velvet - 2018, FLAC (tracks+.cue), lossless

Статистика раздачи
Размер:  302 MB   |   Зарегистрирован:  9 месяцев   |   .torrent скачан:  314 раз
Сиды:  7   Личи:  2
Автор
Сообщение

Igor2142

Стаж: 8 лет 11 месяцев

Сообщений: 43

flag

Igor2142 · 05-Мар-18 00:41 (9 месяцев назад, ред. 05-Мар-18 00:42)

 

Red Velvet (레드벨벳) / The Perfect Red Velvet
Жанр: Kpop
Носитель: CD
Страна-производитель диска (релиза): South Korea
Год издания: 2018
Издатель (лейбл): S.M.Entertainment
Номер по каталогу: SMK0899
Страна исполнителя (группы): South Korea
Аудиокодек: FLAC (*.flac)
Тип рипа: tracks+.cue
Битрейт аудио: lossless
Продолжительность: 00:41:37
Источник (релизер): apollo.rip (sharky77)
Наличие сканов в содержимом раздачи: нет
Треклист:
  1. Bad Boy (Title Track)
  2. All Right
  3. 피카부 (Peek-A-Boo)
  4. 봐 (Look)
  5. I Just
  6. Kingdom Come
  7. Time To Love
  8. 두 번째 데이트 (My Second Date)
  9. Attaboy
  10. Perfect 10
  11. About Love
  12. 달빛 소리 (Moonlight Melody)
Лог создания рипа
Exact Audio Copy V1.3 from 2. September 2016
EAC extraction logfile from 5. February 2018, 20:07
Red Velvet / The Perfect Red Velvet
Used drive : HL-DT-STDVDRAM GP60NB50 Adapter: 1 ID: 0
Read mode : Secure
Utilize accurate stream : Yes
Defeat audio cache : Yes
Make use of C2 pointers : No
Read offset correction : 6
Overread into Lead-In and Lead-Out : No
Fill up missing offset samples with silence : Yes
Delete leading and trailing silent blocks : No
Null samples used in CRC calculations : Yes
Used interface : Native Win32 interface for Win NT & 2000
Gap handling : Appended to previous track
Used output format : User Defined Encoder
Selected bitrate : 1024 kBit/s
Quality : High
Add ID3 tag : No
Command line compressor : C:\Program Files (x86)\Exact Audio Copy\Flac\flac.exe
Additional command line options : -8 -e -p -V -T "ARTIST=%artist%" -T "TITLE=%title%" -T "ALBUM=%albumtitle%" -T "DATE=%year%" -T "TRACKNUMBER=%tracknr%" -T "GENRE=%genre%" -T "PERFORMER=%albuminterpret%" -T "COMPOSER=%composer%" %haslyrics%--tag-from-file=LYRICS="%lyricsfile%"%haslyrics% -T "ALBUMARTIST=%albumartist%" -T "DISCNUMBER=%cdnumber%" -T "TOTALDISCS=%totalcds%" -T "TOTALTRACKS=%numtracks%" -T "COMMENT=%comment%" %source% -o %dest%
TOC of the extracted CD
Track | Start | Length | Start sector | End sector
---------------------------------------------------------
1 | 0:00.00 | 3:30.61 | 0 | 15810
2 | 3:30.61 | 3:49.07 | 15811 | 32992
3 | 7:19.68 | 3:09.04 | 32993 | 47171
4 | 10:28.72 | 4:05.45 | 47172 | 65591
5 | 14:34.42 | 3:08.23 | 65592 | 79714
6 | 17:42.65 | 3:30.12 | 79715 | 95476
7 | 21:13.02 | 3:15.18 | 95477 | 110119
8 | 24:28.20 | 3:14.45 | 110120 | 124714
9 | 27:42.65 | 3:16.63 | 124715 | 139477
10 | 30:59.53 | 3:29.58 | 139478 | 155210
11 | 34:29.36 | 3:25.73 | 155211 | 170658
12 | 37:55.34 | 3:40.47 | 170659 | 187205
Track 1
Filename F:\EAC Rips\Red Velvet - The Perfect Red Velvet (2018) [FLAC]\01 - Bad Boy.wav
Pre-gap length 0:00:02.00
Peak level 99.8 %
Extraction speed 1.0 X
Track quality 99.9 %
Test CRC 2C5AF46B
Copy CRC 2C5AF46B
Track not present in AccurateRip database
Copy OK
Track 2
Filename F:\EAC Rips\Red Velvet - The Perfect Red Velvet (2018) [FLAC]\02 - All Right.wav
Peak level 99.8 %
Extraction speed 1.1 X
Track quality 99.9 %
Test CRC 7E47AA77
Copy CRC 7E47AA77
Track not present in AccurateRip database
Copy OK
Track 3
Filename F:\EAC Rips\Red Velvet - The Perfect Red Velvet (2018) [FLAC]\03 - 피카부 (Peek-a-Boo).wav
Peak level 99.8 %
Extraction speed 1.3 X
Track quality 100.0 %
Test CRC 4D1526BD
Copy CRC 4D1526BD
Track not present in AccurateRip database
Copy OK
Track 4
Filename F:\EAC Rips\Red Velvet - The Perfect Red Velvet (2018) [FLAC]\04 - 봐 (Look).wav
Peak level 99.8 %
Extraction speed 1.5 X
Track quality 100.0 %
Test CRC BB960693
Copy CRC BB960693
Track not present in AccurateRip database
Copy OK
Track 5
Filename F:\EAC Rips\Red Velvet - The Perfect Red Velvet (2018) [FLAC]\05 - I Just.wav
Peak level 99.8 %
Extraction speed 1.5 X
Track quality 100.0 %
Test CRC 5329F6DA
Copy CRC 5329F6DA
Track not present in AccurateRip database
Copy OK
Track 6
Filename F:\EAC Rips\Red Velvet - The Perfect Red Velvet (2018) [FLAC]\06 - Kingdom Come.wav
Peak level 99.8 %
Extraction speed 1.4 X
Track quality 99.9 %
Test CRC BF97046C
Copy CRC BF97046C
Track not present in AccurateRip database
Copy OK
Track 7
Filename F:\EAC Rips\Red Velvet - The Perfect Red Velvet (2018) [FLAC]\07 - Time to Love.wav
Peak level 99.8 %
Extraction speed 1.7 X
Track quality 100.0 %
Test CRC 1C045673
Copy CRC 1C045673
Track not present in AccurateRip database
Copy OK
Track 8
Filename F:\EAC Rips\Red Velvet - The Perfect Red Velvet (2018) [FLAC]\08 - 두 번째 데이트 (My Second Date).wav
Peak level 99.8 %
Extraction speed 1.8 X
Track quality 100.0 %
Test CRC 5285ECE3
Copy CRC 5285ECE3
Track not present in AccurateRip database
Copy OK
Track 9
Filename F:\EAC Rips\Red Velvet - The Perfect Red Velvet (2018) [FLAC]\09 - Attaboy.wav
Peak level 99.8 %
Extraction speed 1.6 X
Track quality 99.9 %
Test CRC 7C997E6B
Copy CRC 7C997E6B
Track not present in AccurateRip database
Copy OK
Track 10
Filename F:\EAC Rips\Red Velvet - The Perfect Red Velvet (2018) [FLAC]\10 - Perfect 10.wav
Peak level 99.8 %
Extraction speed 1.9 X
Track quality 100.0 %
Test CRC 6D0E8501
Copy CRC 6D0E8501
Track not present in AccurateRip database
Copy OK
Track 11
Filename F:\EAC Rips\Red Velvet - The Perfect Red Velvet (2018) [FLAC]\11 - About Love.wav
Peak level 99.8 %
Extraction speed 2.0 X
Track quality 100.0 %
Test CRC 392CFB8C
Copy CRC 392CFB8C
Track not present in AccurateRip database
Copy OK
Track 12
Filename F:\EAC Rips\Red Velvet - The Perfect Red Velvet (2018) [FLAC]\12 - 달빛 소리 (Moonlight Melody).wav
Peak level 99.8 %
Extraction speed 2.1 X
Track quality 100.0 %
Test CRC 793BC22A
Copy CRC 793BC22A
Track not present in AccurateRip database
Copy OK
None of the tracks are present in the AccurateRip database
No errors occurred
End of status report
---- CUETools DB Plugin V2.1.6
[CTDB TOCID: 9oIcc9bcne7UgJwqc2BacDnC6ao-] found
Submit result: 9oIcc9bcne7UgJwqc2BacDnC6ao- has been confirmed
Track | CTDB Status
1 | (7/7) Accurately ripped
2 | (7/7) Accurately ripped
3 | (7/7) Accurately ripped
4 | (7/7) Accurately ripped
5 | (7/7) Accurately ripped
6 | (7/7) Accurately ripped
7 | (7/7) Accurately ripped
8 | (7/7) Accurately ripped
9 | (7/7) Accurately ripped
10 | (7/7) Accurately ripped
11 | (7/7) Accurately ripped
12 | (7/7) Accurately ripped
==== Log checksum 0AB1C416C2A63459402DB321D4181C3A98A9F02A974356B8970A1ACDD397E30E ====
Содержание индексной карты (.CUE)
REM GENRE Kpop
REM DATE 2018
REM DISCID 9109C00C
REM COMMENT "ExactAudioCopy v1.3"
PERFORMER "Red Velvet"
TITLE "The Perfect Red Velvet"
REM COMPOSER ""
FILE "01 - Bad Boy.wav" WAVE
TRACK 01 AUDIO
TITLE "Bad Boy"
PERFORMER "Red Velvet"
REM COMPOSER ""
INDEX 01 00:00:00
FILE "02 - All Right.wav" WAVE
TRACK 02 AUDIO
TITLE "All Right"
PERFORMER "Red Velvet"
REM COMPOSER ""
INDEX 01 00:00:00
FILE "03 - ... (Peek-a-Boo).wav" WAVE
TRACK 03 AUDIO
TITLE "... (Peek-a-Boo)"
PERFORMER "Red Velvet"
REM COMPOSER ""
INDEX 01 00:00:00
FILE "04 - . (Look).wav" WAVE
TRACK 04 AUDIO
TITLE ". (Look)"
PERFORMER "Red Velvet"
REM COMPOSER ""
INDEX 01 00:00:00
FILE "05 - I Just.wav" WAVE
TRACK 05 AUDIO
TITLE "I Just"
PERFORMER "Red Velvet"
REM COMPOSER ""
INDEX 01 00:00:00
FILE "06 - Kingdom Come.wav" WAVE
TRACK 06 AUDIO
TITLE "Kingdom Come"
PERFORMER "Red Velvet"
REM COMPOSER ""
INDEX 01 00:00:00
FILE "07 - Time to Love.wav" WAVE
TRACK 07 AUDIO
TITLE "Time to Love"
PERFORMER "Red Velvet"
REM COMPOSER ""
INDEX 01 00:00:00
FILE "08 - . .. ... (My Second Date).wav" WAVE
TRACK 08 AUDIO
TITLE ". .. ... (My Second Date)"
PERFORMER "Red Velvet"
REM COMPOSER ""
INDEX 01 00:00:00
FILE "09 - Attaboy.wav" WAVE
TRACK 09 AUDIO
TITLE "Attaboy"
PERFORMER "Red Velvet"
REM COMPOSER ""
INDEX 01 00:00:00
FILE "10 - Perfect 10.wav" WAVE
TRACK 10 AUDIO
TITLE "Perfect 10"
PERFORMER "Red Velvet"
REM COMPOSER ""
INDEX 01 00:00:00
FILE "11 - About Love.wav" WAVE
TRACK 11 AUDIO
TITLE "About Love"
PERFORMER "Red Velvet"
REM COMPOSER ""
INDEX 01 00:00:00
FILE "12 - .. .. (Moonlight Melody).wav" WAVE
TRACK 12 AUDIO
TITLE ".. .. (Moonlight Melody)"
PERFORMER "Red Velvet"
REM COMPOSER ""
INDEX 01 00:00:00
Об исполнителе (группе)
Red Velvet (кор: 레드벨벳 ром: Redeu Belbet) — южнокорейская гёрл-группа, состоящая из пяти участниц. Основана в 2014 году компанией SM Entertainment, выпустившей за время своего существования ряд успешных исполнителей — TVXQ, BoA, SHINee, EXO, Girls' Generation, f(x), Super Junior. 1 августа 2014 года группа выпустила свой первый сингл «Happiness».
Зарегистрирован:
  • 05-Мар-18 00:42
  • Скачан: 314 раз

Скачать .torrent

25 KB

Тип: обычная
Статус: проверено
Размер: 302 MB  ·  magnetF5C49ACB8CCF259B29BF9A566FCCEA701D2A2080
  • Свернуть поддиректории
  • Развернуть
  • Переключить
  • Увел./умен. окно
загружается...
 
All rights reserved © 2017-2018
Loading...
Error