Кубок Мира 2017-18. 8-й этап. Осло-Хольменколлен (Норвегия). Женщины. Гонка преследования 10 км / Матч ТВ HD [18.03.2018, Биатлон, HDTVRip/720p/50fps, MKV/H.264, RU/INT]

Статистика раздачи
Размер:  1.22 GB   |   Зарегистрирован:  7 месяцев   |   .torrent скачан:  1,620 раз
Сиды:  4
Автор
Сообщение

Настольный Теннисист

Стаж: 1 год 2 месяца

Сообщений: 489

flag

Настольный Теннисист · 18-Мар-18 15:08 (7 месяцев назад, ред. 18-Мар-18 15:12)

 

Кубок Мира 2017-18. 8-й этап. Осло-Хольменколлен (Норвегия)
Женщины. Гонка преследования 10 км
Вид спорта: Биатлон
Комментарий: Профессиональный
Язык комментариев: Русский / Интершум
Описание: Кубок Мира 2017-18. 8-й этап. Осло-Хольменколлен (Норвегия). Женщины. Гонка преследования 10 км.
Автор рипа: Настольный теннисист
Качество: HDTVRip
Формат: MKV
Видео кодек: AVC
Аудио кодек: AC3
Видео: MPEG4 Video (H264) 1280x720 (16:9) 50fps 4127kbps
Аудио 1-2: Dolby AC3 48000Hz stereo 192kbps
Скриншоты
Продолжительность
00:38:05
MediaInfo
General
Unique ID : 185813703401916355154898106361675466480 (0x8BCA6AE44A27C5E21CAC21B3E83746F0)
Complete name : Y:\раздачи\Осло Ж Преследование. Злобный.mkv
Format : Matroska
Format version : Version 2
File size : 1.22 GiB
Duration : 38 min 5 s
Overall bit rate : 4 603 kb/s
Writing application : Lavf54.63.104
Writing library : Lavf54.63.104
Video
ID : 1
Format : AVC
Format/Info : Advanced Video Codec
Format profile : High@L4.1
Format settings, CABAC : Yes
Format settings, RefFrames : 4 frames
Codec ID : V_MPEG4/ISO/AVC
Duration : 38 min 5 s
Bit rate : 4 127 kb/s
Width : 1 280 pixels
Height : 720 pixels
Display aspect ratio : 16:9
Frame rate mode : Constant
Frame rate : 50.000 FPS
Color space : YUV
Chroma subsampling : 4:2:0
Bit depth : 8 bits
Scan type : Progressive
Bits/(Pixel*Frame) : 0.090
Stream size : 1.10 GiB (90%)
Default : No
Forced : No
Color range : Limited
Color primaries : BT.709
Transfer characteristics : BT.709
Matrix coefficients : BT.709
Audio #1
ID : 2
Format : AC-3
Format/Info : Audio Coding 3
Format settings, Endianness : Big
Codec ID : A_AC3
Duration : 38 min 5 s
Bit rate mode : Constant
Bit rate : 192 kb/s
Channel(s) : 2 channels
Channel positions : Front: L R
Sampling rate : 48.0 kHz
Frame rate : 31.250 FPS (1536 SPF)
Bit depth : 16 bits
Compression mode : Lossy
Stream size : 52.3 MiB (4%)
Language : Russian
Service kind : Complete Main
Default : Yes
Forced : No
Audio #2
ID : 3
Format : AC-3
Format/Info : Audio Coding 3
Format settings, Endianness : Big
Codec ID : A_AC3
Duration : 38 min 5 s
Bit rate mode : Constant
Bit rate : 192 kb/s
Channel(s) : 2 channels
Channel positions : Front: L R
Sampling rate : 48.0 kHz
Frame rate : 31.250 FPS (1536 SPF)
Bit depth : 16 bits
Compression mode : Lossy
Stream size : 52.3 MiB (4%)
Service kind : Complete Main
Default : No
Forced : No
Зарегистрирован:
  • 18-Мар-18 15:08
  • Скачан: 1,620 раз

Скачать .torrent

12 KB

Тип: обычная
Статус: проверено
Размер: 1.22 GB  ·  magnet49EDAFBF4D92EDB9B1E6ACEA06AA41DC0E5C22DD
  • Свернуть поддиректории
  • Развернуть
  • Переключить
  • Увел./умен. окно
загружается...

noname_28

Стаж: 2 года 8 месяцев

Сообщений: 89

flag

noname_28 · 18-Мар-18 22:04 (спустя 6 часов)

Кто-нибудь в курсе куда опять Старых делась ?
Вроде отсидела же
единственное на что стоит тратить время у экрана это спорт
 
All rights reserved © 2017-2018
Loading...
Error