Бегущий по лезвию / Blade Runner (Ридли Скотт / Ridley Scott) [1982, США, Гонконг, фантастика, триллер, драма, мелодрама, BDRip 1080p] [Финальная версия / The Final Cut] Dub + MVO + DVO + 3x AVO + 5x VO + Sub Rus, Eng + Original Eng

Статистика раздачи
Размер:  29.69 GB   |   Зарегистрирован:  5 месяцев 20 дней   |   .torrent скачан:  2,165 раз
Сиды:  42   Личи:  4
Автор
Сообщение

Secrets

Top Loader 05* 2TB

Стаж: 2 года

Сообщений: 368

flag

Secrets · 14-Апр-18 21:43 (8 месяцев назад, ред. 26-Июн-18 13:28)

 

Бегущий по лезвию / Blade Runner
Страна: США, Гонконг
Студия: Norman Lear/Tandem Productions, Shaw Brothers (Hong Kong) Limited, The Ladd Company
Жанр: Фантастика, триллер, драма, мелодрама
Год выпуска: 1982
Продолжительность: 01:57:36
Перевод 1: Профессиональный (дублированный) Blu-ray CEE
Перевод 2: Профессиональный (многоголосый закадровый) Киномания
Перевод 3: Профессиональный (двухголосый закадровый) Tycoon
Перевод 4: Авторский (одноголосый закадровый) А. Гаврилов
Перевод 5: Авторский (одноголосый закадровый) Ю. Живов
Перевод 6: Авторский (одноголосый закадровый) П. Карцев
Перевод 7: Одноголосый (закадровый) А. Матвеев
Перевод 8: Одноголосый (закадровый) А. Попов
Перевод 9: Одноголосый (закадровый) Д. Есарев
Перевод 10: Одноголосый (закадровый) В. Завгородний
Перевод 11: Одноголосый (закадровый) К. Поздняков
Субтитры: Русские, Английские
Оригинальная аудиодорожка: английский
Режиссер: Ридли Скотт / Ridley Scott
В ролях: Харрисон Форд, Рутгер Хауэр, Шон Янг, Эдвард Джеймс Олмос, М. Эммет Уолш, Дэрил Ханна, Уильям Сэндерсон, Брайон Джеймс, Джо Туркел, Джоанна Кэссиди, Джеймс Хонг, Морган Полл, Кевин Томпсон, Джон Эдвард Аллен, Хы Пыке
Описание: Отставной детектив Рик Декард вновь восстановлен в полиции Лос-Анджелеса для поиска возглавляемой Роем Батти группы киборгов, совершившей побег из космической колонии на Землю.
В полиции считают, что киборги пытаются встретиться с Эндолом Тайреллом, руководителем корпорации, ставящей эксперименты над кибернетическим интеллектом. Рик Декард получает задание выяснить мотивы действий киборгов, а затем уничтожить их.

Скачать сэмпл

Тип релиза: BDRip 1080p | NCmt
Контейнер: MKV
Видео: MPEG-4 AVC, 23,6 Мбит/с, 1920x800, 23,976 fps
Аудио 1: Rus, AC3, 640 kb/s (6 ch), 48 kHz |Дубляж, Blu-ray CEE|
Аудио 2: Rus, DTS, 1509 kb/s (6 ch), 48 kHz |Многоголосый закадровый, Киномания|
Аудио 3: Rus, DTS, 1510 kb/s (6 ch), 48 kHz |Двухголосый закадровый, Tycoon|
Аудио 4: Rus, DTS, 1509 kb/s (6 ch), 48 kHz |Авторский Одноголосый закадровый, А. Гаврилов|
Аудио 5: Rus, DTS, 1509 kb/s (6 ch), 48 kHz |Авторский Одноголосый закадровый, Ю. Живов|
Аудио 6: Rus, AC3, 448 kb/s (6 ch), 48 kHz |Авторский Одноголосый закадровый, П. Карцев|
Аудио 7: Rus, DTS, 1509 kb/s (6 ch), 48 kHz |Одноголосый закадровый, А. Матвеев|
Аудио 8: Rus, DTS, 768 kb/s (6 ch), 48 kHz |Одноголосый закадровый, А. Попов|
Аудио 9: Rus, AC3, 448 kb/s (6 ch), 48 kHz |Одноголосый закадровый, Д. Есарев|
Аудио 10: Rus, AC3, 448 kb/s (6 ch), 48 kHz |Одноголосый закадровый, В. Завгородний|
Аудио 11: Rus, AC3, 192 kb/s (2 ch), 48 kHz |Одноголосый закадровый, К. Поздняков|
Аудио 12: Eng, DTS, 1509 kb/s (6 ch), 48 kHz
Аудио 13: Eng, AC3, 192 kb/s (2 ch), 48 kHz |Commentary with Director Ridley Scott|
Аудио 14: Eng, AC3, 192 kb/s (2 ch), 48 kHz |Commentary with crew members Hampton Fancher, David Peoples, Michael Deely and Katherine Haber|
Аудио 15: Eng, AC3, 192 kb/s (2 ch), 48 kHz |Commentary with crew members Syd Mead, G. Paull, David L. Snyder, Douglas Trumbull, Richard Yuricich and David Dryer|
СМОТРЕТЬ ОНЛАЙН
Дополнительно
x264 [info]: frame I:897 Avg QP:17.33 size:205295
x264 [info]: frame P:29245 Avg QP:19.10 size:158253
x264 [info]: frame B:138922 Avg QP:20.09 size:114978
x264 [info]: consecutive B-frames: 1.3% 1.1% 2.5% 10.6% 13.9% 35.2% 11.2% 1.8% 3.5% 10.2% 2.1% 0.7% 0.8% 2.8% 0.4% 0.6% 1.4%



-Release Notes-
Encode from UHD Blu-ray, tonemapped to SDR on a scene by scene basis with 1080p Blu-ray as reference.
Zoned a few scenes to retain detail.
MediaInfo
Общее
Уникальный идентификатор : 228367689641324579407975169576042241708 (0xABCE0465FA9E9418CCFAF4029FA01EAC)
Полное имя : Blade.Runner.1982.The.Final.Cut.UHD.BDRip.1080p.Secrets.mkv
Формат : Matroska
Версия формата : Version 4 / Version 2
Размер файла : 29,7 Гбайт
Продолжительность : 1 ч. 57 м.
Общий поток : 36,1 Мбит/сек
Название фильма : Blade Runner (1982) Final Cut - Release for GOSTRACKER.XYZ by Secrets
Дата кодирования : UTC 2018-04-14 20:26:37
Программа кодирования : mkvmerge v22.0.0 ('At The End Of The World') 64-bit
Библиотека кодирования : libebml v1.3.5 + libmatroska v1.4.8
Видео
Идентификатор : 1
Формат : AVC
Формат/Информация : Advanced Video Codec
Профиль формата : High@L4.1
Настройки формата : CABAC / 5 Ref Frames
Параметр CABAC формата : Да
Параметр RefFrames формата : 5 кадров
Идентификатор кодека : V_MPEG4/ISO/AVC
Продолжительность : 1 ч. 57 м.
Битрейт : 23,6 Мбит/сек
Ширина : 1920 пикселей
Высота : 800 пикселей
Соотношение сторон : 2,40:1
Режим частоты кадров : Постоянный
Частота кадров : 23,976 (24000/1001) кадра/сек
Цветовое пространство : YUV
Субдискретизация насыщенности : 4:2:0
Битовая глубина : 8 бит
Тип развёртки : Прогрессивная
Бит/(Пиксели*Кадры) : 0.640
Размер потока : 19,4 Гбайт (65%)
Заголовок : Blade Runner (1982) Final Cut - Release for GOSTRACKER.XYZ by Secrets
Библиотека кодирования : x264 core 155 r2867+82 a249126 t_mod_Custom_2 [8-bit@all X86_64]
Настройки программы : cabac=1 / ref=5 / deblock=1:-3:-3 / analyse=0x3:0x133 / me=umh / subme=11 / psy=1 / fade_compensate=0.00 / psy_rd=1.05:0.00 / mixed_ref=1 / me_range=32 / chroma_me=1 / trellis=2 / 8x8dct=1 / cqm=0 / deadzone=21,11 / fast_pskip=0 / chroma_qp_offset=-2 / threads=6 / lookahead_threads=1 / sliced_threads=0 / nr=0 / decimate=0 / interlaced=0 / bluray_compat=0 / constrained_intra=0 / fgo=0 / bframes=16 / b_pyramid=2 / b_adapt=2 / b_bias=0 / direct=3 / weightb=1 / open_gop=0 / weightp=2 / keyint=240 / keyint_min=23 / scenecut=40 / intra_refresh=0 / rc_lookahead=240 / rc=crf / mbtree=0 / crf=19.0000 / qcomp=0.65 / qpmin=0:0:0 / qpmax=69:69:69 / qpstep=4 / vbv_maxrate=62500 / vbv_bufsize=78125 / crf_max=0.0 / nal_hrd=none / filler=0 / ip_ratio=1.25 / pb_ratio=1.15 / aq=3:0.65 / aq-sensitivity=10.00 / aq-factor=1.00:1.00:1.00 / aq2=0 / aq3=0 / zones=7715,7871,crf=17.5/11702,11820,crf=17.5/11949,12038,crf=17.5/14897,15044,crf=17.0/19034,19911,crf=17.8/20231,20589,crf=17.5/20719,20889,crf=17.5/20961,21092,crf=17.5/21224,21409,crf=17.5/21648,22535,crf=17.8/24873,24908,crf=17.0/25022,25068,crf=17.0/25381,25456,crf=17.5/31440,31609,crf=17.5/45144,45559,crf=17.5/45842,45929,crf=17.0/74985,75099,crf=17.5/75249,75448,crf=17.5/78247,78325,crf=17.5/78726,78955,crf=17.5/86417,86686,crf=17.5/87221,87503,crf=17.5/87694,88134,crf=17.8/90638,90748,crf=17.5/90824,91012,crf=17.5/94374,94438,crf=17.0/121644,122343,crf=17.8/138326,138443,crf=17.5/138471,138676,crf=17.5/138799,138870,crf=17.5/139073,139163,crf=17.0/149790,150183,crf=17.0/150373,150428,crf=17.0/150472,150503,crf=17.0/157600,157820,crf=17.5/161435,161558,crf=17.0
Язык : English
Default : Да
Forced : Нет
Аудио #1
Идентификатор : 2
Формат : AC-3
Формат/Информация : Audio Coding 3
Идентификатор кодека : A_AC3
Продолжительность : 1 ч. 57 м.
Вид битрейта : Постоянный
Битрейт : 640 Кбит/сек
Каналы : 6 каналов
Расположение каналов : Front: L C R, Side: L R, LFE
Частота : 48,0 КГц
Частота кадров : 31,250 кадров/сек (1536 SPF)
Битовая глубина : 16 бит
Метод сжатия : С потерями
Размер потока : 538 Мбайт (2%)
Заголовок : Dub | Лицензия
Язык : Russian
ServiceKind/String : Complete Main
Default : Да
Forced : Нет
Аудио #2
Идентификатор : 3
Формат : DTS
Формат/Информация : Digital Theater Systems
Идентификатор кодека : A_DTS
Продолжительность : 1 ч. 57 м.
Вид битрейта : Постоянный
Битрейт : 1509 Кбит/сек
Каналы : 6 каналов
Расположение каналов : Front: L C R, Side: L R, LFE
Частота : 48,0 КГц
Частота кадров : 93,750 кадра/сек (512 SPF)
Битовая глубина : 24 бит
Метод сжатия : С потерями
Размер потока : 1,24 Гбайт (4%)
Заголовок : MVO | Киномания
Язык : Russian
Default : Нет
Forced : Нет
Аудио #3
Идентификатор : 4
Формат : DTS
Формат/Информация : Digital Theater Systems
Идентификатор кодека : A_DTS
Продолжительность : 1 ч. 57 м.
Вид битрейта : Постоянный
Битрейт : 1510 Кбит/сек
Каналы : 6 каналов
Расположение каналов : Front: L C R, Side: L R, LFE
Частота : 48,0 КГц
Частота кадров : 93,750 кадра/сек (512 SPF)
Битовая глубина : 24 бит
Метод сжатия : С потерями
Размер потока : 1,24 Гбайт (4%)
Заголовок : DVO | Tycoon
Язык : Russian
Default : Нет
Forced : Нет
Аудио #4
Идентификатор : 5
Формат : DTS
Формат/Информация : Digital Theater Systems
Идентификатор кодека : A_DTS
Продолжительность : 1 ч. 57 м.
Вид битрейта : Постоянный
Битрейт : 1509 Кбит/сек
Каналы : 6 каналов
Расположение каналов : Front: L C R, Side: L R, LFE
Частота : 48,0 КГц
Частота кадров : 93,750 кадра/сек (512 SPF)
Битовая глубина : 24 бит
Метод сжатия : С потерями
Размер потока : 1,24 Гбайт (4%)
Заголовок : AVO | А. Гаврилов
Язык : Russian
Default : Нет
Forced : Нет
Аудио #5
Идентификатор : 6
Формат : DTS
Формат/Информация : Digital Theater Systems
Идентификатор кодека : A_DTS
Продолжительность : 1 ч. 57 м.
Вид битрейта : Постоянный
Битрейт : 1509 Кбит/сек
Каналы : 6 каналов
Расположение каналов : Front: L C R, Side: L R, LFE
Частота : 48,0 КГц
Частота кадров : 93,750 кадра/сек (512 SPF)
Битовая глубина : 24 бит
Метод сжатия : С потерями
Размер потока : 1,24 Гбайт (4%)
Заголовок : AVO | Ю. Живов
Язык : Russian
Default : Нет
Forced : Нет
Аудио #6
Идентификатор : 7
Формат : AC-3
Формат/Информация : Audio Coding 3
Идентификатор кодека : A_AC3
Продолжительность : 1 ч. 57 м.
Вид битрейта : Постоянный
Битрейт : 448 Кбит/сек
Каналы : 6 каналов
Расположение каналов : Front: L C R, Side: L R, LFE
Частота : 48,0 КГц
Частота кадров : 31,250 кадров/сек (1536 SPF)
Битовая глубина : 16 бит
Метод сжатия : С потерями
Размер потока : 376 Мбайт (1%)
Заголовок : AVO | П. Карцев
Язык : Russian
ServiceKind/String : Complete Main
Default : Нет
Forced : Нет
Аудио #7
Идентификатор : 8
Формат : DTS
Формат/Информация : Digital Theater Systems
Идентификатор кодека : A_DTS
Продолжительность : 1 ч. 57 м.
Вид битрейта : Постоянный
Битрейт : 1509 Кбит/сек
Каналы : 6 каналов
Расположение каналов : Front: L C R, Side: L R, LFE
Частота : 48,0 КГц
Частота кадров : 93,750 кадра/сек (512 SPF)
Битовая глубина : 24 бит
Метод сжатия : С потерями
Размер потока : 1,24 Гбайт (4%)
Заголовок : VO | А. Матвеев
Язык : Russian
Default : Нет
Forced : Нет
Аудио #8
Идентификатор : 9
Формат : DTS
Формат/Информация : Digital Theater Systems
Идентификатор кодека : A_DTS
Продолжительность : 1 ч. 57 м.
Вид битрейта : Постоянный
Битрейт : 768 Кбит/сек
Каналы : 6 каналов
Расположение каналов : Front: L C R, Side: L R, LFE
Частота : 48,0 КГц
Частота кадров : 93,750 кадра/сек (512 SPF)
Битовая глубина : 24 бит
Метод сжатия : С потерями
Размер потока : 646 Мбайт (2%)
Заголовок : VO | А. Попов
Язык : Russian
Default : Нет
Forced : Нет
Аудио #9
Идентификатор : 10
Формат : AC-3
Формат/Информация : Audio Coding 3
Идентификатор кодека : A_AC3
Продолжительность : 1 ч. 57 м.
Вид битрейта : Постоянный
Битрейт : 448 Кбит/сек
Каналы : 6 каналов
Расположение каналов : Front: L C R, Side: L R, LFE
Частота : 48,0 КГц
Частота кадров : 31,250 кадров/сек (1536 SPF)
Битовая глубина : 16 бит
Метод сжатия : С потерями
Размер потока : 377 Мбайт (1%)
Заголовок : VO | Д. Есарев
Язык : Russian
ServiceKind/String : Complete Main
Default : Нет
Forced : Нет
Аудио #10
Идентификатор : 11
Формат : AC-3
Формат/Информация : Audio Coding 3
Идентификатор кодека : A_AC3
Продолжительность : 1 ч. 57 м.
Вид битрейта : Постоянный
Битрейт : 448 Кбит/сек
Каналы : 6 каналов
Расположение каналов : Front: L C R, Side: L R, LFE
Частота : 48,0 КГц
Частота кадров : 31,250 кадров/сек (1536 SPF)
Битовая глубина : 16 бит
Метод сжатия : С потерями
Размер потока : 375 Мбайт (1%)
Заголовок : VO | В. Завгородний
Язык : Russian
ServiceKind/String : Complete Main
Default : Нет
Forced : Нет
Аудио #11
Идентификатор : 12
Формат : AC-3
Формат/Информация : Audio Coding 3
Идентификатор кодека : A_AC3
Продолжительность : 1 ч. 57 м.
Вид битрейта : Постоянный
Битрейт : 192 Кбит/сек
Каналы : 2 канала
Расположение каналов : Front: L R
Частота : 48,0 КГц
Частота кадров : 31,250 кадров/сек (1536 SPF)
Битовая глубина : 16 бит
Метод сжатия : С потерями
Размер потока : 162 Мбайт (1%)
Заголовок : VO | К. Поздняков
Язык : Russian
ServiceKind/String : Complete Main
Default : Нет
Forced : Нет
Аудио #12
Идентификатор : 13
Формат : DTS
Формат/Информация : Digital Theater Systems
Идентификатор кодека : A_DTS
Продолжительность : 1 ч. 57 м.
Вид битрейта : Постоянный
Битрейт : 1509 Кбит/сек
Каналы : 6 каналов
Расположение каналов : Front: L C R, Side: L R, LFE
Частота : 48,0 КГц
Частота кадров : 93,750 кадра/сек (512 SPF)
Битовая глубина : 24 бит
Метод сжатия : С потерями
Размер потока : 1,24 Гбайт (4%)
Язык : English
Default : Нет
Forced : Нет
Аудио #13
Идентификатор : 14
Формат : AC-3
Формат/Информация : Audio Coding 3
Идентификатор кодека : A_AC3
Продолжительность : 1 ч. 57 м.
Вид битрейта : Постоянный
Битрейт : 192 Кбит/сек
Каналы : 2 канала
Расположение каналов : Front: L R
Частота : 48,0 КГц
Частота кадров : 31,250 кадров/сек (1536 SPF)
Битовая глубина : 16 бит
Метод сжатия : С потерями
Размер потока : 161 Мбайт (1%)
Заголовок : Commentary with Director Ridley Scott
Язык : English
ServiceKind/String : Complete Main
Default : Нет
Forced : Нет
Аудио #14
Идентификатор : 15
Формат : AC-3
Формат/Информация : Audio Coding 3
Идентификатор кодека : A_AC3
Продолжительность : 1 ч. 57 м.
Вид битрейта : Постоянный
Битрейт : 192 Кбит/сек
Каналы : 2 канала
Расположение каналов : Front: L R
Частота : 48,0 КГц
Частота кадров : 31,250 кадров/сек (1536 SPF)
Битовая глубина : 16 бит
Метод сжатия : С потерями
Размер потока : 161 Мбайт (1%)
Заголовок : Commentary with crew members Hampton Fancher, David Peoples, Michael Deely and Katherine Haber
Язык : English
ServiceKind/String : Complete Main
Default : Нет
Forced : Нет
Аудио #15
Идентификатор : 16
Формат : AC-3
Формат/Информация : Audio Coding 3
Идентификатор кодека : A_AC3
Продолжительность : 1 ч. 57 м.
Вид битрейта : Постоянный
Битрейт : 192 Кбит/сек
Каналы : 2 канала
Расположение каналов : Front: L R
Частота : 48,0 КГц
Частота кадров : 31,250 кадров/сек (1536 SPF)
Битовая глубина : 16 бит
Метод сжатия : С потерями
Размер потока : 161 Мбайт (1%)
Заголовок : Commentary with crew members Syd Mead, G. Paull, David L. Snyder, Douglas Trumbull, Richard Yuricich and David Dryer
Язык : English
ServiceKind/String : Complete Main
Default : Нет
Forced : Нет
Текст #1
Идентификатор : 17
Формат : UTF-8
Идентификатор кодека : S_TEXT/UTF8
Идентификатор кодека/Информация : UTF-8 Plain Text
Продолжительность : 1 ч. 52 м.
Битрейт : 46 бит/сек
ElementCount : 786
Размер потока : 38,6 Кбайт (0%)
Язык : Russian
Default : Нет
Forced : Нет
Текст #2
Идентификатор : 18
Формат : UTF-8
Идентификатор кодека : S_TEXT/UTF8
Идентификатор кодека/Информация : UTF-8 Plain Text
Продолжительность : 1 ч. 47 м.
Битрейт : 28 бит/сек
ElementCount : 808
Размер потока : 22,8 Кбайт (0%)
Язык : English
Default : Нет
Forced : Нет
Текст #3
Идентификатор : 19
Формат : UTF-8
Идентификатор кодека : S_TEXT/UTF8
Идентификатор кодека/Информация : UTF-8 Plain Text
Продолжительность : 1 ч. 52 м.
Битрейт : 30 бит/сек
ElementCount : 895
Размер потока : 25,3 Кбайт (0%)
Заголовок : SDH
Язык : English
Default : Нет
Forced : Нет
Меню
00:00:00.000 : en:Credits and Forward
00:02:58.178 : en:Eye on the City
00:04:31.980 : en:Leon's Emotional Response
00:07:26.112 : en:Street Scene; Interrupted Sushi
00:11:18.261 : en:The Old Blade Runner Magic
00:12:58.569 : en:The Replicants in Question
00:16:58.184 : en:Rachael; the Voight-Kampff Test
00:22:38.816 : en:Leon's Apartment
00:25:04.878 : en:Chew's Visitors
00:27:58.343 : en:If Only You Could See...
00:30:21.486 : en:A Visitor with Someone Else's Memories
00:36:19.177 : en:Pris Meets Sebastian
00:41:30.321 : en:Deckard's Dream
00:42:24.000 : en:Computer Photo Scan
00:45:56.337 : en:Manufactured Skin
00:48:44.463 : en:Miss Salome's Dressing Room
00:55:18.899 : en:Pursuing Zhora
00:57:27.277 : en:Retirement...Witnessed
00:59:44.998 : en:How Many to Go?
01:01:49.414 : en:Wake Up. Time to Die.
01:03:17.002 : en:I Am the Business. I Owe You One.
01:07:44.394 : en:The Real Thing?
01:12:39.522 : en:There's Only Two of Us Now.
01:16:13.527 : en:We Need You, Sebastian.
01:20:12.474 : en:The Right Moves
01:22:34.533 : en:The Prodigal Son Brings Death
01:27:07.514 : en:No Way to Treat a Friend
01:28:45.237 : en:Death Among the Menagerie
01:34:02.220 : en:Proud of Yourself, Little Man?
01:36:54.308 : en:Wounded Animals
01:41:12.316 : en:The Building Ledge
01:42:37.276 : en:The Roof
01:44:31.807 : en:To Live in Fear
01:45:56.267 : en:Like Tears in Rain. But Then Again, Who Does?
01:49:04.496 : en:Souvenir of Dreams
01:52:21.735 : en:End Credits
Скриншоты
Зарегистрирован:
  • 26-Июн-18 13:53
  • Скачан: 2,165 раз

Скачать .torrent

75 KB

Тип: обычная
Статус: * не проверено
Размер: 29.69 GB  ·  magnetC55DE20E2B9FD6A12FADB63B076F18A58E9CA175
  • Свернуть поддиректории
  • Развернуть
  • Переключить
  • Увел./умен. окно
загружается...

G00ba

RG Orient Extreme

Стаж: 7 лет 5 месяцев

Сообщений: 4817

G00ba · 14-Апр-18 22:54 (спустя 1 час 11 мин.)

Secrets
звуковые дорожки из хдклабного рипа?
Мисс Таггарт, кто такой Джон Голт? (E1 & E2)Когда миссия подходит к концу - даже беспредел допускается

truboz

Стаж: 9 лет 3 месяца

Сообщений: 196

flag

truboz · 09-Июн-18 20:23 (спустя 1 месяц 24 дня)

Secrets
Спасибо! Гораздо лучше обычного 1080p рипа.

zx_tracker2.0

Стаж: 6 лет 7 месяцев

Сообщений: 168


zx_tracker2.0 · 13-Июл-18 00:44 (спустя 1 месяц 3 дня, ред. 13-Июл-18 00:44)

Похожа, эта раздача - самая оптимальная из всех остальных, представленных на сегодняшний день
на сайте в категории ''The final cut, BDRip-1080p'' именно по этому фильму.
Спасибо.

Sergy.K

Стаж: 7 лет 4 месяца

Сообщений: 74

flag

Sergy.K · 29-Июл-18 22:19 (спустя 16 дней)

Зарегистрирован: 1 месяц 3 дня ,Статус: * не проверено .Как так-то?

Obojdi

Стаж: 9 лет 4 месяца

Сообщений: 68

flag

Obojdi · 27-Авг-18 20:39 (спустя 28 дней)

truboz блин, этот весит 30 тонн, а тот всего 10, неужели качество лучше аж в три раза? Сомневаюсь. тем более, что в этом фильме главное содержание, а картинка и музыка на втором плане, но тоже крутые.
itakdalee

арефьев андрюха

Стаж: 8 лет 4 месяца

Сообщений: 16

flag

арефьев андрюха · 28-Сен-18 18:10 (спустя 1 месяц)

Obojdi//... этот весит 30 тонн, -- этот фильм стОит своих 30-ть тонн!!! Фильм КЛАССИКА фантастики на все времена. "Мечтают ли андроиды об электроовцах" Филип Дик .Хотя сюжет фильма от книги очень отличается,но сама идея(канва,мысль...) есть очень глубоко.

nirvana_inme

Стаж: 9 лет 6 месяцев

Сообщений: 109

flag

nirvana_inme · 13-Ноя-18 01:40 (спустя 1 месяц 14 дней)

перевод гоблина встречал кто нибудь?

BATbKAofBY

Стаж: 6 лет 11 месяцев

Сообщений: 3

flag

BATbKAofBY · 17-Ноя-18 19:04 (спустя 4 дня)

Obojdi писал(а):
75871154truboz блин, этот весит 30 тонн, а тот всего 10, неужели качество лучше аж в три раза? Сомневаюсь. тем более, что в этом фильме главное содержание, а картинка и музыка на втором плане, но тоже крутые.
вообще если глянешь в info то всё поймешь, видео весит 19.5 г, а остальное аудиодорожки , а их там 15

PhotoGraff.spb

Стаж: 8 лет 3 месяца

Сообщений: 77

flag

PhotoGraff.spb · 27-Ноя-18 21:12 (спустя 10 дней)

Да, можно было дорожки отдельным файлом..)
Goa, Bali, Piter, New York, Los Angeles

_K.E.N.T_

Стаж: 8 лет 10 месяцев

Сообщений: 31

flag

_K.E.N.T_ · 06-Дек-18 01:28 (спустя 8 дней)

ок

toxinrus

Стаж: 8 лет 9 месяцев

Сообщений: 36

flag

toxinrus · 09-Дек-18 07:52 (спустя 3 дня, ред. 09-Дек-18 07:52)

PhotoGraff.spb писал(а):
76397180Да, можно было дорожки отдельным файлом..)
А вот мне гораздо удобнее, когда всё в одном. Максимум, я могу понять, если только менее качественные/менее популярные одноголоски отдельно выкладывать, но все основные и качественные переводы, и уж тем более оригинал – лучше в основном файле.
 
All rights reserved © 2017-2018
Loading...
Error