В другом мире со смартфоном / Isekai wa Smartphone to Tomo ni / In Another World With My Smartphone [TV] [12 из 12] [Без хардсаба] [RUS(ext), JAP, SUB] [2017, Приключения, Гарем, Комедия, Романтика, Фэнтези, BDRip] [720p]

Статистика раздачи
Размер:  4.08 GB   |   Зарегистрирован:  7 месяцев   |   .torrent скачан:  431 раз
Сиды:  2   Личи:  3
Автор
Сообщение

Страник 2.0

Стаж: 7 лет 11 месяцев

Сообщений: 1064

flag

Страник 2.0 · 21-Апр-18 14:39 (7 месяцев назад)

 

В другом мире со смартфоном / Isekai wa Smartphone to Tomo ni / In Another World With My Smartphone / 異世界はスマートフォンとともに。


Страна: Япония
Год выпуска: 2017 г.
Жанр: Приключения, Гарем, Комедия, Романтика, Фэнтези
Тип: TV
Продолжительность: 12 эпизодов по ~24 минуты
Режиссер: Янасэ Хироюки
Студия: Production Reed


Перевод:
Русские субтитры: SovetRomantica
Переводчик: Alvakarp
Редактор: Akira
Русские субтитры:
Переводчик: Keitaro
Русские субтитры: AniPlay
Переводчик: Loulka (эп. 01-09), OniManGE (эп. 03-04), mudro (эп. 10-12)
Редактор: Octupus (эп. 01-04, 12), Kaktus_chan (эп. 05-11)
Озвучка:
- многоголосый: KANSAI Studio - Semple
За подгонку озвучки под BD спасибо MoscowGolem


Описание : Если вы думаете, что Бог непогрешим, всемогущ и всегда прав, то это аниме заставит вас в этом разувериться. Даже боги не застрахованы от ошибок! Всё же, работа у них сложная, круглосуточная и без выходных, за каждым человеком попробуй-ка уследи. Ещё и желания всякие требуют исполнять, а молоко за вредность не дают! Вот и идёт голова кругом от этих неутомимых верующих.
Смерть паренька по имени Мочизуки Тоя стала неожиданностью для всех, в том числе и для самого Бога. Вернуть всё, как было, он не может, а вину свою перед парнем загладить хоть как-то, но надо. Поэтому и предложил Бог Тое сделку: он отправляет его в параллельный фантастический мир, делает парня умнее, сильнее, да ещё и магией вдобавок снабжает. А вишенкой на торте становится возможность взять с собой смартфон! Вот это да! Тоя не смог устоять перед предложением и отправился на пару со своим мобильным другом навстречу приключениям! В новом мире он знакомится с многими влиятельными людьми и даже обретает наследие древней цивилизации. Вот вам и жизнь после смерти...


world-art | AniDB | MyAnimeList | Офиц. Сайт


Автор рипа : Ohys-Raws
Качество: BDRip ([Ohys-Raws] Isekai wa Smartphone to Tomo ni. (BD 1280x720 x264 AAC))
Тип релиза: Без хардсаба
Формат видео: mp4
Наличие линковки: Нет
Видео: AVC, 1280x720 (16:9), 1404 kbps, 23.976 fps, 8bit
Аудио : Японский, AAC, 205 Кбит/с, 48.0 kHz, 2 ch (в составе контейнера)
Аудио : Японский, AAC, 183 Кбит/с, 48.0 kHz, 2 ch (в составе контейнера) - комментарии [эп. 03, 05, 09, 12]
Аудио: Русский, AC3, 192 Кбит/с, 48.0 kHz, 2 ch (внешним файлам)
Субтитры (ASS): Русские (внешними файлами)
Субтитры (ASS): Английские (внешними файлами) - Перевод: Crunchyroll [HorribleSubs]


Названия эпизодов

01. Пробуждение в Другом Мире / Awakening, and Another World
02. Первое Путешествие и Самурай / First Journey, and Samurai
03. Доска Сёги и Подземные Руины / Shougi Board, and Underground Ruins
04. Участие, и Неприглашённый Гость / Engagement, and an Uninvited Guest
05. Замок Слизней и Новая Способность / Slime Castle, and a New Function
06. Переезд и Дракон / Moving, and a Dragon
07. Страна Зверолюдей и Наблюдатель / Nation of Beastmen, and an Observer
08. Повседневность и Путь в Исэн / Daily Life, and Onward to Eashen
09. Оэдо и Камень Бессмертия / Oedo, and the Immortal Gem
10. Океан и Отдых / Ocean, and Vacations
11. Трусики и Небесный Сад / Panties, and an Aerial Garden
12. Решения и Мой Смартфон / Decisions, and with My Smartphone
Скриншоты
MediaInfo
General
Complete name : E:/Torrent_2/Isekai wa Smartphone to Tomo ni (2017, BDRip-720p, RUS JAP+SUB [Rus Eng])/Isekai wa Smartphone to Tomo ni. - 01 (BD 1280x720 x264 AAC).mp4
Format : MPEG-4
Format profile : Base Media
Codec ID : isom
File size : 274 MiB
Duration : 23mn 41s
Overall bit rate : 1 617 Kbps
Encoded date : UTC 2018-02-03 03:29:01
Tagged date : UTC 2018-02-03 03:29:01
Writing application : ShanaEncoder
Video #1
ID : 1
Format : AVC
Format/Info : Advanced Video Codec
Format profile : Main@L4.1
Format settings, CABAC : Yes
Format settings, ReFrames : 4 frames
Codec ID : avc1
Codec ID/Info : Advanced Video Coding
Duration : 23mn 41s
Bit rate : 1 404 Kbps
Width : 1 280 pixels
Height : 720 pixels
Display aspect ratio : 16:9
Frame rate mode : Variable
Frame rate : 23.976 fps
Minimum frame rate : 23.564 fps
Maximum frame rate : 24.390 fps
Color space : YUV
Chroma subsampling : 4:2:0
Bit depth : 8 bits
Scan type : Progressive
Bits/(Pixel*Frame) : 0.064
Stream size : 238 MiB (87%)
Writing library : x264 core 155 r2867+74 66b5600 t_mod_Custom_2 [8-bit@all X86_64]
Encoding settings : cabac=1 / ref=3 / deblock=1:0:0 / analyse=0x1:0x131 / me=umh / subme=9 / psy=1 / fade_compensate=0.00 / psy_rd=1.00:0.00 / mixed_ref=1 / me_range=32 / chroma_me=1 / trellis=1 / 8x8dct=0 / cqm=0 / deadzone=21,11 / fast_pskip=1 / chroma_qp_offset=-2 / threads=18 / lookahead_threads=1 / sliced_threads=0 / nr=0 / decimate=1 / interlaced=0 / bluray_compat=0 / constrained_intra=0 / fgo=0 / bframes=3 / b_pyramid=2 / b_adapt=1 / b_bias=0 / direct=1 / weightb=1 / open_gop=0 / weightp=2 / keyint=240 / keyint_min=1 / scenecut=40 / intra_refresh=0 / rc_lookahead=40 / rc=crf / mbtree=1 / crf=18.0000 / qcomp=0.60 / qpmin=0:0:0 / qpmax=69:69:69 / qpstep=4 / ip_ratio=1.40 / aq=1:1.00 / aq-sensitivity=10.00 / aq-factor=1.00:1.00:1.00 / aq2=0 / aq3=0
Encoded date : UTC 2018-02-03 03:29:01
Tagged date : UTC 2018-02-03 03:29:01
Audio #2
ID : 2
Format : AAC
Format/Info : Advanced Audio Codec
Format profile : LC
Codec ID : 40
Duration : 23mn 41s
Bit rate mode : Constant
Bit rate : 205 Kbps
Channel(s) : 2 channels
Channel positions : Front: L R
Sampling rate : 48.0 KHz
Compression mode : Lossy
Stream size : 34.7 MiB (13%)
Encoded date : UTC 2018-02-03 03:29:01
Tagged date : UTC 2018-02-03 03:29:01
Отличия от других раздач
MERDOK - http://GOSTRACKER.XYZ/viewtopic.php?t=5427543 - BDRip, наличие русской озвучки
Страник 2.0 - http://GOSTRACKER.XYZ/viewtopic.php?t=5550238 - 720p, альтернативная озвучка
pcab1829 - http://GOSTRACKER.XYZ/viewtopic.php?t=5427679 - BDRip, альтернативная озвучка

Моя максимальная скорость отдачи 100КБ/c
Раздаю с 7:00 до 00:00 по Москве

Зарегистрирован:
  • 21-Апр-18 14:39
  • Скачан: 431 раз

Скачать .torrent

19 KB

Тип: обычная
Статус: T временная
Размер: 4.08 GB  ·  magnetA34D7B296E64B1E9674EBE41CAA6CC5D2019D86F
  • Свернуть поддиректории
  • Развернуть
  • Переключить
  • Увел./умен. окно
загружается...

Zаbr

Помощник модератора

Стаж: 4 года 9 месяцев

Сообщений: 3090

flag

Zаbr · 23-Апр-18 15:46 (спустя 2 дня 1 час)

Страник 2.0 писал(а):
75218335Студия: Ashi Productions
уже лет 10 как название сменила на Production Reed, исправил
Tвременная
Практически полностью отсутствую. Все будет как только, так сразу.


Finally done: Rewrite (Full), Fairy Tail (TV 2), Umaru (TV 2)
Hot ongoings: Gintama (TV 5), Souma (OVA)
Plan to do: Sister Princess (Full), Galaxy Angel (Full), Aria (Full), Bakuman (Full)
мои раздачи

Страник 2.0

Стаж: 7 лет 11 месяцев

Сообщений: 1064

flag

Страник 2.0 · 23-Апр-18 18:22 (спустя 2 часа 35 мин., ред. 23-Апр-18 18:22)

Zаbr
Название брал здесь - http://www.world-art.ru/company.php?id=244. Не заметил стоку о смене названия)))

 
All rights reserved © 2017-2018
Loading...
Error