Metallica - Quebec Magnetic (Уэйн Айшем) [2012, США, музыка, концерт, WEB-DL, HD (720p)]

Автор
Сообщение

kolia.one

Стаж: 8 лет 2 месяца

Сообщений: 71

flag

kolia.one · 29-Май-18 23:09 (5 месяцев 21 день назад, ред. 30-Май-18 00:21)

 


Год выпуска: 2012
Страна: США
Издатель (лейбл): Blackened Recordings, under exclusive licence to Universal Music International BV
Жанр: музыка, концерт
Продолжительность: 03:05:31
Перевод: Не требуется
Субтитры: отсутствуют
Режиссёр: Уэйн Айшем
Продюсер: Дана Маршалл
В ролях: Джеймс Хетфилд, Ларс Ульрих, Кирк Хеммет, Роберт Трухильо
Описание:
Quebec Magnetic - концертный видео-альбом американской трэш-метал-группы Metallica, который представляет собой два концерта, которые группа провела в Colisée Pepsi в Квебеке, Канада, 31 октября и 1 ноября 2009 года в рамках World Magnetic Tour. Релиз альбома состоялся 11 декабря 2012 года.
Треклист:
01 Ecstasy of Gold
02 That Was Just Your Life
03 The End Of The Line
04 The Four Horsemen
05 The Shortest Straw
06 One
07 Broken, Beat & Scarred
08 My Apocalypse
09 Sad But True
10 Welcome Home (Sanitarium)
11 The Judas Kiss
12 The Day That Never Comes
13 Master of Puppets
14 Battery
15 Nothing Else Matters
16 Enter Sandman
17 Killing Time
...продолжение
18 Whiplash
19 Seek & Destroy
20 Credits
21 For Whom The Bell Tolls (live)
22 Holier Than Thou (live)
23 Cyanide (live)
24 Turn The Page (live)
25 All Nightmare Long (live)
26 Damage, Inc. (live)
27 Breadfan (live)
28 Phantom Lord (live)
29 Quebec City Love Letters (video)
Качество исходника: WEB-DL (iTunes)
Тип: HD (720p)
Формат: M4V
Главы (разбиение по трекам): есть
Видео: 960x718 анаморф 1280x718 29.97 fps, MPEG-4 AVC, ~4263kbps
Аудио#1: English: 48 kHz, ААС, 2/0 (L,R), ~160.00 kbps
Аудио#2: English: 48 kHz, AC3, 3/2 (L,C,R,l,r) + LFE ch, ~384kbps
MediaInfo

General
Complete name : D:\Видеозаписи\Metallica - Quebec Magnetic (HD) (2012).m4v
Format : MPEG-4
Codec ID : M4V (M4V /mp42/isom)
File size : 6.25 GiB
Duration : 3 h 5 min
Overall bit rate mode : Variable
Overall bit rate : 4 821 kb/s
Season : 0
Movie name : Quebec Magnetic
Part : 0
Performer : Metallica
Director : Wayne Isham
Actor : Metallica
Producer : Dana Marshall
Production studio : Metallica
Genre : Concert Films
ContentType : Short Film
Description : The "final nail" in the Death Magnetic coffin: Metallica brings you Quebec Magnetic, filmed in
Recorded date : 2012
Encoded date : UTC 2012-12-06 20:05:43
Tagged date : UTC 2012-12-06 20:09:08
Copyright : © 2009 Metallica
Cover : Yes
AppleStoreAccount : music@iplus4u.com
AppleStoreCatalogID : 583685880
AlbumTitleID : 3996865
GenreID : 4422
AppleStoreCountry : United States
HDVideo : Yes
PurchaseDate : 2012-12-15 18:02:48
Vendor : blackenedrecordings:upc:856115004002
Flavour : 7:720p
ContentRating : mpaa|NR|0|
LongDescription : The "final nail" in the Death Magnetic coffin: Metallica brings you Quebec Magnetic, filmed in Quebec City, Quebec over Halloween weekend of 2009 during the band's sold out World Magnetic tour. Directed by Wayne Isham (who's previous work includes Metallica longform concerts "S&M", "Cunning Stunts", and "Live S**t: Binge & Purge", among others), "Quebec Magnetic" captures a band at a peak moment in their illustrious career. Main Feature: That Was Just Your Life, The End Of The Line, The Four Horsemen, The Shortest Straw, One, Broken, Beat & Scarred, My Apocalypse, Sad But True, Welcome Home (Sanitarium), The Judas Kiss, The Day That Never Comes, Master of Puppets, Battery, Nothing Else Matters, Enter Sandman, Killing Time, Whiplash, Seek & Destroy Bonus Footage (plays after Main Concert): For Whom the Bell Tolls, Holier Than Thou, Cyanide, Turn the Page, All Nightmare Long, Damage, Inc., Breadfan, Phantom Lord, plus Quebec City Love Letters, featuring behind the scenes band and fan interviews.
copy-warning : FBI ANTI-PIRACY WARNING: UNAUTHORIZED COPYING IS PUNISHABLE UNDER FEDERAL LAW.
Title/Sort : www.iplusfree.com
Video #1
ID : 1
Format : AVC
Format/Info : Advanced Video Codec
Format profile : Main@L3.1
Format settings : 2 Ref Frames
Format settings, CABAC : No
Format settings, ReFrames : 2 frames
Format settings, GOP : N=1
Codec ID : avc1
Codec ID/Info : Advanced Video Coding
Duration : 3 h 5 min
Bit rate : 4 264 kb/s
Width : 960 pixels
Height : 718 pixels
Display aspect ratio : 16:9
Frame rate mode : Constant
Frame rate : 29.970 (29970/1000) FPS
Color space : YUV
Chroma subsampling : 4:2:0
Bit depth : 8 bits
Scan type : Progressive
Bits/(Pixel*Frame) : 0.206
Stream size : 5.52 GiB (88%)
Language : English
Encoded date : UTC 2012-12-06 20:05:34
Tagged date : UTC 2012-12-06 20:09:08
Color range : Limited
Color primaries : BT.709
Transfer characteristics : BT.709
Matrix coefficients : BT.709
Video #2
ID : 5
Format : JPEG
Codec ID : jpeg
Duration : 3 h 5 min
Bit rate mode : Variable
Bit rate : 6 491 b/s
Width : 640 pixels
Height : 360 pixels
Display aspect ratio : 1.85:1
Frame rate mode : Variable
Frame rate : 0.003 FPS
Minimum frame rate : 0.002 FPS
Maximum frame rate : 0.010 FPS
Color space : YUV
Chroma subsampling : 4:4:4
Bit depth : 8 bits
Compression mode : Lossy
Bits/(Pixel*Frame) : 9.391
Stream size : 7.48 MiB (0%)
Language : English
Default : No
Encoded date : UTC 2012-12-06 20:05:34
Tagged date : UTC 2012-12-06 20:09:08
Menu For : 2,3
ColorSpace_ICC : RGB
Audio #1
ID : 2
Format : AAC
Format/Info : Advanced Audio Codec
Format profile : LC
Codec ID : mp4a-40-2
Duration : 3 h 5 min
Source duration : 3 h 5 min
Bit rate mode : Constant
Bit rate : 160 kb/s
Channel(s) : 2 channels
Channel positions : Front: L R
Sampling rate : 48.0 kHz
Frame rate : 46.875 FPS (1024 SPF)
Compression mode : Lossy
Stream size : 213 MiB (3%)
Source stream size : 213 MiB (3%)
Language : English
Default : Yes
Alternate group : 1
Encoded date : UTC 2012-12-06 20:05:34
Tagged date : UTC 2012-12-06 20:09:08
Fallback From : 3
Menus : 4,5
Audio #2
ID : 3
Format : AC-3
Format/Info : Audio Coding 3
Codec ID : ac-3
Duration : 3 h 5 min
Source duration : 3 h 5 min
Bit rate mode : Constant
Bit rate : 384 kb/s
Channel(s) : 6 channels
Channel positions : Front: L C R, Side: L R, LFE
Sampling rate : 48.0 kHz
Frame rate : 31.250 FPS (1536 SPF)
Bit depth : 16 bits
Compression mode : Lossy
Stream size : 510 MiB (8%)
Source stream size : 510 MiB (8%)
Language : English
Service kind : Complete Main
Default : Inherited From: 2
Alternate group : 1
Encoded date : UTC 2012-12-06 20:05:34
Tagged date : UTC 2012-12-06 20:09:08
Fallback To : 2
Menus : 4,5
Menu
ID : 4
Codec ID : tx3g
Duration : 3 h 5 min
Language : English
Encoded date : UTC 2012-12-06 20:05:34
Tagged date : UTC 2012-12-06 20:09:08
Menu For : 2,3
00:00:00.000 : Ecstasy of Gold
00:01:36.000 : That Was Just Your Life
00:08:44.000 : The End Of The Line
00:16:57.000 : The Four Horsemen
00:22:06.000 : The Shortest Straw
00:28:07.000 : One
00:38:05.000 : Broken, Beat & Scarred
00:44:28.000 : My Apocalypse
00:51:21.000 : Sad But True
00:57:13.000 : Welcome Home (Sanitarium)
01:03:23.000 : The Judas Kiss
01:13:11.000 : The Day That Never Comes
01:21:08.000 : Master of Puppets
01:29:16.000 : Battery
01:36:22.000 : Nothing Else Matters
01:42:07.000 : Enter Sandman
01:50:58.000 : Killing Time
01:53:53.000 : Whiplash
02:00:58.000 : Seek & Destroy
02:08:09.000 : Credits
02:15:51.000 : For Whom The Bell Tolls (live)
02:20:15.000 : Holier Than Thou (live)
02:24:15.000 : Cyanide (live)
02:31:00.000 : Turn The Page (live)
02:36:18.000 : All Nightmare Long (live)
02:44:08.000 : Damage, Inc. (live)
02:49:28.000 : Breadfan (live)
02:53:35.000 : Phantom Lord (live)
02:57:18.000 : Quebec City Love Letters (video)
Bit rate mode : VBR
Скриншоты
Зарегистрирован:
  • 29-Май-18 23:09
  • Скачан: 21 раз

Скачать .torrent

31 KB

Тип: обычная
Статус: ! не оформлено
Размер: 6.25 GB  ·  4212B92D3BEE2D8069C58334C0BC09AE13007D17
  • Свернуть поддиректории
  • Развернуть
  • Переключить
  • Увел./умен. окно
загружается...

yv_apple

Moderator

Стаж: 8 лет 5 месяцев

Сообщений: 5559

flag

yv_apple · 06-Авг-18 14:10 (спустя 2 месяца 7 дней)

kolia.one
Скиншоты проведите к тому что описано в МИ.
 
All rights reserved © 2017-2018
Loading...
Error