Цитрус / Citrus [TV] [12 из 12] [Без хардсаба] [RUS(ext), JAP+SUB] [2018, драма, романтика, школа, сёдзе-ай, BDRip] [1080p]

Статистика раздачи
Размер:  15.97 GB   |   Зарегистрирован:  29 дней   |   .torrent скачан:  79 раз
Сиды:  5
Автор
Сообщение

skyclean

Top Bonus 03* 1TB

Стаж: 5 лет 6 месяцев

Сообщений: 354

skyclean · 01-Июл-18 21:02 (5 месяцев 13 дней назад, ред. 15-Ноя-18 18:29)

 


Страна: Япония
Год выпуска:
2018
Жанр: драма, романтика, школа, сёдзё-ай
Тип: TV | Продолжительность: 12 эп. по ~25 мин.
Выпуск: c 06.01.2018 по 24.03.2018
Рейтинг: PG-13
Озвучка: #1 Многоголосая от [KANSAI]
Перевод:
  1. Субтитры от [laci & Ryuji] (полные) | .ass, внешние;
    Переводчик: Ryuji | Редактор: laci
  2. Субтитры от [Undokaktyz] (полные) | .ass, внешние;
  3. Субтитры от [Crunchyroll] (полные/надписи) | .ass, внешние;
Тайминг субтитров под BDRip: Skyclean
Режиссер: Такахаси Такэо
Студия:
Описание: Красавица Юзу Аихара много раз представляла свой первый день в новой старшей школе. Перевелась она сюда из-за матери, которая второй раз вышла замуж. Им пришлось переехать в дом её молодого человека.
Юзу не знала, в какую школу попадёт... Ей очень хотелось найти там парня и вести нормальную школьную жизнь. И всё вроде идёт спокойно в её жизни, пока она не встречает Мэй Аихару — президента студенческого совета и по совместительству её сводную сестру.
Юзу кажется, что её новая сестра очень странная, ведь та испытывает к ней романтический интерес. Это пугает героиню. Но вскоре девушка понимает, что и сама привязалась к своей сестрёнке. И тут на их пути встаёт та, кто способна разрушить только начавшиеся отношения — Мацури Мизусава, подруга детства Юзу, которая никому не собирается отдавать свою любовь. Что же им предстоит делать втроём?

Доп. информация: World-art | AniDB
Качество: BDRip | Автор рипа: Jensen & DJATOM [Beatrice-Raws]
Тип релиза: Без хардсаба, без линковки
Формат видео: MKV
Видео: x264; MPEG4; 1920x1080; 6716 Кбит/сек; 23,976 кадра/сек; (Hi10P)
Аудио: JAP(int); FLAC; 656 Кбит/сек; 48,0 КГц; 2 канала
Аудио 1: RUS(ext); AAC, 48.0 КГц, 253 Кбит/сек, 2 канала - Озвучку предоставил - DS29028888
Аудио 2: JAP(ext); FLAC; 510 Кбит/сек; 48,0 КГц; 2 канала - [Commentary]
Подробные тех. данные
Общее
Уникальный идентификатор : 274665048527622804209652893273161892669 (0xCEA2906D06721A6E64BAB3D8A432833D)
Полное имя : D:\Film\[Beatrice-Raws] Citrus (Vol.1-3) [BDRip 1920x1080 x264 FLAC]_rev\[Beatrice-Raws] Citrus 01 [BDRip 1920x1080 x264 FLAC].mkv
Формат : Matroska
Версия формата : Version 4 / Version 2
Размер файла : 1,22 Гбайт
Продолжительность : 23 м. 41 с.
Режим общего битрейта : Переменный
Общий поток : 7374 Кбит/сек
Дата кодирования : UTC 2018-06-13 14:03:55
Программа кодирования : mkvmerge v23.0.0 ('The Bride Said No') 64-bit
Библиотека кодирования : libebml v1.3.6 + libmatroska v1.4.9
Видео
Идентификатор : 1
Формат : AVC
Формат/Информация : Advanced Video Codec
Профиль формата : High 10@L5
Настройки формата : CABAC / 4 Ref Frames
Параметр CABAC формата : Да
Параметр RefFrames формата : 4 кадра
Идентификатор кодека : V_MPEG4/ISO/AVC
Продолжительность : 23 м. 41 с.
Битрейт : 6716 Кбит/сек
Ширина : 1920 пикселей
Высота : 1080 пикселей
Соотношение сторон : 16:9
Режим частоты кадров : Постоянный
Частота кадров : 23,976 (24000/1001) кадра/сек
Цветовое пространство : YUV
Субдискретизация насыщенности : 4:2:0
Битовая глубина : 10 бит
Тип развёртки : Прогрессивная
Бит/(Пиксели*Кадры) : 0.135
Размер потока : 1,11 Гбайт (91%)
Заголовок : BDRip by Jensen & DJATOM
Библиотека кодирования : x264 core 155 r2901M 7d0ff22 (DJATOM's mod)
Настройки программы : cabac=1 / ref=4 / deblock=1:1:-1 / analyse=0x3:0x113 / me=umh / subme=9 / psy=1 / fade_compensate=0.00 / psy_rd=1.00:0.00 / mixed_ref=1 / me_range=32 / chroma_me=1 / trellis=2 / 8x8dct=1 / cqm=0 / deadzone=21,11 / fast_pskip=1 / chroma_qp_offset=-2 / threads=34 / lookahead_threads=5 / sliced_threads=0 / nr=0 / decimate=1 / interlaced=0 / bluray_compat=0 / constrained_intra=0 / bframes=9 / b_pyramid=2 / b_adapt=2 / b_bias=0 / direct=1 / weightb=1 / open_gop=0 / weightp=2 / keyint=240 / keyint_min=23 / scenecut=40 / intra_refresh=0 / rc=crf / mbtree=0 / crf=14.7000 / qcomp=0.72 / qpmin=0 / qpmax=81 / qpstep=4 / ip_ratio=1.40 / pb_ratio=1.30 / aq=1:0.85
Язык : Japanese
Default : Да
Forced : Нет
Цветовой диапазон : Limited
Основные цвета : BT.709
Характеристики трансфера : BT.709
Коэффициенты матрицы : BT.709
Аудио
Идентификатор : 2
Формат : FLAC
Формат/Информация : Free Lossless Audio Codec
Идентификатор кодека : A_FLAC
Продолжительность : 23 м. 41 с.
Вид битрейта : Переменный
Битрейт : 656 Кбит/сек
Каналы : 2 канала
Расположение каналов : Front: L R
Частота : 48,0 КГц
Частота кадров : 11,719 кадров/сек (4096 SPF)
Битовая глубина : 16 бит
Размер потока : 111 Мбайт (9%)
Библиотека кодирования : libFLAC 1.3.1 (UTC 2014-11-25)
Язык : Japanese
Default : Да
Forced : Нет
Меню
00:00:00.000 : en:Avant
00:00:37.037 : en:OP
00:02:07.001 : en:Part A
00:12:30.040 : en:Part B
00:21:55.022 : en:ED
00:23:25.028 : en:Next
Список эпизодов
01. Love Affair!? \ Любовная связь?!
02. One`s First Love \ Первая любовь
03. Sisterly love? \ Сестринская любовь?
04. love me do! \ Люби же меня!
05. Under lover \ Тайная возлюбленная
06. Out of Love \ Из-за любви
07. Love or Lie! \ Любовь или ложь!
08. War of Love \ Любовная война
09. love is \ Любовь - это
10. Winter of Love \ Зима любви
11. Love You Only \ Люблю только тебя
12. My Love Goes On and On \ Моя любовь всё не проходит
Скриншоты
Зарегистрирован:
  • 15-Ноя-18 18:05
  • Скачан: 79 раз

Скачать .torrent

51 KB

Тип: обычная
Статус: T временная
Размер: 15.97 GB  ·  magnet62498F854D1BB6603CD76A42DB72B879EF821755
  • Свернуть поддиректории
  • Развернуть
  • Переключить
  • Увел./умен. окно
загружается...

~_~ Плыву...

skyclean

Top Bonus 03* 1TB

Стаж: 5 лет 6 месяцев

Сообщений: 354

skyclean · 16-Июл-18 14:31 (спустя 14 дней, ред. 16-Июл-18 14:31)

Альт. постеры
Добавлены 10-12 эпизоды + доп. материалы.

~_~ Плыву...

essay_odystea

Стаж: 5 лет 5 месяцев

Сообщений: 58

flag

essay_odystea · 18-Июл-18 00:02 (спустя 1 день 9 часов)

T временная — согл. гл. 11, KANSAI — студия дабберов из "синего" списка.
проверено - б/о
Horodep

эх, если юри в названии нет, смотреть не интересно...
Не вся ипотека распилена, братцы, Не все иномарки раздали в кредит. Работай, манагер, не смей расслабляться, Не то твой коллега тебя перебдит!
Мендокуссеееееееееееээээ!!!
Труд нужен человеку, но только тот, который его зажигает. Без него это не жизнь, а ее сублимация. Если для поиска такой деятельности понадобится 10 лет, все равно нужно ее искать.

Dante8899

Стаж: 5 лет

Сообщений: 2359

Dante8899 · 18-Июл-18 00:13 (спустя 10 мин.)

essay_odystea
Можно подумать, если релизёр напишет в названии "юри" - тебе сразу станет интересно. Ты ошибся трекером. Порнолаб по другому адресу.

kokocbl

Стаж: 5 лет

Сообщений: 27

flag

kokocbl · 26-Авг-18 23:06 (спустя 1 месяц 8 дней)

если кто-то тут начнёт говорить, что ему не нравится изврат на картинке вместо постера... Вы, дорогие мои, бессовестные люди абсолютно, не понимающие принципов функционирования интернета. у меня так горела задница, когда я читал в какой-то теме обсуждение что кому-то это не нравится... кто-то смотрит и им нравится, а кто-то просто крутит вниз и ищет постер сам в интернете. так-то

Николай240291

Стаж: 3 года 10 месяцев

Сообщений: 16

flag

Николай240291 · 12-Ноя-18 20:35 (спустя 2 месяца 16 дней)

Всем привет! Есть у кого-нибудь озвучка к Цитрусу?

skyclean

Top Bonus 03* 1TB

Стаж: 5 лет 6 месяцев

Сообщений: 354

skyclean · 15-Ноя-18 18:05 (спустя 2 дня 21 час)

Перезалив.Фикс русаба на все эпизоды + добавлены субтитры от [laci & Ryuji] и [Undokaktyz] + озвучка от [KANSAI].

~_~ Плыву...

Николай240291

Стаж: 3 года 10 месяцев

Сообщений: 16

flag

Николай240291 · 15-Ноя-18 18:50 (спустя 45 мин.)

Добавьте плиз, озвучку от Анилибрии, если возможно!

Horodep

Top Loader 04* 1TB

Стаж: 9 лет 8 месяцев

Сообщений: 3378

Horodep · 16-Ноя-18 22:22 (спустя 1 день 3 часа)

skyclean писал(а):
75605795[KANSAI]
=> QC
RIPP1NG Yakusoku no Neverland 1080p+WAKADUB Inuyashiki [2] 91Days [7]
PLAN 2 RIP || Kokkoku || Iron-Blooded Orphans 2nd [hiatus vol4/9] || Megalo Box || ??Hinamatsuri??
Только оригинал, только субтитры, только хардкор.
Блокировка анонсеров bt*
[Список раздач на трекере] One Piece

bot · 16-Ноя-18 22:23 (спустя 1 мин.)

Тема была перенесена из форума Аниме (HD Video) в форум Аниме (QC подраздел)
Horodep
 
 
All rights reserved © 2017-2018
Loading...
Error