Корабли-призраки Великих озер / Ghost Ships of the Great Lakes (Кирк Вулфингер / Kirk Wolfinger) [2011, Документальный, HDTV 1080i, RUS/ENG]

Статистика раздачи
Размер:  2.64 GB   |   Зарегистрирован:  4 месяца 4 дня   |   .torrent скачан:  217 раз

Полный источник: был сегодня

Автор
Сообщение

dean10

Стажер-модератор

Стаж: 8 лет 10 месяцев

Сообщений: 5852

flag

dean10 · 18-Июл-18 09:12 (4 месяца 4 дня назад)

 

Корабли-призраки Великих озер / Ghost Ships of the Great Lakes
Год выпуска: 2011
Страна: США
Студия: NGHT
Жанр: Документальный
Продолжительность: 00:44:28
Перевод: Студийный (одноголосый закадровый)
Доп. инфо о переводе: АРК·ТВ Денис Некрасов
Русские субтитры: нет
Режиссер: Кирк Вулфингер / Kirk Wolfinger
Описание:
С Великими озерами всегда были связаны истории о судах-призраках. Десятки кораблей были потеряны среди штормов и бурь, так что любой моряк может с уверенностью сказать, что здешние воды опасны, подобно океану.
Документальный фильм «Корабли-призраки Великих озер» приглашает зрителей вместе с его создателями отправиться по следам одной загадочной находки. Как найденный в холодных водах озера Верхнее человеческий череп может повлиять на раскрытие одного из самых волнующих секретов Великий озер? Историк и писатель Брендон Байлод вместе с командой дайверов открывают тайны сразу двух почти забытых кораблекрушений.
Поиски героев фильма «Корабли-призраки Великих озер» приводят нас также к жизни смелой и упрямой женщины, которая умерла в этих холодных водах. Стал ли этот факт проклятием здешних вод, или есть более земное объяснение тому, что Великие озера получили репутацию кладбища кораблей?

Сэмпл: http://multi-up.com/1204006
Тип релиза: HDTV 1080i
Контейнер: TS
Видео: AVC, 1920x1080, (16:9), 25 fps, 7.7 Mbps
Аудио: Русский, MP2, 2 ch, 48 KHz, 192 Kbps
Аудио 2: ENG, MP2, 2 ch, 48 KHz, 192 Kbps
MediaInfo
General
ID : 1 (0x1)
Complete name : F:Корабли-призраки Великих озер_HDTV 1080i_RUS_ENG-dds.ts
Format : MPEG-TS
File size : 2.64 GiB
Duration : 44 min 28 s
Overall bit rate mode : Variable
Overall bit rate : 8 509 kb/s
Video
ID : 302 (0x12E)
Menu ID : 26002 (0x6592)
Format : AVC
Format/Info : Advanced Video Codec
Format profile : High@L4
Format settings : CABAC / 4 Ref Frames
Format settings, CABAC : Yes
Format settings, RefFrames : 4 frames
Codec ID : 27
Duration : 44 min 28 s
Bit rate : 7 700 kb/s
Width : 1 920 pixels
Height : 1 080 pixels
Display aspect ratio : 16:9
Frame rate : 25.000 FPS
Standard : Component
Color space : YUV
Chroma subsampling : 4:2:0
Bit depth : 8 bits
Scan type : Interlaced
Scan type, store method : Separated fields
Scan order : Top Field First
Bits/(Pixel*Frame) : 0.149
Stream size : 2.39 GiB (90%)
Color range : Limited
Color primaries : BT.709
Transfer characteristics : BT.709
Matrix coefficients : BT.709
Audio #1
ID : 402 (0x192)
Menu ID : 26002 (0x6592)
Format : AC-3
Format/Info : Audio Coding 3
Codec ID : 6
Duration : 44 min 28 s
Bit rate mode : Constant
Bit rate : 192 kb/s
Channel(s) : 2 channels
Channel positions : Front: L R
Sampling rate : 48.0 kHz
Frame rate : 31.250 FPS (1536 SPF)
Bit depth : 16 bits
Compression mode : Lossy
Delay relative to video : -40 ms
Stream size : 61.1 MiB (2%)
Language : Russian
Service kind : Complete Main
Audio #2
ID : 422 (0x1A6)
Menu ID : 26002 (0x6592)
Format : AC-3
Format/Info : Audio Coding 3
Codec ID : 6
Duration : 44 min 28 s
Bit rate mode : Constant
Bit rate : 192 kb/s
Channel(s) : 2 channels
Channel positions : Front: L R
Sampling rate : 48.0 kHz
Frame rate : 31.250 FPS (1536 SPF)
Bit depth : 16 bits
Compression mode : Lossy
Delay relative to video : -40 ms
Stream size : 61.1 MiB (2%)
Language : English
Service kind : Complete Main
Скриншоты
Зарегистрирован:
  • 18-Июл-18 09:12
  • Скачан: 217 раз

Скачать .torrent

13 KB

Тип: обычная
Статус: проверено
Размер: 2.64 GB  ·  magnet54398B3968369C111BE25B1675BC35EF44527EAE
  • Свернуть поддиректории
  • Развернуть
  • Переключить
  • Увел./умен. окно
загружается...
 
All rights reserved © 2017-2018
Loading...
Error