Елена - принцесса Авалора / Elena of Avalor / Сезон: 1 / Серии: 1-25 из 25 (Craig Gerber / Крэг Гербер) [2016, США, Мультсериал, WEB-DLRip] Dub

Статистика раздачи
Размер:  8.26 GB   |   Зарегистрирован:  3 месяца 29 дней   |   .torrent скачан:  513 раз
Сиды:  9
Автор
Сообщение

Сме_ша_рик

Moderator

Стаж: 9 лет 11 месяцев

Сообщений: 1819

Сме_ша_рик · 21-Июл-18 23:24 (3 месяца 29 дней назад, ред. 22-Июл-18 00:01)

 

Елена - принцесса Авалора / Elena of Avalor
Страна: США
Жанр: Мультсериал
Продолжительность серии: 00:23:00
Год выпуска: 2016
Перевод: Профессиональный (дублированный)
Русские субтитры: нет
Режиссёр: Craig Gerber / Крэг Гербер
Описание: Удивительная история юной Елены, наследницы трона королевства Авалор. В день празднования пятнадцатилетия принцессы, на Авалор напала злая колдунья, которая заточила Елену в магический амулет. Лишь спустя 41 год ей удалось освободиться от заклятия, при этом не постарев ни на день! Теперь законная наследница трона должна занять место, принадлежащее ей по праву. С помощью своего волшебного дара, мудрых советов наставников и, конечно, поддержки друзей, добрая и смелая Елена старается достойно справляться с новой ролью.
За исходник спасибо -Azureus-
Качество: WEB-DLRip
Формат: AVI
Видео: XVID; 720х400 (16:9); 1806 Кбит/сек; 23,976 (24000/1001) кадра/сек
Аудио: AC-3; 192 Кбит/сек; 2 канала; 48,0 КГц
Субтитры: нет
Список серий
1 серия. Первый день правления / First Day of Rule
2 серия. Идеальная сестра / Model Sister
3 серия. Жгучая ярость / All Heated Up
4 серия. Остров юности / Island of Youth
5 серия. Заколдованные / Spellbound
6 серия. Самовлюбленный принц / Prince Too Charming
7 серия. Нашлись и потерялись / Finders Leapers
8 серия. Королевский клуб / Royal Retreat
9 серия. День памяти / A Day to Remember
10 серия. Скипетр света / The Scepter of Light
11 серия. Навидад / Navidad
12 серия. Олабол / Olaball
13 серия. Полет ягуаров / Flight of the Jaquins
14 серия. Хрустальная ловушка / Crystal in the Rough
15 серия. Принцесса-рыцарь / The Princess Knight
16 серия. Возвращение капитана Тёрнер / Captain Turner Returns
17 серия. Король карнавала / King of the Carnaval
18 серия. Моя дорогая Наоми / My Fair Naomi
19 серия. Обезьяньи замашки / Spirit Monkey Business
20 серия. Ученик волшебника / Wizard in Training
21 серия. Королевство крылатых ягуаров / Realm of the Jaquins
22 серия. Проклятие геккона / The Gecko's Tale
23 серия. Вечеринка, длиною в жизнь / Party of a Lifetime
24 серия. Живые статуэтки / Blockheads
25 серия. Волшебные маски / Masks of Magic
Подробные технические данные
Общее
Полное имя : D:\закачки\Елена [GOSTRACKER.XYZ]\01 Первый день правления.avi
Формат : AVI
Формат/Информация : Audio Video Interleave
Размер файла : 351 Мбайт
Продолжительность : 24 м. 27 с.
Общий поток : 2007 Кбит/сек
Программа кодирования : VirtualDubMod 1.5.10.2 (build 2540/release)
Библиотека кодирования : VirtualDubMod build 2540/release
Видео
Идентификатор : 0
Формат : MPEG-4 Visual
Профиль формата : Advanced Simple@L5
Настройки формата : BVOP1
Параметр BVOP формата : 1
Параметр QPel формата : Нет
Параметр GMC формата : Без точки перехода
Параметр матрицы формата : Default (H.263)
Идентификатор кодека : XVID
Идентификатор кодека/Подсказка : XviD
Продолжительность : 24 м. 27 с.
Битрейт : 1806 Кбит/сек
Ширина : 720 пикселей
Высота : 400 пикселей
Соотношение сторон : 16:9
Частота кадров : 23,976 (24000/1001) кадра/сек
Цветовое пространство : YUV
Субдискретизация насыщенности : 4:2:0
Битовая глубина : 8 бит
Тип развёртки : Прогрессивная
Метод сжатия : С потерями
Бит/(Пиксели*Кадры) : 0.262
Размер потока : 316 Мбайт (90%)
Библиотека кодирования : XviD 1.2.1 (UTC 2008-12-04)
Аудио
Идентификатор : 1
Формат : AC-3
Формат/Информация : Audio Coding 3
Идентификатор кодека : 2000
Продолжительность : 24 м. 27 с.
Вид битрейта : Постоянный
Битрейт : 192 Кбит/сек
Каналы : 2 канала
Расположение каналов : Front: L R
Частота : 48,0 КГц
Частота кадров : 31,250 кадров/сек (1536 SPF)
Битовая глубина : 16 бит
Метод сжатия : С потерями
Размер потока : 33,6 Мбайт (10%)
Выравнивание : Соединение по промежуткам
Продолжительность промежутка : 42 мс. (1,00 видеокадр)
Время предзагрузки промежутка : 512 мс.
ServiceKind/String : Complete Main
Скриншоты
сэмпл
все раздачи
Зарегистрирован:
  • 21-Июл-18 23:24
  • Скачан: 513 раз

Скачать .torrent

43 KB

Тип: обычная
Статус: проверено
Размер: 8.26 GB  ·  magnetBDED6493540FC6D3CEEE5C0EF985D3176029D7F9
  • Свернуть поддиректории
  • Развернуть
  • Переключить
  • Увел./умен. окно
загружается...
Об исправлениях недочётах в раздачах сообщать в ЛС строго со ссылкой на раздачу

timoxa-342

Стаж: 11 месяцев

Сообщений: 30

flag

timoxa-342 · 22-Июл-18 16:02 (спустя 16 часов)

Сме_ша_рик Огромное Спасибо за данную игру Лучшему Рипперу Можешь выложить ПРИКЛЮЧЕНИЯ ДЕТСКИЙ МУЛЬТФИЛЬМЫ Бобби и Билл- Франция/2016 - по н.в.и Отряд джунглей спешит на помощь Франция/2014. Буду сильно признателен

Сме_ша_рик

Moderator

Стаж: 9 лет 11 месяцев

Сообщений: 1819

Сме_ша_рик · 22-Июл-18 19:03 (спустя 3 часа)

timoxa-342 писал(а):
75702021Огромное Спасибо
Всегда пожалуйста.
timoxa-342 писал(а):
75702021Бобби и Билл- Франция
timoxa-342 писал(а):
75702021Отряд джунглей спешит на помощь
Скорей всего нет. Они есть на онлайнресурсах. А у подобных вещей как правило картинка очень маленькая да и битрейд тоже. Я с такими вещами как правило не завожусь. Очень редко. По этому скорей всего не выложу. На рутракере исходника я не нашёл.
Об исправлениях недочётах в раздачах сообщать в ЛС строго со ссылкой на раздачу

timoxa-342

Стаж: 11 месяцев

Сообщений: 30

flag

timoxa-342 · 22-Июл-18 21:18 (спустя 2 часа 15 мин.)

жаль .Хотел скачать племяш он обожает эти мультики

draconicara

Стаж: 6 лет 10 месяцев

Сообщений: 87

flag

draconicara · 11-Окт-18 19:35 (спустя 2 месяца 19 дней)

второй сезон будете выкладывать (2-10 серии уже вышли в русской озвучке)?

Сме_ша_рик

Moderator

Стаж: 9 лет 11 месяцев

Сообщений: 1819

Сме_ша_рик · 18-Окт-18 16:31 (спустя 6 дней)

draconicara писал(а):
76114562второй сезон будете выкладывать (2-10 серии уже вышли в русской озвучке)?
Пока не планирую. Но буду иметь ввиду.
Об исправлениях недочётах в раздачах сообщать в ЛС строго со ссылкой на раздачу

draconicara

Стаж: 6 лет 10 месяцев

Сообщений: 87

flag

draconicara · 07-Ноя-18 10:29 (спустя 19 дней)

кстати второй сезон уже можно скачать с tfile
 
All rights reserved © 2017-2018
Loading...
Error