(Rock) [CD] Dennis DeYoung - Desert Moon [A&M Records, CD 5006, Japan/USA] - 1984, FLAC (tracks+.cue), lossless

Статистика раздачи
Размер:  280.3 MB   |   Зарегистрирован:  3 месяца 17 дней   |   .torrent скачан:  171 раз
Сиды:  2   Личи:  1
Автор
Сообщение

powermet

Стаж: 7 лет 6 месяцев

Сообщений: 907

flag

powermet · 29-Июл-18 13:05 (3 месяца 17 дней назад, ред. 29-Июл-18 13:07)

 

Dennis DeYoung / Desert Moon
Жанр: Rock
Носитель: CD
Страна-производитель диска (релиза): Japan/USA
Год издания: 1984
Издатель (лейбл): A&M Records
Номер по каталогу: CD 5006
Страна исполнителя (группы): USA
Аудиокодек: FLAC (*.flac)
Тип рипа: tracks+.cue
Битрейт аудио: lossless
Продолжительность: 00:39:23
Источник (релизер): Own CD, Rip & Artwork
Наличие сканов в содержимом раздачи: Front/Inside/Back/CD

Треклист:
01. Don't Wait For Heroes
02. Please
03. Boys Will Be Boys
04. Fire
05. Desert Moon
06. Suspicious
07. Gravity
08. Dear Darling (I'll Be There)
Лог создания рипа
Exact Audio Copy V1.3 from 2. September 2016
EAC extraction logfile from 29. July 2018, 11:45
Dennis DeYoung / Desert Moon
Used drive : HL-DT-STDVDRAM GH22NS40 Adapter: 1 ID: 0
Read mode : Secure
Utilize accurate stream : Yes
Defeat audio cache : Yes
Make use of C2 pointers : No
Read offset correction : 667
Overread into Lead-In and Lead-Out : No
Fill up missing offset samples with silence : Yes
Delete leading and trailing silent blocks : No
Null samples used in CRC calculations : Yes
Used interface : Native Win32 interface for Win NT & 2000
Gap handling : Appended to previous track
Used output format : User Defined Encoder
Selected bitrate : 896 kBit/s
Quality : High
Add ID3 tag : No
Command line compressor : C:\Program Files\Exact Audio Copy\Flac\flac.exe
Additional command line options : -8 -V -T "ARTIST=%artist%" -T "TITLE=%title%" -T "ALBUM=%albumtitle%" -T "DATE=%year%" -T "TRACKNUMBER=%tracknr%" -T "TOTALTRACKS=%numtracks%" -T "GENRE=%genre%" -T "COMMENT=EAC Secure Mode, Test & Copy, AccurateRip, FLAC -8" %source%
TOC of the extracted CD
Track | Start | Length | Start sector | End sector
---------------------------------------------------------
1 | 0:00.00 | 4:49.00 | 0 | 21674
2 | 4:49.00 | 4:24.37 | 21675 | 41511
3 | 9:13.37 | 5:44.38 | 41512 | 67349
4 | 14:58.00 | 3:48.70 | 67350 | 84519
5 | 18:46.70 | 6:12.67 | 84520 | 112486
6 | 24:59.62 | 5:00.25 | 112487 | 135011
7 | 30:00.12 | 4:54.58 | 135012 | 157119
8 | 34:54.70 | 4:33.07 | 157120 | 177601
Track 1
Filename I:\Rips\Dennis DeYoung - Desert Moon (1984) [FLAC]\01 - Don't Wait For Heroes.wav
Pre-gap length 0:00:02.00
Peak level 100.0 %
Extraction speed 3.7 X
Track quality 100.0 %
Test CRC A73505E4
Copy CRC A73505E4
Accurately ripped (confidence 6) [DC6D5A6F] (AR v2)
Copy OK
Track 2
Filename I:\Rips\Dennis DeYoung - Desert Moon (1984) [FLAC]\02 - Please.wav
Pre-gap length 0:00:00.48
Peak level 97.6 %
Extraction speed 4.0 X
Track quality 100.0 %
Test CRC 5D338614
Copy CRC 5D338614
Accurately ripped (confidence 7) [4C326CAE] (AR v2)
Copy OK
Track 3
Filename I:\Rips\Dennis DeYoung - Desert Moon (1984) [FLAC]\03 - Boys Will Be Boys.wav
Pre-gap length 0:00:01.12
Peak level 97.4 %
Extraction speed 4.5 X
Track quality 100.0 %
Test CRC 78CA30F4
Copy CRC 78CA30F4
Accurately ripped (confidence 7) [75E0822E] (AR v2)
Copy OK
Track 4
Filename I:\Rips\Dennis DeYoung - Desert Moon (1984) [FLAC]\04 - Fire.wav
Pre-gap length 0:00:01.03
Peak level 87.1 %
Extraction speed 4.5 X
Track quality 100.0 %
Test CRC 2CBD61A1
Copy CRC 2CBD61A1
Accurately ripped (confidence 7) [60D2F55D] (AR v2)
Copy OK
Track 5
Filename I:\Rips\Dennis DeYoung - Desert Moon (1984) [FLAC]\05 - Desert Moon.wav
Peak level 97.9 %
Extraction speed 5.2 X
Track quality 100.0 %
Test CRC B7349178
Copy CRC B7349178
Accurately ripped (confidence 7) [BF5FF52A] (AR v2)
Copy OK
Track 6
Filename I:\Rips\Dennis DeYoung - Desert Moon (1984) [FLAC]\06 - Suspicious.wav
Pre-gap length 0:00:00.45
Peak level 88.4 %
Extraction speed 5.3 X
Track quality 100.0 %
Test CRC 1C38EA0C
Copy CRC 1C38EA0C
Accurately ripped (confidence 7) [E3968919] (AR v2)
Copy OK
Track 7
Filename I:\Rips\Dennis DeYoung - Desert Moon (1984) [FLAC]\07 - Gravity.wav
Pre-gap length 0:00:00.30
Peak level 77.4 %
Extraction speed 4.8 X
Track quality 99.9 %
Test CRC A97641AF
Copy CRC A97641AF
Accurately ripped (confidence 7) [75AB4680] (AR v2)
Copy OK
Track 8
Filename I:\Rips\Dennis DeYoung - Desert Moon (1984) [FLAC]\08 - Dear Darling (I'll Be There).wav
Pre-gap length 0:00:01.30
Peak level 77.0 %
Extraction speed 5.9 X
Track quality 100.0 %
Test CRC A1F34B05
Copy CRC A1F34B05
Accurately ripped (confidence 7) [C749D463] (AR v2)
Copy OK
All tracks accurately ripped
No errors occurred
End of status report
---- CUETools DB Plugin V2.1.6
[CTDB TOCID: 2SX9vTAUklBn0lIALD4PK5thh5I-] found
Submit result: already submitted
Track | CTDB Status
1 | (8/9) Accurately ripped
2 | (9/9) Accurately ripped
3 | (9/9) Accurately ripped
4 | (9/9) Accurately ripped
5 | (9/9) Accurately ripped
6 | (9/9) Accurately ripped
7 | (9/9) Accurately ripped
8 | (9/9) Accurately ripped
==== Log checksum 5004C0B37ECB953518E2E05A46D55FD900C15CBCE0CF952A5E5A77E6F2CD713B ====
Содержание индексной карты (.CUE)
REM GENRE Rock
REM DATE 1984
REM DISCID 55094008
REM COMMENT "ExactAudioCopy v1.3"
PERFORMER "Dennis DeYoung"
TITLE "Desert Moon"
REM COMPOSER ""
FILE "01 - Don't Wait For Heroes.wav" WAVE
TRACK 01 AUDIO
TITLE "Don't Wait For Heroes"
PERFORMER "Dennis DeYoung"
REM COMPOSER ""
INDEX 01 00:00:00
TRACK 02 AUDIO
TITLE "Please"
PERFORMER "Dennis DeYoung"
REM COMPOSER ""
INDEX 00 04:48:27
FILE "02 - Please.wav" WAVE
INDEX 01 00:00:00
TRACK 03 AUDIO
TITLE "Boys Will Be Boys"
PERFORMER "Dennis DeYoung"
REM COMPOSER ""
INDEX 00 04:23:25
FILE "03 - Boys Will Be Boys.wav" WAVE
INDEX 01 00:00:00
TRACK 04 AUDIO
TITLE "Fire"
PERFORMER "Dennis DeYoung"
REM COMPOSER ""
INDEX 00 05:43:35
FILE "04 - Fire.wav" WAVE
INDEX 01 00:00:00
FILE "05 - Desert Moon.wav" WAVE
TRACK 05 AUDIO
TITLE "Desert Moon"
PERFORMER "Dennis DeYoung"
REM COMPOSER ""
INDEX 01 00:00:00
TRACK 06 AUDIO
TITLE "Suspicious"
PERFORMER "Dennis DeYoung"
REM COMPOSER ""
INDEX 00 06:12:22
FILE "06 - Suspicious.wav" WAVE
INDEX 01 00:00:00
TRACK 07 AUDIO
TITLE "Gravity"
PERFORMER "Dennis DeYoung"
REM COMPOSER ""
INDEX 00 04:59:70
FILE "07 - Gravity.wav" WAVE
INDEX 01 00:00:00
TRACK 08 AUDIO
TITLE "Dear Darling (I'll Be There)"
PERFORMER "Dennis DeYoung"
REM COMPOSER ""
INDEX 00 04:53:28
FILE "08 - Dear Darling (I'll Be There).wav" WAVE
INDEX 01 00:00:00
AccurateRip
[CUETools log; Date: 29.07.2018 12:58:48; Version: 2.1.5]
[CTDB TOCID: 2SX9vTAUklBn0lIALD4PK5thh5I-] found.
Track | CTDB Status
1 | (8/9) Accurately ripped
2 | (9/9) Accurately ripped
3 | (9/9) Accurately ripped
4 | (9/9) Accurately ripped
5 | (9/9) Accurately ripped
6 | (9/9) Accurately ripped
7 | (9/9) Accurately ripped
8 | (9/9) Accurately ripped
[AccurateRip ID: 000c2a5e-005168e7-55094008] found.
Track [ CRC | V2 ] Status
01 [ee58dbe9|dc6d5a6f] (03+06/09) Accurately ripped
02 [e2e2ac47|4c326cae] (03+07/10) Accurately ripped
03 [ae35f122|75e0822e] (03+07/10) Accurately ripped
04 [e279560f|60d2f55d] (03+07/10) Accurately ripped
05 [bb830837|bf5ff52a] (03+07/10) Accurately ripped
06 [30b6e22e|e3968919] (03+07/10) Accurately ripped
07 [91f37152|75ab4680] (03+07/10) Accurately ripped
08 [eb643727|c749d463] (03+07/10) Accurately ripped
Track Peak [ CRC32 ] [W/O NULL] [ LOG ]
-- 100,0 [AF9A4DEB] [FE7A1B06]
01 100,0 [A73505E4] [87425F7F] CRC32
02 97,6 [5D338614] [CBB8DF45] CRC32
03 97,4 [78CA30F4] [7421A3F3] CRC32
04 87,1 [2CBD61A1] [4247127F] CRC32
05 97,9 [B7349178] [8155C8EF] CRC32
06 88,4 [1C38EA0C] [52BB761C] CRC32
07 77,4 [A97641AF] [238A28D7] CRC32
08 77,0 [A1F34B05] [E74AF513] CRC32
Зарегистрирован:
  • 29-Июл-18 13:05
  • Скачан: 171 раз

Скачать .torrent

12 KB

Тип: обычная
Статус: проверено
Размер: 280.3 MB  ·  magnet28A499E1989F0BD36BF841B089E0AC38109CD939
  • Свернуть поддиректории
  • Развернуть
  • Переключить
  • Увел./умен. окно
загружается...

Judith_70

Стаж: 9 лет 5 месяцев

Сообщений: 949

flag

Judith_70 · 29-Июл-18 19:59 (спустя 6 часов)

Большое Вам спасибо!
Остался только "Back To The World"

bobrw

Стаж: 6 лет 11 месяцев

Сообщений: 5

flag

bobrw · 18-Авг-18 16:13 (спустя 19 дней)

Хороший альбом в лучших традициях STYX
 
All rights reserved © 2017-2018
Loading...
Error